999
DXF file: ffast823-101500bt0_2.dxf
999
Pro/ENGINEER 2014440 by Parametric Technology Corporation
  0
SECTION
  2
HEADER
  9
$ACADVER
  1
AC1021
  9
$DWGCODEPAGE
  3
ANSI_1252
  9
$EXTMAX
 10
297.0
 20
210.0
 30
0.0
  9
$EXTMIN
 10
0.0
 20
0.0
 30
0.0
  9
$LIMMIN
 10
0.0
 20
0.0
  9
$LIMMAX
 10
297.0
 20
210.0
  9
$VIEWCTR
 10
148.5
 20
105.0
  9
$VIEWSIZE
 40
210.0
  9
$CLAYER
  8
0
  9
$LTSCALE
 40
16.335
  9
$CELTYPE
  6
BYLAYER
  9
$DIMSCALE
 40
1.0
  9
$DIMASZ
 40
3.0
  9
$DIMEXO
 40
1.0
  9
$DIMDLI
 40
11.286
  9
$DIMEXE
 40
2.0
  9
$DIMCEN
 40
2.673
  9
$DIMLFAC
 40
1.0
  9
$DIMBLK
  1
_FILLED
  9
$DIMALT
 70
0
  9
$DIMALTF
 40
0.0393700787
  9
$DIMTXT
 40
3.0
  9
$DIMTOL
 70
1
  9
$DIMLIM
 70
0
  9
$DIMTFAC
 40
1.0
  9
$DIMTP
 40
0.001
  9
$DIMTM
 40
0.001
  9
$DIMGAP
 40
0.625
  9
$DIMDSEP
 70
46
  9
$AUNITS
 70
0
  9
$PDMODE
 70
3
  9
$PDSIZE
 40
0.3125
  9
$HANDSEED
  5
5F7
  9
$TILEMODE
 70
1
  9
$MEASUREMENT
 70
1
  9
$INSUNITS
 70
4
  0
ENDSEC
  0
SECTION
  2
CLASSES
  0
CLASS
  1
ACDBDICTIONARYWDFLT
  2
AcDbDictionaryWithDefault
  3
AutoCAD 2000
 90
0
 91
1
280
0
281
0
  0
CLASS
  1
ACDBPLACEHOLDER
  2
AcDbPlaceHolder
  3
AutoCAD 2000
 90
0
 91
1
280
0
281
0
  0
CLASS
  1
LAYOUT
  2
AcDbLayout
  3
AutoCAD 2000
 90
0
 91
0
280
0
281
0
  0
ENDSEC
  0
SECTION
  2
TABLES
  0
TABLE
  2
VPORT
  5
8
100
AcDbSymbolTable
 70
2
  0
VPORT
  5
1F4
100
AcDbSymbolTableRecord
100
AcDbViewportTableRecord
  2
*ACTIVE
 70
0
 10
0.0
 20
0.0
 11
1.0
 21
1.0
 12
148.5
 22
105.0
 13
0.0
 23
0.0
 14
1.0
 24
1.0
 15
0.0
 25
0.0
 16
0.0
 26
0.0
 36
1.0
 17
0.0
 27
0.0
 37
0.0
 40
210.0
 41
1.4142857143
 42
50.0
 43
0.0
 44
0.0
 50
0.0
 51
0.0
 71
0
 72
100
 73
1
 74
1
 75
0
 76
0
 77
0
 78
0
  0
ENDTAB
  0
TABLE
  2
LTYPE
  5
5
100
AcDbSymbolTable
 70
6
  0
LTYPE
  5
14
100
AcDbSymbolTableRecord
100
AcDbLinetypeTableRecord
  2
BYBLOCK
 70
0
  3

 72
65
 73
0
 40
0.0
  0
LTYPE
  5
15
100
AcDbSymbolTableRecord
100
AcDbLinetypeTableRecord
  2
BYLAYER
 70
0
  3

 72
65
 73
0
 40
0.0
  0
LTYPE
  5
16
100
AcDbSymbolTableRecord
100
AcDbLinetypeTableRecord
  2
CONTINUOUS
 70
64
  3
Solid line
 72
65
 73
0
 40
0.0
  0
LTYPE
  5
1F5
100
AcDbSymbolTableRecord
100
AcDbLinetypeTableRecord
  2
CENTER
 70
64
  3
____ _ ____ _ ____ _ ____ _ ____ _ ____ _ ____
 72
65
 73
4
 40
0.6
 49
0.375
 74
0
 49
-0.075
 74
0
 49
0.075
 74
0
 49
-0.075
 74
0
  0
LTYPE
  5
1F6
100
AcDbSymbolTableRecord
100
AcDbLinetypeTableRecord
  2
HIDDEN
 70
64
  3
- - - - - - - - - - - - - - - - - - - -
 72
65
 73
2
 40
0.2
 49
0.1
 74
0
 49
-0.1
 74
0
  0
LTYPE
  5
1F7
100
AcDbSymbolTableRecord
100
AcDbLinetypeTableRecord
  2
PHANTOM
 70
64
  3
_____ _ _ _____ _ _ _____ _ _ _____
 72
65
 73
6
 40
0.8
 49
0.45
 74
0
 49
-0.05
 74
0
 49
0.1
 74
0
 49
-0.05
 74
0
 49
0.1
 74
0
 49
-0.05
 74
0
  0
LTYPE
  5
1F8
100
AcDbSymbolTableRecord
100
AcDbLinetypeTableRecord
  2
DOT
 70
64
  3
. . . . . . . . . . . . . . . . . . . .
 72
65
 73
2
 40
0.2
 49
0.1
 74
0
 49
-0.1
 74
0
  0
LTYPE
  5
1F9
100
AcDbSymbolTableRecord
100
AcDbLinetypeTableRecord
  2
DASHED
 70
64
  3
- - - - - - - - - - - - - - - - - - - -
 72
65
 73
2
 40
0.2
 49
0.1
 74
0
 49
-0.1
 74
0
  0
ENDTAB
  0
TABLE
  2
LAYER
  5
2
100
AcDbSymbolTable
 70
36
  0
LAYER
  5
10
100
AcDbSymbolTableRecord
100
AcDbLayerTableRecord
  2
0
 70
0
 62
7
  6
CONTINUOUS
370
-3
390
F
  0
LAYER
  5
1FA
100
AcDbSymbolTableRecord
100
AcDbLayerTableRecord
  2
DEFAULT_1
 70
0
 62
7
  6
CENTER
370
-3
390
F
  0
LAYER
  5
1FB
100
AcDbSymbolTableRecord
100
AcDbLayerTableRecord
  2
DEFAULT_2
 70
0
 62
8
  6
HIDDEN
370
-3
390
F
  0
LAYER
  5
1FC
100
AcDbSymbolTableRecord
100
AcDbLayerTableRecord
  2
DEFAULT_3
 70
0
 62
7
  6
PHANTOM
370
-3
390
F
  0
LAYER
  5
1FD
100
AcDbSymbolTableRecord
100
AcDbLayerTableRecord
  2
01_ALL_DTM_PLN
 70
0
 62
7
  6
CONTINUOUS
370
-3
390
F
  0
LAYER
  5
1FE
100
AcDbSymbolTableRecord
100
AcDbLayerTableRecord
  2
01__ASM_ALL_DTM_PLN
 70
0
 62
7
  6
CONTINUOUS
370
-3
390
F
  0
LAYER
  5
1FF
100
AcDbSymbolTableRecord
100
AcDbLayerTableRecord
  2
01__ASM_DEF_DTM_PLN
 70
0
 62
7
  6
CONTINUOUS
370
-3
390
F
  0
LAYER
  5
200
100
AcDbSymbolTableRecord
100
AcDbLayerTableRecord
  2
01___PRT_ALL_DTM_PLN
 70
0
 62
7
  6
CONTINUOUS
370
-3
390
F
  0
LAYER
  5
201
100
AcDbSymbolTableRecord
100
AcDbLayerTableRecord
  2
01___PRT_DEF_DTM_PLN
 70
0
 62
7
  6
CONTINUOUS
370
-3
390
F
  0
LAYER
  5
202
100
AcDbSymbolTableRecord
100
AcDbLayerTableRecord
  2
02_ALL_AXES
 70
0
 62
7
  6
CONTINUOUS
370
-3
390
F
  0
LAYER
  5
203
100
AcDbSymbolTableRecord
100
AcDbLayerTableRecord
  2
02__ASM_ALL_AXES
 70
0
 62
7
  6
CONTINUOUS
370
-3
390
F
  0
LAYER
  5
204
100
AcDbSymbolTableRecord
100
AcDbLayerTableRecord
  2
02___PRT_ALL_AXES
 70
0
 62
7
  6
CONTINUOUS
370
-3
390
F
  0
LAYER
  5
205
100
AcDbSymbolTableRecord
100
AcDbLayerTableRecord
  2
03_ALL_CURVES
 70
0
 62
7
  6
CONTINUOUS
370
-3
390
F
  0
LAYER
  5
206
100
AcDbSymbolTableRecord
100
AcDbLayerTableRecord
  2
03__ASM_ALL_CURVES
 70
0
 62
7
  6
CONTINUOUS
370
-3
390
F
  0
LAYER
  5
207
100
AcDbSymbolTableRecord
100
AcDbLayerTableRecord
  2
03___PRT_ALL_CURVES
 70
0
 62
7
  6
CONTINUOUS
370
-3
390
F
  0
LAYER
  5
208
100
AcDbSymbolTableRecord
100
AcDbLayerTableRecord
  2
04_ALL_DTM_PNT
 70
0
 62
7
  6
CONTINUOUS
370
-3
390
F
  0
LAYER
  5
209
100
AcDbSymbolTableRecord
100
AcDbLayerTableRecord
  2
04__ASM_ALL_DTM_PNT
 70
0
 62
7
  6
CONTINUOUS
370
-3
390
F
  0
LAYER
  5
20A
100
AcDbSymbolTableRecord
100
AcDbLayerTableRecord
  2
04___PRT_ALL_DTM_PNT
 70
0
 62
7
  6
CONTINUOUS
370
-3
390
F
  0
LAYER
  5
20B
100
AcDbSymbolTableRecord
100
AcDbLayerTableRecord
  2
05_ALL_DTM_CSYS
 70
0
 62
7
  6
CONTINUOUS
370
-3
390
F
  0
LAYER
  5
20C
100
AcDbSymbolTableRecord
100
AcDbLayerTableRecord
  2
05__ASM_ALL_DTM_CSYS
 70
0
 62
7
  6
CONTINUOUS
370
-3
390
F
  0
LAYER
  5
20D
100
AcDbSymbolTableRecord
100
AcDbLayerTableRecord
  2
05__ASM_DEF_DTM_CSYS
 70
0
 62
7
  6
CONTINUOUS
370
-3
390
F
  0
LAYER
  5
20E
100
AcDbSymbolTableRecord
100
AcDbLayerTableRecord
  2
05___PRT_ALL_DTM_CSYS
 70
0
 62
7
  6
CONTINUOUS
370
-3
390
F
  0
LAYER
  5
20F
100
AcDbSymbolTableRecord
100
AcDbLayerTableRecord
  2
05___PRT_DEF_DTM_CSYS
 70
0
 62
7
  6
CONTINUOUS
370
-3
390
F
  0
LAYER
  5
210
100
AcDbSymbolTableRecord
100
AcDbLayerTableRecord
  2
06_ALL_SURFS
 70
0
 62
7
  6
CONTINUOUS
370
-3
390
F
  0
LAYER
  5
211
100
AcDbSymbolTableRecord
100
AcDbLayerTableRecord
  2
06__ASM_ALL_SURFS
 70
0
 62
7
  6
CONTINUOUS
370
-3
390
F
  0
LAYER
  5
212
100
AcDbSymbolTableRecord
100
AcDbLayerTableRecord
  2
06___PRT_ALL_SURFS
 70
0
 62
7
  6
CONTINUOUS
370
-3
390
F
  0
LAYER
  5
213
100
AcDbSymbolTableRecord
100
AcDbLayerTableRecord
  2
06___PRT_AL_SURFS
 70
0
 62
7
  6
CONTINUOUS
370
-3
390
F
  0
LAYER
  5
214
100
AcDbSymbolTableRecord
100
AcDbLayerTableRecord
  2
07__ASM_ALL_SKELETONS
 70
0
 62
7
  6
CONTINUOUS
370
-3
390
F
  0
LAYER
  5
215
100
AcDbSymbolTableRecord
100
AcDbLayerTableRecord
  2
2
 70
0
 62
7
  6
CONTINUOUS
370
-3
390
F
  0
LAYER
  5
216
100
AcDbSymbolTableRecord
100
AcDbLayerTableRecord
  2
5801227_1
 70
0
 62
7
  6
CONTINUOUS
370
-3
390
F
  0
LAYER
  5
217
100
AcDbSymbolTableRecord
100
AcDbLayerTableRecord
  2
AXIS
 70
0
 62
7
  6
CONTINUOUS
370
-3
390
F
  0
LAYER
  5
218
100
AcDbSymbolTableRecord
100
AcDbLayerTableRecord
  2
BODY
 70
0
 62
7
  6
CONTINUOUS
370
-3
390
F
  0
LAYER
  5
219
100
AcDbSymbolTableRecord
100
AcDbLayerTableRecord
  2
CSYS
 70
0
 62
7
  6
CONTINUOUS
370
-3
390
F
  0
LAYER
  5
21A
100
AcDbSymbolTableRecord
100
AcDbLayerTableRecord
  2
CUVRE110-3
 70
0
 62
7
  6
CONTINUOUS
370
-3
390
F
  0
LAYER
  5
21B
100
AcDbSymbolTableRecord
100
AcDbLayerTableRecord
  2
CUVRE110-4
 70
0
 62
7
  6
CONTINUOUS
370
-3
390
F
  0
LAYER
  5
21C
100
AcDbSymbolTableRecord
100
AcDbLayerTableRecord
  2
DATUM
 70
0
 62
7
  6
CONTINUOUS
370
-3
390
F
  0
LAYER
  5
21D
100
AcDbSymbolTableRecord
100
AcDbLayerTableRecord
  2
DEF_ASSEM_MEMBER
 70
0
 62
7
  6
CONTINUOUS
370
-3
390
F
  0
LAYER
  5
21E
100
AcDbSymbolTableRecord
100
AcDbLayerTableRecord
  2
DEF_ASSY_CUT_FEAT
 70
0
 62
7
  6
CONTINUOUS
370
-3
390
F
  0
LAYER
  5
21F
100
AcDbSymbolTableRecord
100
AcDbLayerTableRecord
  2
DEF_AXIS
 70
0
 62
7
  6
CONTINUOUS
370
-3
390
F
  0
LAYER
  5
220
100
AcDbSymbolTableRecord
100
AcDbLayerTableRecord
  2
DEF_CHAMFER_FEAT
 70
0
 62
7
  6
CONTINUOUS
370
-3
390
F
  0
LAYER
  5
221
100
AcDbSymbolTableRecord
100
AcDbLayerTableRecord
  2
DEF_CORN_CHAMF_FEAT
 70
0
 62
7
  6
CONTINUOUS
370
-3
390
F
  0
LAYER
  5
222
100
AcDbSymbolTableRecord
100
AcDbLayerTableRecord
  2
DEF_COSM_SKETCH
 70
0
 62
7
  6
CONTINUOUS
370
-3
390
F
  0
LAYER
  5
223
100
AcDbSymbolTableRecord
100
AcDbLayerTableRecord
  2
DEF_CSYS
 70
0
 62
7
  6
CONTINUOUS
370
-3
390
F
  0
LAYER
  5
224
100
AcDbSymbolTableRecord
100
AcDbLayerTableRecord
  2
DEF_CURVE
 70
0
 62
7
  6
CONTINUOUS
370
-3
390
F
  0
LAYER
  5
225
100
AcDbSymbolTableRecord
100
AcDbLayerTableRecord
  2
DEF_CURVE_ENT
 70
0
 62
7
  6
CONTINUOUS
370
-3
390
F
  0
LAYER
  5
226
100
AcDbSymbolTableRecord
100
AcDbLayerTableRecord
  2
DEF_CUT_FEAT
 70
0
 62
7
  6
CONTINUOUS
370
-3
390
F
  0
LAYER
  5
227
100
AcDbSymbolTableRecord
100
AcDbLayerTableRecord
  2
DEF_DATUM
 70
0
 62
7
  6
CONTINUOUS
370
-3
390
F
  0
LAYER
  5
228
100
AcDbSymbolTableRecord
100
AcDbLayerTableRecord
  2
DEF_DATUM_PLANE
 70
0
 62
7
  6
CONTINUOUS
370
-3
390
F
  0
LAYER
  5
229
100
AcDbSymbolTableRecord
100
AcDbLayerTableRecord
  2
DEF_DATUM_POINT
 70
0
 62
7
  6
CONTINUOUS
370
-3
390
F
  0
LAYER
  5
22A
100
AcDbSymbolTableRecord
100
AcDbLayerTableRecord
  2
DEF_DETAIL_ITEM
 70
0
 62
7
  6
CONTINUOUS
370
-3
390
F
  0
LAYER
  5
22B
100
AcDbSymbolTableRecord
100
AcDbLayerTableRecord
  2
DEF_DGM_CONN_COMP
 70
0
 62
7
  6
CONTINUOUS
370
-3
390
F
  0
LAYER
  5
22C
100
AcDbSymbolTableRecord
100
AcDbLayerTableRecord
  2
DEF_DGM_HIGHWAY
 70
0
 62
7
  6
CONTINUOUS
370
-3
390
F
  0
LAYER
  5
22D
100
AcDbSymbolTableRecord
100
AcDbLayerTableRecord
  2
DEF_DGM_RAIL
 70
0
 62
7
  6
CONTINUOUS
370
-3
390
F
  0
LAYER
  5
22E
100
AcDbSymbolTableRecord
100
AcDbLayerTableRecord
  2
DEF_DGM_WIRE
 70
0
 62
7
  6
CONTINUOUS
370
-3
390
F
  0
LAYER
  5
22F
100
AcDbSymbolTableRecord
100
AcDbLayerTableRecord
  2
DEF_DIM
 70
0
 62
7
  6
CONTINUOUS
370
-3
390
F
  0
LAYER
  5
230
100
AcDbSymbolTableRecord
100
AcDbLayerTableRecord
  2
DEF_DRAFT_CONSTR
 70
0
 62
7
  6
CONTINUOUS
370
-3
390
F
  0
LAYER
  5
231
100
AcDbSymbolTableRecord
100
AcDbLayerTableRecord
  2
DEF_DRAFT_DIM
 70
0
 62
7
  6
CONTINUOUS
370
-3
390
F
  0
LAYER
  5
232
100
AcDbSymbolTableRecord
100
AcDbLayerTableRecord
  2
DEF_DRAFT_DTM
 70
0
 62
7
  6
CONTINUOUS
370
-3
390
F
  0
LAYER
  5
233
100
AcDbSymbolTableRecord
100
AcDbLayerTableRecord
  2
DEF_DRAFT_ENTITY
 70
0
 62
7
  6
CONTINUOUS
370
-3
390
F
  0
LAYER
  5
234
100
AcDbSymbolTableRecord
100
AcDbLayerTableRecord
  2
DEF_DRAFT_FEAT
 70
0
 62
7
  6
CONTINUOUS
370
-3
390
F
  0
LAYER
  5
235
100
AcDbSymbolTableRecord
100
AcDbLayerTableRecord
  2
DEF_DRAFT_GEOM
 70
0
 62
7
  6
CONTINUOUS
370
-3
390
F
  0
LAYER
  5
236
100
AcDbSymbolTableRecord
100
AcDbLayerTableRecord
  2
DEF_DRAFT_GRP
 70
0
 62
7
  6
CONTINUOUS
370
-3
390
F
  0
LAYER
  5
237
100
AcDbSymbolTableRecord
100
AcDbLayerTableRecord
  2
DEF_DRAFT_HIDDEN
 70
0
 62
7
  6
CONTINUOUS
370
-3
390
F
  0
LAYER
  5
238
100
AcDbSymbolTableRecord
100
AcDbLayerTableRecord
  2
DEF_DRAFT_OTHERS
 70
0
 62
7
  6
CONTINUOUS
370
-3
390
F
  0
LAYER
  5
239
100
AcDbSymbolTableRecord
100
AcDbLayerTableRecord
  2
DEF_DRAFT_REDEFINE
 70
0
 62
7
  6
CONTINUOUS
370
-3
390
F
  0
LAYER
  5
23A
100
AcDbSymbolTableRecord
100
AcDbLayerTableRecord
  2
DEF_DRIVEN_DIM
 70
0
 62
7
  6
CONTINUOUS
370
-3
390
F
  0
LAYER
  5
23B
100
AcDbSymbolTableRecord
100
AcDbLayerTableRecord
  2
DEF_DWG_TABLE
 70
0
 62
7
  6
CONTINUOUS
370
-3
390
F
  0
LAYER
  5
23C
100
AcDbSymbolTableRecord
100
AcDbLayerTableRecord
  2
DEF_FEATURE
 70
0
 62
7
  6
CONTINUOUS
370
-3
390
F
  0
LAYER
  5
23D
100
AcDbSymbolTableRecord
100
AcDbLayerTableRecord
  2
DEF_GEOM_FEAT
 70
0
 62
7
  6
CONTINUOUS
370
-3
390
F
  0
LAYER
  5
23E
100
AcDbSymbolTableRecord
100
AcDbLayerTableRecord
  2
DEF_GTOL
 70
0
 62
7
  6
CONTINUOUS
370
-3
390
F
  0
LAYER
  5
23F
100
AcDbSymbolTableRecord
100
AcDbLayerTableRecord
  2
DEF_HOLE_FEAT
 70
0
 62
7
  6
CONTINUOUS
370
-3
390
F
  0
LAYER
  5
240
100
AcDbSymbolTableRecord
100
AcDbLayerTableRecord
  2
DEF_LAYER_ASSEM_MEMBER
 70
0
 62
7
  6
CONTINUOUS
370
-3
390
F
  0
LAYER
  5
241
100
AcDbSymbolTableRecord
100
AcDbLayerTableRecord
  2
DEF_LAYER_AXIS
 70
0
 62
7
  6
CONTINUOUS
370
-3
390
F
  0
LAYER
  5
242
100
AcDbSymbolTableRecord
100
AcDbLayerTableRecord
  2
DEF_LAYER_CSYS
 70
0
 62
7
  6
CONTINUOUS
370
-3
390
F
  0
LAYER
  5
243
100
AcDbSymbolTableRecord
100
AcDbLayerTableRecord
  2
DEF_LAYER_CURVE
 70
0
 62
7
  6
CONTINUOUS
370
-3
390
F
  0
LAYER
  5
244
100
AcDbSymbolTableRecord
100
AcDbLayerTableRecord
  2
DEF_LAYER_CUT_FEAT
 70
0
 62
7
  6
CONTINUOUS
370
-3
390
F
  0
LAYER
  5
245
100
AcDbSymbolTableRecord
100
AcDbLayerTableRecord
  2
DEF_LAYER_DATUM
 70
0
 62
7
  6
CONTINUOUS
370
-3
390
F
  0
LAYER
  5
246
100
AcDbSymbolTableRecord
100
AcDbLayerTableRecord
  2
DEF_LAYER_DATUM_POINT
 70
0
 62
7
  6
CONTINUOUS
370
-3
390
F
  0
LAYER
  5
247
100
AcDbSymbolTableRecord
100
AcDbLayerTableRecord
  2
DEF_LAYER_DIM
 70
0
 62
7
  6
CONTINUOUS
370
-3
390
F
  0
LAYER
  5
248
100
AcDbSymbolTableRecord
100
AcDbLayerTableRecord
  2
DEF_LAYER_NOTE
 70
0
 62
7
  6
CONTINUOUS
370
-3
390
F
  0
LAYER
  5
249
100
AcDbSymbolTableRecord
100
AcDbLayerTableRecord
  2
DEF_LAYER_POINT
 70
0
 62
7
  6
CONTINUOUS
370
-3
390
F
  0
LAYER
  5
24A
100
AcDbSymbolTableRecord
100
AcDbLayerTableRecord
  2
DEF_LAYER_QUILT
 70
0
 62
7
  6
CONTINUOUS
370
-3
390
F
  0
LAYER
  5
24B
100
AcDbSymbolTableRecord
100
AcDbLayerTableRecord
  2
DEF_LAYER_ROUND_FEAT
 70
0
 62
7
  6
CONTINUOUS
370
-3
390
F
  0
LAYER
  5
24C
100
AcDbSymbolTableRecord
100
AcDbLayerTableRecord
  2
DEF_LAYER_SFIN
 70
0
 62
7
  6
CONTINUOUS
370
-3
390
F
  0
LAYER
  5
24D
100
AcDbSymbolTableRecord
100
AcDbLayerTableRecord
  2
DEF_LAYER_SYMBOL
 70
0
 62
7
  6
CONTINUOUS
370
-3
390
F
  0
LAYER
  5
24E
100
AcDbSymbolTableRecord
100
AcDbLayerTableRecord
  2
DEF_NOGEOM_FEAT
 70
0
 62
7
  6
CONTINUOUS
370
-3
390
F
  0
LAYER
  5
24F
100
AcDbSymbolTableRecord
100
AcDbLayerTableRecord
  2
DEF_NOTE
 70
0
 62
7
  6
CONTINUOUS
370
-3
390
F
  0
LAYER
  5
250
100
AcDbSymbolTableRecord
100
AcDbLayerTableRecord
  2
DEF_PARAMETER_DIM
 70
0
 62
7
  6
CONTINUOUS
370
-3
390
F
  0
LAYER
  5
251
100
AcDbSymbolTableRecord
100
AcDbLayerTableRecord
  2
DEF_PART_REFDIM
 70
0
 62
7
  6
CONTINUOUS
370
-3
390
F
  0
LAYER
  5
252
100
AcDbSymbolTableRecord
100
AcDbLayerTableRecord
  2
DEF_POINT
 70
0
 62
7
  6
CONTINUOUS
370
-3
390
F
  0
LAYER
  5
253
100
AcDbSymbolTableRecord
100
AcDbLayerTableRecord
  2
DEF_PROTRUSION_FEAT
 70
0
 62
7
  6
CONTINUOUS
370
-3
390
F
  0
LAYER
  5
254
100
AcDbSymbolTableRecord
100
AcDbLayerTableRecord
  2
DEF_QUILT
 70
0
 62
7
  6
CONTINUOUS
370
-3
390
F
  0
LAYER
  5
255
100
AcDbSymbolTableRecord
100
AcDbLayerTableRecord
  2
DEF_REFDIM
 70
0
 62
7
  6
CONTINUOUS
370
-3
390
F
  0
LAYER
  5
256
100
AcDbSymbolTableRecord
100
AcDbLayerTableRecord
  2
DEF_RIB_FEAT
 70
0
 62
7
  6
CONTINUOUS
370
-3
390
F
  0
LAYER
  5
257
100
AcDbSymbolTableRecord
100
AcDbLayerTableRecord
  2
DEF_ROUND_FEAT
 70
0
 62
7
  6
CONTINUOUS
370
-3
390
F
  0
LAYER
  5
258
100
AcDbSymbolTableRecord
100
AcDbLayerTableRecord
  2
DEF_SFIN
 70
0
 62
7
  6
CONTINUOUS
370
-3
390
F
  0
LAYER
  5
259
100
AcDbSymbolTableRecord
100
AcDbLayerTableRecord
  2
DEF_SHELL_FEAT
 70
0
 62
7
  6
CONTINUOUS
370
-3
390
F
  0
LAYER
  5
25A
100
AcDbSymbolTableRecord
100
AcDbLayerTableRecord
  2
DEF_SLOT_FEAT
 70
0
 62
7
  6
CONTINUOUS
370
-3
390
F
  0
LAYER
  5
25B
100
AcDbSymbolTableRecord
100
AcDbLayerTableRecord
  2
DEF_SNAP_LINE
 70
0
 62
7
  6
CONTINUOUS
370
-3
390
F
  0
LAYER
  5
25C
100
AcDbSymbolTableRecord
100
AcDbLayerTableRecord
  2
DEF_SURFACE
 70
0
 62
7
  6
CONTINUOUS
370
-3
390
F
  0
LAYER
  5
25D
100
AcDbSymbolTableRecord
100
AcDbLayerTableRecord
  2
DEF_SYMBOL
 70
0
 62
7
  6
CONTINUOUS
370
-3
390
F
  0
LAYER
  5
25E
100
AcDbSymbolTableRecord
100
AcDbLayerTableRecord
  2
DRAFT
 70
0
 62
7
  6
CONTINUOUS
370
-3
390
F
  0
LAYER
  5
25F
100
AcDbSymbolTableRecord
100
AcDbLayerTableRecord
  2
EBENEN
 70
0
 62
7
  6
CONTINUOUS
370
-3
390
F
  0
LAYER
  5
260
100
AcDbSymbolTableRecord
100
AcDbLayerTableRecord
  2
INTFCLR_14098
 70
0
 62
7
  6
CONTINUOUS
370
-3
390
F
  0
LAYER
  5
261
100
AcDbSymbolTableRecord
100
AcDbLayerTableRecord
  2
KOORD.
 70
0
 62
7
  6
CONTINUOUS
370
-3
390
F
  0
LAYER
  5
262
100
AcDbSymbolTableRecord
100
AcDbLayerTableRecord
  2
NONE
 70
0
 62
7
  6
CONTINUOUS
370
-3
390
F
  0
LAYER
  5
263
100
AcDbSymbolTableRecord
100
AcDbLayerTableRecord
  2
PARAMASSE
 70
0
 62
7
  6
CONTINUOUS
370
-3
390
F
  0
LAYER
  5
264
100
AcDbSymbolTableRecord
100
AcDbLayerTableRecord
  2
PARAMETER_DIM
 70
0
 62
7
  6
CONTINUOUS
370
-3
390
F
  0
LAYER
  5
265
100
AcDbSymbolTableRecord
100
AcDbLayerTableRecord
  2
QUILT
 70
0
 62
7
  6
CONTINUOUS
370
-3
390
F
  0
LAYER
  5
266
100
AcDbSymbolTableRecord
100
AcDbLayerTableRecord
  2
QUILT110-2
 70
0
 62
7
  6
CONTINUOUS
370
-3
390
F
  0
LAYER
  5
267
100
AcDbSymbolTableRecord
100
AcDbLayerTableRecord
  2
QUILT110-3
 70
0
 62
7
  6
CONTINUOUS
370
-3
390
F
  0
LAYER
  5
268
100
AcDbSymbolTableRecord
100
AcDbLayerTableRecord
  2
QUILT110-4
 70
0
 62
7
  6
CONTINUOUS
370
-3
390
F
  0
LAYER
  5
269
100
AcDbSymbolTableRecord
100
AcDbLayerTableRecord
  2
QUILT110-5
 70
0
 62
7
  6
CONTINUOUS
370
-3
390
F
  0
LAYER
  5
26A
100
AcDbSymbolTableRecord
100
AcDbLayerTableRecord
  2
SCHNITT
 70
0
 62
7
  6
CONTINUOUS
370
-3
390
F
  0
LAYER
  5
26B
100
AcDbSymbolTableRecord
100
AcDbLayerTableRecord
  2
SHELL
 70
0
 62
7
  6
CONTINUOUS
370
-3
390
F
  0
LAYER
  5
26C
100
AcDbSymbolTableRecord
100
AcDbLayerTableRecord
  2
THREAD
 70
0
 62
7
  6
CONTINUOUS
370
-3
390
F
  0
LAYER
  5
26D
100
AcDbSymbolTableRecord
100
AcDbLayerTableRecord
  2
XSEC_DATUMS
 70
0
 62
7
  6
CONTINUOUS
370
-3
390
F
  0
LAYER
  5
26E
100
AcDbSymbolTableRecord
100
AcDbLayerTableRecord
  2
_107113
 70
0
 62
7
  6
CONTINUOUS
370
-3
390
F
  0
LAYER
  5
26F
100
AcDbSymbolTableRecord
100
AcDbLayerTableRecord
  2
_204073
 70
0
 62
7
  6
CONTINUOUS
370
-3
390
F
  0
LAYER
  5
270
100
AcDbSymbolTableRecord
100
AcDbLayerTableRecord
  2
_85652
 70
0
 62
7
  6
CONTINUOUS
370
-3
390
F
  0
LAYER
  5
271
100
AcDbSymbolTableRecord
100
AcDbLayerTableRecord
  2
_88384
 70
0
 62
7
  6
CONTINUOUS
370
-3
390
F
  0
LAYER
  5
272
100
AcDbSymbolTableRecord
100
AcDbLayerTableRecord
  2
___SHELL
 70
0
 62
7
  6
CONTINUOUS
370
-3
390
F
  0
ENDTAB
  0
TABLE
  2
STYLE
  5
3
100
AcDbSymbolTable
 70
1
  0
STYLE
  5
11
100
AcDbSymbolTableRecord
100
AcDbTextStyleTableRecord
  2
STANDARD
 70
0
 40
0.0
 41
0.8
 50
0.0
 71
0
 42
0.2
  3
txt
  4

  0
STYLE
  5
273
100
AcDbSymbolTableRecord
100
AcDbTextStyleTableRecord
  2
TEXTSTYLE_1
 70
0
 40
0.0
 41
0.8
 50
0.0
 71
0
 42
0.2
  3
gdt
  4

  0
ENDTAB
  0
TABLE
  2
VIEW
  5
6
100
AcDbSymbolTable
 70
0
  0
ENDTAB
  0
TABLE
  2
UCS
  5
7
100
AcDbSymbolTable
 70
0
  0
ENDTAB
  0
TABLE
  2
APPID
  5
9
100
AcDbSymbolTable
 70
1
  0
APPID
  5
274
100
AcDbSymbolTableRecord
100
AcDbRegAppTableRecord
  2
ACAD
 70
0
  0
ENDTAB
  0
TABLE
  2
BLOCK_RECORD
  5
1
100
AcDbSymbolTable
 70
0
  0
BLOCK_RECORD
  5
275
100
AcDbSymbolTableRecord
100
AcDbBlockTableRecord
  2
*Model_Space
  0
BLOCK_RECORD
  5
276
100
AcDbSymbolTableRecord
100
AcDbBlockTableRecord
  2
*Paper_Space
  0
BLOCK_RECORD
  5
277
100
AcDbSymbolTableRecord
100
AcDbBlockTableRecord
  2
_FILLED
  0
BLOCK_RECORD
  5
278
100
AcDbSymbolTableRecord
100
AcDbBlockTableRecord
  2
*D0
  0
BLOCK_RECORD
  5
279
100
AcDbSymbolTableRecord
100
AcDbBlockTableRecord
  2
*D1
  0
BLOCK_RECORD
  5
27A
100
AcDbSymbolTableRecord
100
AcDbBlockTableRecord
  2
*D2
  0
BLOCK_RECORD
  5
27B
100
AcDbSymbolTableRecord
100
AcDbBlockTableRecord
  2
*D3
  0
BLOCK_RECORD
  5
27C
100
AcDbSymbolTableRecord
100
AcDbBlockTableRecord
  2
*D4
  0
BLOCK_RECORD
  5
27D
100
AcDbSymbolTableRecord
100
AcDbBlockTableRecord
  2
*D5
  0
BLOCK_RECORD
  5
27E
100
AcDbSymbolTableRecord
100
AcDbBlockTableRecord
  2
*D6
  0
BLOCK_RECORD
  5
27F
100
AcDbSymbolTableRecord
100
AcDbBlockTableRecord
  2
*D7
  0
BLOCK_RECORD
  5
280
100
AcDbSymbolTableRecord
100
AcDbBlockTableRecord
  2
*D8
  0
BLOCK_RECORD
  5
281
100
AcDbSymbolTableRecord
100
AcDbBlockTableRecord
  2
*D9
  0
BLOCK_RECORD
  5
282
100
AcDbSymbolTableRecord
100
AcDbBlockTableRecord
  2
SD_BL0
  0
ENDTAB
  0
TABLE
  2
DIMSTYLE
  5
A
100
AcDbSymbolTable
 70
1
100
AcDbDimStyleTable
 71
0
  0
DIMSTYLE
105
283
100
AcDbSymbolTableRecord
100
AcDbDimStyleTableRecord
  2
STANDARD
 70
0
  3

  4

 40
1.0
 41
3.0
 42
1.0
 43
0.38
 44
2.0
 45
0.0
 46
0.0
 47
0.001
 48
0.001
140
3.0
141
0.09
142
0.0
143
25.4
144
1.0
145
0.0
146
1.0
147
0.625
 71
1.0
 72
0.0
 73
0
 74
0
 75
0
 76
0
 77
1
 78
8
170
0
171
2
172
0
173
0
174
0
175
0
176
0
177
0
178
0
270
2
271
3
272
3
273
2
274
2
275
0
280
0
281
0
282
0
283
1
284
8
285
0
286
0
287
3
288
0
340
11
278
46
341
277
342
277
343
277
344
277
  0
DIMSTYLE
105
284
100
AcDbSymbolTableRecord
100
AcDbDimStyleTableRecord
  2
DIMSTYLE_1
 70
0
  3

  4

 40
1.0
 41
3.0
 42
1.0
 43
0.38
 44
2.0
 45
0.0
 46
0.0
 47
0.8
 48
0.8
140
4.0
141
0.09
142
0.0
143
25.4
144
1.0
145
0.0
146
1.0
147
1.0
 71
0.0
 72
0.0
 73
0
 74
0
 75
0
 76
0
 77
1
 78
8
170
0
171
2
172
0
173
0
174
0
175
0
176
0
177
0
178
0
270
2
271
2
272
2
273
2
274
2
275
0
280
0
281
0
282
0
283
1
284
8
285
0
286
0
287
3
288
0
340
11
278
46
341
277
342
277
343
277
344
277
  0
DIMSTYLE
105
285
100
AcDbSymbolTableRecord
100
AcDbDimStyleTableRecord
  2
DIMSTYLE_2
 70
0
  3

  4

 40
1.0
 41
3.0
 42
1.0
 43
0.38
 44
2.0
 45
0.0
 46
0.0
 47
0.8
 48
0.8
140
4.0
141
0.09
142
0.0
143
25.4
144
1.0
145
0.0
146
1.0
147
1.0
 71
0.0
 72
0.0
 73
0
 74
0
 75
0
 76
0
 77
1
 78
8
170
0
171
2
172
0
173
0
174
0
175
0
176
0
177
0
178
0
270
2
271
0
272
0
273
2
274
2
275
0
280
0
281
0
282
0
283
1
284
8
285
0
286
0
287
3
288
0
340
11
278
46
341
277
342
277
343
277
344
277
  0
DIMSTYLE
105
286
100
AcDbSymbolTableRecord
100
AcDbDimStyleTableRecord
  2
DIMSTYLE_3
 70
0
  3

  4

 40
1.0
 41
3.0
 42
1.0
 43
0.38
 44
2.0
 45
0.0
 46
0.0
 47
0.8
 48
0.8
140
3.0
141
0.09
142
0.0
143
25.4
144
1.0
145
0.0
146
1.0
147
0.75
 71
0.0
 72
0.0
 73
0
 74
0
 75
0
 76
0
 77
1
 78
8
170
0
171
2
172
0
173
0
174
0
175
0
176
0
177
0
178
0
270
2
271
1
272
1
273
2
274
2
275
0
280
0
281
0
282
0
283
1
284
8
285
0
286
0
287
3
288
0
340
11
278
46
341
277
342
277
343
277
344
277
  0
DIMSTYLE
105
287
100
AcDbSymbolTableRecord
100
AcDbDimStyleTableRecord
  2
DIMSTYLE_4
 70
0
  3

  4

 40
1.0
 41
3.0
 42
1.0
 43
0.38
 44
2.0
 45
0.0
 46
0.0
 47
0.8
 48
0.8
140
3.0
141
0.09
142
0.0
143
25.4
144
1.0
145
0.0
146
1.0
147
0.75
 71
0.0
 72
0.0
 73
0
 74
0
 75
0
 76
0
 77
1
 78
8
170
0
171
2
172
0
173
0
174
0
175
0
176
0
177
0
178
0
270
2
271
2
272
2
273
2
274
2
275
0
280
0
281
0
282
0
283
1
284
8
285
0
286
0
287
3
288
0
340
11
278
46
341
277
342
277
343
277
344
277
  0
ENDTAB
  0
ENDSEC
  0
SECTION
  2
BLOCKS
  0
BLOCK
  5
20
100
AcDbEntity
  8
0
100
AcDbBlockBegin
  2
*Model_Space
 70
0
 10
0.0
 20
0.0
 30
0.0
  3
*Model_Space
  1

  0
ENDBLK
  5
21
100
AcDbEntity
  8
0
100
AcDbBlockEnd
  0
BLOCK
  5
1C
100
AcDbEntity
  8
0
100
AcDbBlockBegin
  2
*Paper_Space
 70
0
 10
0.0
 20
0.0
 30
0.0
  3
*Paper_Space
  1

  0
ENDBLK
  5
1D
100
AcDbEntity
  8
0
100
AcDbBlockEnd
  0
BLOCK
  5
288
100
AcDbEntity
  8
0
100
AcDbBlockBegin
 62
2
  6
CONTINUOUS
  2
SD_BL0
 70
64
 10
35.4059791834
 20
14.8855713079
  3
SD_BL0
  1

  0
LINE
  5
289
100
AcDbEntity
  8
0
100
AcDbLine
 62
7
  6
CONTINUOUS
 10
35.4059791834
 20
16.8855713079
 11
34.909546062
 21
15.3577072629
  0
LINE
  5
28A
100
AcDbEntity
  8
0
100
AcDbLine
 62
7
  6
CONTINUOUS
 10
34.909546062
 20
15.3577072629
 11
33.303054735
 21
15.3577072629
  0
LINE
  5
28B
100
AcDbEntity
  8
0
100
AcDbLine
 62
7
  6
CONTINUOUS
 10
33.303054735
 20
15.3577072629
 11
34.6027335199
 21
14.4134353529
  0
LINE
  5
28C
100
AcDbEntity
  8
0
100
AcDbLine
 62
7
  6
CONTINUOUS
 10
34.6027335199
 20
14.4134353529
 11
34.1063003985
 21
12.8855713079
  0
LINE
  5
28D
100
AcDbEntity
  8
0
100
AcDbLine
 62
7
  6
CONTINUOUS
 10
34.1063003985
 20
12.8855713079
 11
35.4059791834
 21
13.8298432179
  0
LINE
  5
28E
100
AcDbEntity
  8
0
100
AcDbLine
 62
7
  6
CONTINUOUS
 10
35.4059791834
 20
13.8298432179
 11
36.7056579684
 21
12.8855713079
  0
LINE
  5
28F
100
AcDbEntity
  8
0
100
AcDbLine
 62
7
  6
CONTINUOUS
 10
36.7056579684
 20
12.8855713079
 11
36.209224847
 21
14.4134353529
  0
LINE
  5
290
100
AcDbEntity
  8
0
100
AcDbLine
 62
7
  6
CONTINUOUS
 10
36.209224847
 20
14.4134353529
 11
37.5089036319
 21
15.3577072629
  0
LINE
  5
291
100
AcDbEntity
  8
0
100
AcDbLine
 62
7
  6
CONTINUOUS
 10
37.5089036319
 20
15.3577072629
 11
35.9024123048
 21
15.3577072629
  0
LINE
  5
292
100
AcDbEntity
  8
0
100
AcDbLine
 62
7
  6
CONTINUOUS
 10
35.9024123048
 20
15.3577072629
 11
35.4059791834
 21
16.8855713079
  0
LINE
  5
293
100
AcDbEntity
  8
0
100
AcDbLine
 62
7
  6
CONTINUOUS
 10
33.303054735
 20
16.8855713079
 11
35.4059791834
 21
16.8855713079
  0
LINE
  5
294
100
AcDbEntity
  8
0
100
AcDbLine
 62
7
  6
CONTINUOUS
 10
35.4059791834
 20
16.8855713079
 11
37.5089036319
 21
16.8855713079
  0
LINE
  5
295
100
AcDbEntity
  8
0
100
AcDbLine
 62
7
  6
CONTINUOUS
 10
37.5089036319
 20
16.8855713079
 11
37.5089036319
 21
15.3577072629
  0
LINE
  5
296
100
AcDbEntity
  8
0
100
AcDbLine
 62
7
  6
CONTINUOUS
 10
37.5089036319
 20
15.3577072629
 11
37.5089036319
 21
12.8855713079
  0
LINE
  5
297
100
AcDbEntity
  8
0
100
AcDbLine
 62
7
  6
CONTINUOUS
 10
37.5089036319
 20
12.8855713079
 11
36.7056579684
 21
12.8855713079
  0
LINE
  5
298
100
AcDbEntity
  8
0
100
AcDbLine
 62
7
  6
CONTINUOUS
 10
36.7056579684
 20
12.8855713079
 11
34.1063003985
 21
12.8855713079
  0
LINE
  5
299
100
AcDbEntity
  8
0
100
AcDbLine
 62
7
  6
CONTINUOUS
 10
34.1063003985
 20
12.8855713079
 11
33.303054735
 21
12.8855713079
  0
LINE
  5
29A
100
AcDbEntity
  8
0
100
AcDbLine
 62
7
  6
CONTINUOUS
 10
33.303054735
 20
12.8855713079
 11
33.303054735
 21
15.3577072629
  0
LINE
  5
29B
100
AcDbEntity
  8
0
100
AcDbLine
 62
7
  6
CONTINUOUS
 10
33.303054735
 20
15.3577072629
 11
33.303054735
 21
16.8855713079
  0
SOLID
  5
29C
100
AcDbEntity
  8
0
100
AcDbTrace
 62
2
  6
CONTINUOUS
 10
33.303054735
 20
15.3577072629
 11
33.303054735
 21
16.8855713079
 12
34.909546062
 22
15.3577072629
 13
35.4059791834
 23
16.8855713079
  0
SOLID
  5
29D
100
AcDbEntity
  8
0
100
AcDbTrace
 62
2
  6
CONTINUOUS
 10
37.5089036319
 20
16.8855713079
 11
37.5089036319
 21
15.3577072629
 12
35.4059791834
 22
16.8855713079
 13
35.9024123048
 23
15.3577072629
  0
SOLID
  5
29E
100
AcDbEntity
  8
0
100
AcDbTrace
 62
2
  6
CONTINUOUS
 10
37.5089036319
 20
12.8855713079
 11
36.7056579684
 21
12.8855713079
 12
37.5089036319
 22
15.3577072629
 13
36.209224847
 23
14.4134353529
  0
SOLID
  5
29F
100
AcDbEntity
  8
0
100
AcDbTrace
 62
2
  6
CONTINUOUS
 10
36.7056579684
 20
12.8855713079
 11
34.1063003985
 21
12.8855713079
 12
35.4059791834
 22
13.8298432179
 13
35.4059791834
 23
13.8298432179
  0
SOLID
  5
2A0
100
AcDbEntity
  8
0
100
AcDbTrace
 62
2
  6
CONTINUOUS
 10
33.303054735
 20
12.8855713079
 11
33.303054735
 21
15.3577072629
 12
34.1063003985
 22
12.8855713079
 13
34.6027335199
 23
14.4134353529
  0
ENDBLK
  5
2A1
100
AcDbEntity
  8
0
  6
BYBLOCK
 62
0
100
AcDbBlockEnd
  0
BLOCK
  5
2A2
100
AcDbEntity
  8
0
100
AcDbBlockBegin
  2
_FILLED
 70
64
 10
0.0
 20
0.0
  3
_FILLED
  1

  0
SOLID
  5
2A3
100
AcDbEntity
  8
0
  6
BYBLOCK
 62
0
100
AcDbTrace
 10
0.0
 20
0.0
 11
-1.0
 21
0.2333333333
 12
-1.0
 22
-0.2333333333
 13
-1.0
 23
-0.2333333333
  0
ENDBLK
  5
2A4
100
AcDbEntity
  8
0
  6
BYBLOCK
 62
0
100
AcDbBlockEnd
  0
BLOCK
  5
2A5
100
AcDbEntity
  8
0
100
AcDbBlockBegin
 62
2
  6
CONTINUOUS
  2
*D0
 70
65
 10
0.0
 20
0.0
  3
*D0
  1

  0
MTEXT
  5
2A6
100
AcDbEntity
  8
0
100
AcDbMText
 62
2
  6
CONTINUOUS
  7
STANDARD
 71
2
 72
1
 10
135.9234093155
 20
55.4821218698
 30
0.0
 11
1.0
 21
0.0
 31
0.0
 44
0.9
  1
50
 40
4.0
 41
6.4
  0
LINE
  5
2A7
100
AcDbEntity
  8
0
100
AcDbLine
 62
2
  6
CONTINUOUS
 10
110.9234093155
 20
64.8021259281
 11
110.9234093155
 21
48.4821218698
  0
LINE
  5
2A8
100
AcDbEntity
  8
0
100
AcDbLine
 62
2
  6
CONTINUOUS
 10
160.9234093155
 20
64.8021259281
 11
160.9234093155
 21
48.4821218698
  0
LINE
  5
2A9
100
AcDbEntity
  8
0
100
AcDbLine
 62
2
  6
CONTINUOUS
 10
110.9234093155
 20
50.4821218698
 11
135.9234093155
 21
50.4821218698
  0
LINE
  5
2AA
100
AcDbEntity
  8
0
100
AcDbLine
 62
2
  6
CONTINUOUS
 10
160.9234093155
 20
50.4821218698
 11
135.9234093155
 21
50.4821218698
  0
INSERT
  5
2AB
100
AcDbEntity
  8
0
100
AcDbBlockReference
 62
2
  6
CONTINUOUS
  2
_FILLED
 10
110.9234093155
 20
50.4821218698
 41
3.0
 42
3.0
 43
3.0
 50
180.0
  0
INSERT
  5
2AC
100
AcDbEntity
  8
0
100
AcDbBlockReference
 62
2
  6
CONTINUOUS
  2
_FILLED
 10
160.9234093155
 20
50.4821218698
 41
3.0
 42
3.0
 43
3.0
  0
ENDBLK
  5
2AD
100
AcDbEntity
  8
0
  6
BYBLOCK
 62
0
100
AcDbBlockEnd
  0
BLOCK
  5
2AE
100
AcDbEntity
  8
0
100
AcDbBlockBegin
 62
2
  6
CONTINUOUS
  2
*D1
 70
65
 10
0.0
 20
0.0
  3
*D1
  1

  0
MTEXT
  5
2AF
100
AcDbEntity
  8
0
100
AcDbMText
 62
2
  6
CONTINUOUS
  7
STANDARD
 71
2
 72
1
 10
76.8432268691
 20
42.8021259281
 30
0.0
 11
0.0
 21
1.0
 31
0.0
 44
0.9
  1
46
 40
4.0
 41
6.4
  0
LINE
  5
2B0
100
AcDbEntity
  8
0
100
AcDbLine
 62
2
  6
CONTINUOUS
 10
59.7085907574
 20
19.8021259281
 11
83.8432268691
 21
19.8021259281
  0
LINE
  5
2B1
100
AcDbEntity
  8
0
100
AcDbLine
 62
2
  6
CONTINUOUS
 10
72.9085907574
 20
65.8021259281
 11
83.8432268691
 21
65.8021259281
  0
LINE
  5
2B2
100
AcDbEntity
  8
0
100
AcDbLine
 62
2
  6
CONTINUOUS
 10
81.8432268691
 20
19.8021259281
 11
81.8432268691
 21
42.8021259281
  0
LINE
  5
2B3
100
AcDbEntity
  8
0
100
AcDbLine
 62
2
  6
CONTINUOUS
 10
81.8432268691
 20
65.8021259281
 11
81.8432268691
 21
42.8021259281
  0
INSERT
  5
2B4
100
AcDbEntity
  8
0
100
AcDbBlockReference
 62
2
  6
CONTINUOUS
  2
_FILLED
 10
81.8432268691
 20
19.8021259281
 41
3.0
 42
3.0
 43
3.0
 50
270.0
  0
INSERT
  5
2B5
100
AcDbEntity
  8
0
100
AcDbBlockReference
 62
2
  6
CONTINUOUS
  2
_FILLED
 10
81.8432268691
 20
65.8021259281
 41
3.0
 42
3.0
 43
3.0
 50
90.0
  0
ENDBLK
  5
2B6
100
AcDbEntity
  8
0
  6
BYBLOCK
 62
0
100
AcDbBlockEnd
  0
BLOCK
  5
2B7
100
AcDbEntity
  8
0
100
AcDbBlockBegin
 62
2
  6
CONTINUOUS
  2
*D2
 70
65
 10
0.0
 20
0.0
  3
*D2
  1

  0
MTEXT
  5
2B8
100
AcDbEntity
  8
0
100
AcDbMText
 62
2
  6
CONTINUOUS
  7
STANDARD
 71
2
 72
1
 10
48.9085907574
 20
56.8062362165
 30
0.0
 11
1.0
 21
0.0
 31
0.0
 44
0.9
  1
46
 40
4.0
 41
6.4
  0
LINE
  5
2B9
100
AcDbEntity
  8
0
100
AcDbLine
 62
2
  6
CONTINUOUS
 10
25.9085907574
 20
64.8021259281
 11
25.9085907574
 21
49.8062362165
  0
LINE
  5
2BA
100
AcDbEntity
  8
0
100
AcDbLine
 62
2
  6
CONTINUOUS
 10
71.9085907574
 20
64.8021259281
 11
71.9085907574
 21
49.8062362165
  0
LINE
  5
2BB
100
AcDbEntity
  8
0
100
AcDbLine
 62
2
  6
CONTINUOUS
 10
25.9085907574
 20
51.8062362165
 11
48.9085907574
 21
51.8062362165
  0
LINE
  5
2BC
100
AcDbEntity
  8
0
100
AcDbLine
 62
2
  6
CONTINUOUS
 10
71.9085907574
 20
51.8062362165
 11
48.9085907574
 21
51.8062362165
  0
INSERT
  5
2BD
100
AcDbEntity
  8
0
100
AcDbBlockReference
 62
2
  6
CONTINUOUS
  2
_FILLED
 10
25.9085907574
 20
51.8062362165
 41
3.0
 42
3.0
 43
3.0
 50
180.0
  0
INSERT
  5
2BE
100
AcDbEntity
  8
0
100
AcDbBlockReference
 62
2
  6
CONTINUOUS
  2
_FILLED
 10
71.9085907574
 20
51.8062362165
 41
3.0
 42
3.0
 43
3.0
  0
ENDBLK
  5
2BF
100
AcDbEntity
  8
0
  6
BYBLOCK
 62
0
100
AcDbBlockEnd
  0
BLOCK
  5
2C0
100
AcDbEntity
  8
0
100
AcDbBlockBegin
 62
2
  6
CONTINUOUS
  2
*D3
 70
65
 10
0.0
 20
0.0
  3
*D3
  1

  0
MTEXT
  5
2C1
100
AcDbEntity
  8
0
100
AcDbMText
 62
2
  6
CONTINUOUS
  7
STANDARD
 71
2
 72
1
 10
76.8432268691
 20
118.8020973699
 30
0.0
 11
0.0
 21
1.0
 31
0.0
 44
0.9
  1
106
 40
4.0
 41
9.6
  0
LINE
  5
2C2
100
AcDbEntity
  8
0
100
AcDbLine
 62
2
  6
CONTINUOUS
 10
72.9085907574
 20
65.8021259281
 11
83.8432268691
 21
65.8021259281
  0
LINE
  5
2C3
100
AcDbEntity
  8
0
100
AcDbLine
 62
2
  6
CONTINUOUS
 10
68.4470096613
 20
171.8020688116
 11
83.8432268691
 21
171.8020688116
  0
LINE
  5
2C4
100
AcDbEntity
  8
0
100
AcDbLine
 62
2
  6
CONTINUOUS
 10
81.8432268691
 20
65.8021259281
 11
81.8432268691
 21
118.8020973699
  0
LINE
  5
2C5
100
AcDbEntity
  8
0
100
AcDbLine
 62
2
  6
CONTINUOUS
 10
81.8432268691
 20
171.8020688116
 11
81.8432268691
 21
118.8020973699
  0
INSERT
  5
2C6
100
AcDbEntity
  8
0
100
AcDbBlockReference
 62
2
  6
CONTINUOUS
  2
_FILLED
 10
81.8432268691
 20
65.8021259281
 41
3.0
 42
3.0
 43
3.0
 50
270.0
  0
INSERT
  5
2C7
100
AcDbEntity
  8
0
100
AcDbBlockReference
 62
2
  6
CONTINUOUS
  2
_FILLED
 10
81.8432268691
 20
171.8020688116
 41
3.0
 42
3.0
 43
3.0
 50
90.0
  0
ENDBLK
  5
2C8
100
AcDbEntity
  8
0
  6
BYBLOCK
 62
0
100
AcDbBlockEnd
  0
BLOCK
  5
2C9
100
AcDbEntity
  8
0
100
AcDbBlockBegin
 62
2
  6
CONTINUOUS
  2
*D4
 70
65
 10
0.0
 20
0.0
  3
*D4
  1

  0
MTEXT
  5
2CA
100
AcDbEntity
  8
0
100
AcDbMText
 62
2
  6
CONTINUOUS
  7
STANDARD
 71
2
 72
1
 10
76.8432268691
 20
177.8402737839
 30
0.0
 11
0.0
 21
1.0
 31
0.0
 44
0.9
  1
12
 40
4.0
 41
6.4
  0
LINE
  5
2CB
100
AcDbEntity
  8
0
100
AcDbLine
 62
2
  6
CONTINUOUS
 10
49.9085907574
 20
183.8784787562
 11
83.8432268691
 21
183.8784787562
  0
LINE
  5
2CC
100
AcDbEntity
  8
0
100
AcDbLine
 62
2
  6
CONTINUOUS
 10
49.9085907574
 20
171.8020688116
 11
83.8432268691
 21
171.8020688116
  0
LINE
  5
2CD
100
AcDbEntity
  8
0
100
AcDbLine
 62
2
  6
CONTINUOUS
 10
81.8432268691
 20
183.8784787562
 11
81.8432268691
 21
177.8402737839
  0
LINE
  5
2CE
100
AcDbEntity
  8
0
100
AcDbLine
 62
2
  6
CONTINUOUS
 10
81.8432268691
 20
171.8020688116
 11
81.8432268691
 21
177.8402737839
  0
INSERT
  5
2CF
100
AcDbEntity
  8
0
100
AcDbBlockReference
 62
2
  6
CONTINUOUS
  2
_FILLED
 10
81.8432268691
 20
183.8784787562
 41
3.0
 42
3.0
 43
3.0
 50
90.0
  0
INSERT
  5
2D0
100
AcDbEntity
  8
0
100
AcDbBlockReference
 62
2
  6
CONTINUOUS
  2
_FILLED
 10
81.8432268691
 20
171.8020688116
 41
3.0
 42
3.0
 43
3.0
 50
270.0
  0
ENDBLK
  5
2D1
100
AcDbEntity
  8
0
  6
BYBLOCK
 62
0
100
AcDbBlockEnd
  0
BLOCK
  5
2D2
100
AcDbEntity
  8
0
100
AcDbBlockBegin
 62
2
  6
CONTINUOUS
  2
*D5
 70
65
 10
0.0
 20
0.0
  3
*D5
  1

  0
MTEXT
  5
2D3
100
AcDbEntity
  8
0
100
AcDbMText
 62
2
  6
CONTINUOUS
  7
STANDARD
 71
2
 72
1
 10
244.8621312984
 20
106.5599908817
 30
0.0
 11
0.0
 21
1.0
 31
0.0
 44
0.9
  1
82
 40
4.0
 41
6.4
  0
LINE
  5
2D4
100
AcDbEntity
  8
0
100
AcDbLine
 62
2
  6
CONTINUOUS
 10
161.9234093155
 20
65.8021259281
 11
251.8621312984
 21
65.8021259281
  0
LINE
  5
2D5
100
AcDbEntity
  8
0
100
AcDbLine
 62
2
  6
CONTINUOUS
 10
235.0492134384
 20
147.3178558353
 11
251.8621312984
 21
147.3178558353
  0
LINE
  5
2D6
100
AcDbEntity
  8
0
100
AcDbLine
 62
2
  6
CONTINUOUS
 10
249.8621312984
 20
65.8021259281
 11
249.8621312984
 21
106.5599908817
  0
LINE
  5
2D7
100
AcDbEntity
  8
0
100
AcDbLine
 62
2
  6
CONTINUOUS
 10
249.8621312984
 20
147.3178558353
 11
249.8621312984
 21
106.5599908817
  0
INSERT
  5
2D8
100
AcDbEntity
  8
0
100
AcDbBlockReference
 62
2
  6
CONTINUOUS
  2
_FILLED
 10
249.8621312984
 20
65.8021259281
 41
3.0
 42
3.0
 43
3.0
 50
270.0
  0
INSERT
  5
2D9
100
AcDbEntity
  8
0
100
AcDbBlockReference
 62
2
  6
CONTINUOUS
  2
_FILLED
 10
249.8621312984
 20
147.3178558353
 41
3.0
 42
3.0
 43
3.0
 50
90.0
  0
ENDBLK
  5
2DA
100
AcDbEntity
  8
0
  6
BYBLOCK
 62
0
100
AcDbBlockEnd
  0
BLOCK
  5
2DB
100
AcDbEntity
  8
0
100
AcDbBlockBegin
 62
2
  6
CONTINUOUS
  2
*D6
 70
65
 10
0.0
 20
0.0
  3
*D6
  1

  0
MTEXT
  5
2DC
100
AcDbEntity
  8
0
100
AcDbMText
 62
2
  6
CONTINUOUS
  7
STANDARD
 71
2
 72
1
 10
183.986311377
 20
123.1293752857
 30
0.0
 11
1.0
 21
0.0
 31
0.0
 44
0.9
  1
100
 40
4.0
 41
9.6
  0
LINE
  5
2DD
100
AcDbEntity
  8
0
100
AcDbLine
 62
2
  6
CONTINUOUS
 10
234.0492134384
 20
146.3178558353
 11
234.0492134384
 21
116.1293752857
  0
LINE
  5
2DE
100
AcDbEntity
  8
0
100
AcDbLine
 62
2
  6
CONTINUOUS
 10
133.9234093155
 20
118.1293752857
 11
183.986311377
 21
118.1293752857
  0
LINE
  5
2DF
100
AcDbEntity
  8
0
100
AcDbLine
 62
2
  6
CONTINUOUS
 10
234.0492134384
 20
118.1293752857
 11
183.986311377
 21
118.1293752857
  0
INSERT
  5
2E0
100
AcDbEntity
  8
0
100
AcDbBlockReference
 62
2
  6
CONTINUOUS
  2
_FILLED
 10
133.9234093155
 20
118.1293752857
 41
3.0
 42
3.0
 43
3.0
 50
180.0
  0
INSERT
  5
2E1
100
AcDbEntity
  8
0
100
AcDbBlockReference
 62
2
  6
CONTINUOUS
  2
_FILLED
 10
234.0492134384
 20
118.1293752857
 41
3.0
 42
3.0
 43
3.0
 50
0.0
  0
ENDBLK
  5
2E2
100
AcDbEntity
  8
0
  6
BYBLOCK
 62
0
100
AcDbBlockEnd
  0
BLOCK
  5
2E3
100
AcDbEntity
  8
0
100
AcDbBlockBegin
 62
2
  6
CONTINUOUS
  2
*D7
 70
65
 10
0.0
 20
0.0
  3
*D7
  1

  0
MTEXT
  5
2E4
100
AcDbEntity
  8
0
100
AcDbMText
 62
2
  6
CONTINUOUS
  7
TEXTSTYLE_1
 71
2
 72
1
 10
48.9085907574
 20
193.497098528
 30
0.0
 11
1.0
 21
0.0
 31
0.0
 44
0.9
  1
{\Fgdt;o}\Ftxt;31.4
 40
3.0
 41
13.725
  0
LINE
  5
2E5
100
AcDbEntity
  8
0
100
AcDbLine
 62
2
  6
CONTINUOUS
 10
33.2085907574
 20
181.802125928
 11
33.2085907574
 21
191.747098528
  0
LINE
  5
2E6
100
AcDbEntity
  8
0
100
AcDbLine
 62
2
  6
CONTINUOUS
 10
64.6085907574
 20
181.802125928
 11
64.6085907574
 21
191.747098528
  0
LINE
  5
2E7
100
AcDbEntity
  8
0
100
AcDbLine
 62
2
  6
CONTINUOUS
 10
33.2085907574
 20
189.747098528
 11
48.9085907574
 21
189.747098528
  0
LINE
  5
2E8
100
AcDbEntity
  8
0
100
AcDbLine
 62
2
  6
CONTINUOUS
 10
64.6085907574
 20
189.747098528
 11
48.9085907574
 21
189.747098528
  0
INSERT
  5
2E9
100
AcDbEntity
  8
0
100
AcDbBlockReference
 62
2
  6
CONTINUOUS
  2
_FILLED
 10
33.2085907574
 20
189.747098528
 41
3.0
 42
3.0
 43
3.0
 50
180.0
  0
INSERT
  5
2EA
100
AcDbEntity
  8
0
100
AcDbBlockReference
 62
2
  6
CONTINUOUS
  2
_FILLED
 10
64.6085907574
 20
189.747098528
 41
3.0
 42
3.0
 43
3.0
  0
ENDBLK
  5
2EB
100
AcDbEntity
  8
0
  6
BYBLOCK
 62
0
100
AcDbBlockEnd
  0
BLOCK
  5
2EC
100
AcDbEntity
  8
0
100
AcDbBlockBegin
 62
2
  6
CONTINUOUS
  2
*D8
 70
65
 10
0.0
 20
0.0
  3
*D8
  1

  0
MTEXT
  5
2ED
100
AcDbEntity
  8
0
100
AcDbMText
 62
2
  6
CONTINUOUS
  7
STANDARD
 71
2
 72
1
 10
14.6508786527
 20
52.8220630724
 30
0.0
 11
0.0
 21
1.0
 31
0.0
 44
0.9
  1
Max. 25
 40
3.0
 41
16.8
  0
LINE
  5
2EE
100
AcDbEntity
  8
0
100
AcDbLine
 62
2
  6
CONTINUOUS
 10
25.6585907574
 20
40.8021259281
 11
16.4008786527
 21
40.8021259281
  0
LINE
  5
2EF
100
AcDbEntity
  8
0
100
AcDbLine
 62
2
  6
CONTINUOUS
 10
24.9085907574
 20
65.8021259281
 11
16.4008786527
 21
65.8021259281
  0
LINE
  5
2F0
100
AcDbEntity
  8
0
100
AcDbLine
 62
2
  6
CONTINUOUS
 10
18.4008786527
 20
40.8021259281
 11
18.4008786527
 21
53.3021259281
  0
LINE
  5
2F1
100
AcDbEntity
  8
0
100
AcDbLine
 62
2
  6
CONTINUOUS
 10
18.4008786527
 20
65.8021259281
 11
18.4008786527
 21
53.3021259281
  0
INSERT
  5
2F2
100
AcDbEntity
  8
0
100
AcDbBlockReference
 62
2
  6
CONTINUOUS
  2
_FILLED
 10
18.4008786527
 20
40.8021259281
 41
3.0
 42
3.0
 43
3.0
 50
270.0
  0
INSERT
  5
2F3
100
AcDbEntity
  8
0
100
AcDbBlockReference
 62
2
  6
CONTINUOUS
  2
_FILLED
 10
18.4008786527
 20
65.8021259281
 41
3.0
 42
3.0
 43
3.0
 50
90.0
  0
ENDBLK
  5
2F4
100
AcDbEntity
  8
0
  6
BYBLOCK
 62
0
100
AcDbBlockEnd
  0
BLOCK
  5
2F5
100
AcDbEntity
  8
0
100
AcDbBlockBegin
 62
2
  6
CONTINUOUS
  2
*D9
 70
65
 10
0.0
 20
0.0
  3
*D9
  1

  0
MTEXT
  5
2F6
100
AcDbEntity
  8
0
100
AcDbMText
 62
2
  6
CONTINUOUS
  7
STANDARD
 71
2
 72
1
 10
48.9085907574
 20
16.3688767272
 30
0.0
 11
1.0
 21
0.0
 31
0.0
 44
0.9
  1
G1/2"
 40
3.0
 41
12.0
  0
LINE
  5
2F7
100
AcDbEntity
  8
0
100
AcDbLine
 62
2
  6
CONTINUOUS
 10
38.4585907574
 20
20.3021259281
 11
38.4585907574
 21
13.3688767272
  0
LINE
  5
2F8
100
AcDbEntity
  8
0
100
AcDbLine
 62
2
  6
CONTINUOUS
 10
38.4585907574
 20
13.3688767272
 11
38.4585907574
 21
10.6188767272
  0
LINE
  5
2F9
100
AcDbEntity
  8
0
100
AcDbLine
 62
2
  6
CONTINUOUS
 10
59.3585907574
 20
20.3021259281
 11
59.3585907574
 21
13.3688767272
  0
LINE
  5
2FA
100
AcDbEntity
  8
0
100
AcDbLine
 62
2
  6
CONTINUOUS
 10
59.3585907574
 20
13.3688767272
 11
59.3585907574
 21
10.6188767272
  0
LINE
  5
2FB
100
AcDbEntity
  8
0
100
AcDbLine
 62
2
  6
CONTINUOUS
 10
38.4585907574
 20
12.6188767272
 11
48.9085907574
 21
12.6188767272
  0
LINE
  5
2FC
100
AcDbEntity
  8
0
100
AcDbLine
 62
2
  6
CONTINUOUS
 10
59.3585907574
 20
12.6188767272
 11
48.9085907574
 21
12.6188767272
  0
INSERT
  5
2FD
100
AcDbEntity
  8
0
100
AcDbBlockReference
 62
2
  6
CONTINUOUS
  2
_FILLED
 10
38.4585907574
 20
12.6188767272
 41
3.0
 42
3.0
 43
3.0
 50
180.0
  0
INSERT
  5
2FE
100
AcDbEntity
  8
0
100
AcDbBlockReference
 62
2
  6
CONTINUOUS
  2
_FILLED
 10
59.3585907574
 20
12.6188767272
 41
3.0
 42
3.0
 43
3.0
  0
ENDBLK
  5
2FF
100
AcDbEntity
  8
0
  6
BYBLOCK
 62
0
100
AcDbBlockEnd
  0
ENDSEC
  0
SECTION
  2
ENTITIES
  0
DIMENSION
  5
300
100
AcDbEntity
  8
0
100
AcDbDimension
 62
2
  6
CONTINUOUS
  2
*D0
 10
160.9234093155
 20
50.4821218698
 11
135.9234077454
 21
50.4821218698
 70
160
 71
2
 42
50.0
  3
DIMSTYLE_1
100
AcDbAlignedDimension
 13
110.9234093155
 23
65.8021259281
 14
160.9234093155
 24
65.8021259281
100
AcDbRotatedDimension
  0
DIMENSION
  5
301
100
AcDbEntity
  8
0
100
AcDbDimension
 62
2
  6
CONTINUOUS
  2
*D1
 10
81.8432268691
 20
65.8021259281
 11
81.8432268691
 21
42.8021223866
 70
160
 71
2
 42
46.0
  3
DIMSTYLE_1
100
AcDbAlignedDimension
 13
58.7085907574
 23
19.8021259281
 14
71.9085907574
 24
65.8021259281
 50
90.0
100
AcDbRotatedDimension
  0
DIMENSION
  5
302
100
AcDbEntity
  8
0
100
AcDbDimension
 62
2
  6
CONTINUOUS
  2
*D2
 10
71.9085907574
 20
51.8062362165
 11
48.9085914688
 21
51.8062362165
 70
160
 71
2
 42
46.0
  3
DIMSTYLE_1
100
AcDbAlignedDimension
 13
25.9085907574
 23
65.8021259281
 14
71.9085907574
 24
65.8021259281
100
AcDbRotatedDimension
  0
DIMENSION
  5
303
100
AcDbEntity
  8
0
100
AcDbDimension
 62
2
  6
CONTINUOUS
  2
*D3
 10
81.8432268691
 20
171.8020688116
 11
81.8432268691
 21
119.2020944387
 70
160
 71
2
 42
105.9999428835
  3
DIMSTYLE_2
100
AcDbAlignedDimension
 13
71.9085907574
 23
65.8021259281
 14
67.4470096613
 24
171.8020688116
 50
90.0
100
AcDbRotatedDimension
  0
DIMENSION
  5
304
100
AcDbEntity
  8
0
100
AcDbDimension
 62
2
  6
CONTINUOUS
  2
*D4
 10
81.8432268691
 20
171.8020688116
 11
81.8432268691
 21
178.2402703645
 70
160
 71
2
 42
12.0764099446
  3
DIMSTYLE_2
100
AcDbAlignedDimension
 13
48.9085907574
 23
183.8784787562
 14
48.9085907574
 24
171.8020688116
 50
270.0
100
AcDbRotatedDimension
  0
DIMENSION
  5
305
100
AcDbEntity
  8
0
100
AcDbDimension
 62
2
  6
CONTINUOUS
  2
*D5
 10
249.8621312984
 20
147.3178558353
 11
249.8621312984
 21
106.4599866891
 70
160
 71
2
 42
81.5157299072
  3
DIMSTYLE_2
100
AcDbAlignedDimension
 13
160.9234093155
 23
65.8021259281
 14
234.0492134384
 24
147.3178558353
 50
90.0
100
AcDbRotatedDimension
  0
DIMENSION
  5
306
100
AcDbEntity
  8
0
100
AcDbDimension
 62
2
  6
CONTINUOUS
  2
*D6
 10
234.0492134384
 20
118.1293752857
 11
184.3863156738
 21
118.1293752857
 70
160
 71
2
 42
100.1258041229
  3
DIMSTYLE_2
100
AcDbAlignedDimension
 13
133.9234093155
 23
186.6680913536
 14
234.0492134384
 24
147.3178558353
100
AcDbRotatedDimension
  0
DIMENSION
  5
307
100
AcDbEntity
  8
0
100
AcDbDimension
 62
2
  6
CONTINUOUS
  2
*D7
 10
64.6085907574
 20
189.747098528
 11
48.9085907574
 21
189.747098528
 70
160
 71
2
 42
31.4
  1
{\Fgdt;o}<>
  3
DIMSTYLE_3
100
AcDbAlignedDimension
 13
33.2085907574
 23
180.802125928
 14
64.6085907574
 24
180.802125928
100
AcDbRotatedDimension
  0
DIMENSION
  5
308
100
AcDbEntity
  8
0
100
AcDbDimension
 62
2
  6
CONTINUOUS
  2
*D8
 10
18.4008786527
 20
65.8021259281
 11
18.4008786527
 21
52.8220630724
 70
160
 71
2
 42
25.0
  1
Max. <>
  3
DIMSTYLE_4
100
AcDbAlignedDimension
 13
26.6585907574
 23
40.8021259281
 14
25.9085907574
 24
65.8021259281
 50
90.0
100
AcDbRotatedDimension
  0
DIMENSION
  5
309
100
AcDbEntity
  8
0
100
AcDbDimension
 62
2
  6
CONTINUOUS
  2
*D9
 10
59.3585907574
 20
12.6188767272
 11
48.6085913773
 21
12.6188767272
 70
160
 71
2
 42
20.9
  1
G1/2"
  3
DIMSTYLE_4
100
AcDbAlignedDimension
 13
38.4585907574
 23
21.3021259281
 14
59.3585907574
 24
21.3021259281
100
AcDbRotatedDimension
  0
INSERT
  5
30A
100
AcDbEntity
  8
0
100
AcDbBlockReference
 62
2
  6
CONTINUOUS
  2
SD_BL0
 10
35.4059791834
 20
14.8855713079
  0
LINE
  5
30B
100
AcDbEntity
  8
0
100
AcDbLine
 62
7
  6
CONTINUOUS
 10
0.0
 20
0.0
 11
0.0
 21
210.0
  0
LINE
  5
30C
100
AcDbEntity
  8
0
100
AcDbLine
 62
7
  6
CONTINUOUS
 10
0.0
 20
0.0
 11
297.0
 21
0.0
  0
LINE
  5
30D
100
AcDbEntity
  8
0
100
AcDbLine
 62
7
  6
CONTINUOUS
 10
0.0
 20
210.0
 11
297.0
 21
210.0
  0
LINE
  5
30E
100
AcDbEntity
  8
0
100
AcDbLine
 62
7
  6
CONTINUOUS
 10
297.0
 20
0.0
 11
297.0
 21
210.0
  0
LINE
  5
30F
100
AcDbEntity
  8
DEF_LAYER_ASSEM_MEMBER
100
AcDbLine
 62
7
  6
CONTINUOUS
 10
120.6734093156
 20
21.3021259281
 11
121.6734093156
 21
20.3021259281
  0
LINE
  5
310
100
AcDbEntity
  8
DEF_LAYER_ASSEM_MEMBER
100
AcDbLine
 62
7
  6
CONTINUOUS
 10
121.6734093155
 20
20.3021259281
 11
140.5734093155
 21
20.3021259281
  0
LWPOLYLINE
  5
311
100
AcDbEntity
  8
DEF_LAYER_ASSEM_MEMBER
100
AcDbPolyline
 62
7
  6
CONTINUOUS
 90
7
 70
0
 10
115.6008013316
 20
28.8025576028
 10
115.6174175327
 20
28.6265454031
 10
115.7109691134
 20
28.3606058073
 10
115.8834654102
 20
28.1259368378
 10
116.1261418907
 20
27.9427604662
 10
116.4263830475
 20
27.8296690667
 10
116.677609301
 20
27.802127021
  0
LINE
  5
312
100
AcDbEntity
  8
DEF_LAYER_ASSEM_MEMBER
100
AcDbLine
 62
7
  6
CONTINUOUS
 10
108.8734093155
 20
40.8021259281
 11
108.8734093155
 21
38.8021259281
  0
LINE
  5
313
100
AcDbEntity
  8
DEF_LAYER_ASSEM_MEMBER
100
AcDbLine
 62
7
  6
CONTINUOUS
 10
110.3734093155
 20
38.7521259281
 11
110.3734093155
 21
38.8021259281
  0
LINE
  5
314
100
AcDbEntity
  8
DEF_LAYER_ASSEM_MEMBER
100
AcDbLine
 62
7
  6
CONTINUOUS
 10
110.9234093155
 20
65.8021259281
 11
110.9234093155
 21
69.6080802488
  0
LINE
  5
315
100
AcDbEntity
  8
DEF_LAYER_ASSEM_MEMBER
100
AcDbLine
 62
7
  6
CONTINUOUS
 10
118.2426294728
 20
181.0958992183
 11
118.2341831217
 21
181.0243750361
  0
LINE
  5
316
100
AcDbEntity
  8
DEF_LAYER_ASSEM_MEMBER
100
AcDbLine
 62
7
  6
CONTINUOUS
 10
118.2425512859
 20
181.0953257028
 11
118.2426294804
 21
181.0958992741
  0
LINE
  5
317
100
AcDbEntity
  8
DEF_LAYER_ASSEM_MEMBER
100
AcDbLine
 62
7
  6
CONTINUOUS
 10
120.6734093155
 20
21.3021259281
 11
141.5734093155
 21
21.3021259281
  0
LINE
  5
318
100
AcDbEntity
  8
DEF_LAYER_ASSEM_MEMBER
100
AcDbLine
 62
7
  6
CONTINUOUS
 10
116.6776126553
 20
27.8021260474
 11
145.5687109139
 21
27.8021259281
  0
LINE
  5
319
100
AcDbEntity
  8
DEF_LAYER_ASSEM_MEMBER
100
AcDbLine
 62
7
  6
CONTINUOUS
 10
118.2742896178
 20
177.2012532746
 11
118.3218871481
 21
171.7471165335
  0
LINE
  5
31A
100
AcDbEntity
  8
DEF_LAYER_ASSEM_MEMBER
100
AcDbLine
 62
9
  6
CONTINUOUS
 10
112.0326189401
 20
65.8021259281
 11
112.0326189401
 21
69.6078921202
  0
LINE
  5
31B
100
AcDbEntity
  8
DEF_LAYER_ASSEM_MEMBER
100
AcDbLine
 62
7
  6
CONTINUOUS
 10
112.3234093155
 20
64.8021259281
 11
112.3234093155
 21
65.8021259281
  0
LINE
  5
31C
100
AcDbEntity
  8
DEF_LAYER_ASSEM_MEMBER
100
AcDbLine
 62
9
  6
CONTINUOUS
 10
112.4519807441
 20
64.8021259281
 11
112.4519807441
 21
65.8021259281
  0
LINE
  5
31D
100
AcDbEntity
  8
DEF_LAYER_ASSEM_MEMBER
100
AcDbLine
 62
7
  6
CONTINUOUS
 10
112.6234093155
 20
64.8021259281
 11
112.6234093155
 21
65.8021259281
  0
LINE
  5
31E
100
AcDbEntity
  8
DEF_LAYER_ASSEM_MEMBER
100
AcDbLine
 62
7
  6
CONTINUOUS
 10
114.4234093155
 20
73.7863294115
 11
114.4234093155
 21
168.3021259281
  0
LINE
  5
31F
100
AcDbEntity
  8
DEF_LAYER_ASSEM_MEMBER
100
AcDbLine
 62
7
  6
CONTINUOUS
 10
114.4234093157
 20
169.0021259281
 11
114.4234093157
 21
169.8020687863
  0
LINE
  5
320
100
AcDbEntity
  8
DEF_LAYER_ASSEM_MEMBER
100
AcDbLine
 62
7
  6
CONTINUOUS
 10
115.600757448
 20
28.8025576352
 11
115.600757448
 21
35.5021259281
  0
LINE
  5
321
100
AcDbEntity
  8
DEF_LAYER_ASSEM_MEMBER
100
AcDbLine
 62
9
  6
CONTINUOUS
 10
115.6677447461
 20
28.8021259281
 11
115.6677447461
 21
35.5021259281
  0
LINE
  5
322
100
AcDbEntity
  8
DEF_LAYER_ASSEM_MEMBER
100
AcDbLine
 62
9
  6
CONTINUOUS
 10
116.4234093157
 20
171.7845342156
 11
116.4234093157
 21
171.8020688116
  0
LINE
  5
323
100
AcDbEntity
  8
DEF_LAYER_ASSEM_MEMBER
100
AcDbLine
 62
7
  6
CONTINUOUS
 10
118.2234093155
 20
180.802125928
 11
118.223439678
 21
180.8160770486
  0
LINE
  5
324
100
AcDbEntity
  8
DEF_LAYER_ASSEM_MEMBER
100
AcDbLine
 62
7
  6
CONTINUOUS
 10
118.2235194297
 20
180.8272656348
 11
118.2234289244
 21
180.8067408975
  0
LINE
  5
325
100
AcDbEntity
  8
DEF_LAYER_ASSEM_MEMBER
100
AcDbLine
 62
7
  6
CONTINUOUS
 10
118.2234093155
 20
180.802125928
 11
118.1946258829
 21
177.5038712352
  0
LINE
  5
326
100
AcDbEntity
  8
DEF_LAYER_ASSEM_MEMBER
100
AcDbLine
 62
7
  6
CONTINUOUS
 10
117.886753381
 20
171.8020688116
 11
117.8864762023
 21
171.7846450842
  0
LINE
  5
327
100
AcDbEntity
  8
DEF_LAYER_ASSEM_MEMBER
100
AcDbLine
 62
7
  6
CONTINUOUS
 10
118.2341831217
 20
181.0243750361
 11
118.2234132463
 21
180.8065040132
  0
LWPOLYLINE
  5
328
100
AcDbEntity
  8
DEF_LAYER_ASSEM_MEMBER
100
AcDbPolyline
 62
7
  6
CONTINUOUS
 90
7
 70
0
 10
145.5687107999
 20
27.8021259435
 10
145.8204355836
 20
27.8296690667
 10
146.1206767404
 20
27.9427604662
 10
146.3633532209
 20
28.1259368378
 10
146.5358495177
 20
28.3606058073
 10
146.6294010984
 20
28.6265454031
 10
146.6460172995
 20
28.8025576028
  0
LINE
  5
329
100
AcDbEntity
  8
DEF_LAYER_ASSEM_MEMBER
100
AcDbLine
 62
9
  6
CONTINUOUS
 10
146.6460611831
 20
28.8021260001
 11
115.600757448
 21
28.8021260001
  0
LINE
  5
32A
100
AcDbEntity
  8
DEF_LAYER_ASSEM_MEMBER
100
AcDbLine
 62
9
  6
CONTINUOUS
 10
115.600757448
 20
35.5021259281
 11
146.6460611831
 21
35.5021259281
  0
LINE
  5
32B
100
AcDbEntity
  8
DEF_LAYER_ASSEM_MEMBER
100
AcDbLine
 62
9
  6
CONTINUOUS
 10
123.223521329
 20
183.4312193731
 11
123.2234085058
 21
183.4465059927
  0
LINE
  5
32C
100
AcDbEntity
  8
DEF_LAYER_ASSEM_MEMBER
100
AcDbLine
 62
7
  6
CONTINUOUS
 10
120.6734093155
 20
21.3021259281
 11
120.6734093155
 21
27.8021259281
  0
LINE
  5
32D
100
AcDbEntity
  8
DEF_LAYER_ASSEM_MEMBER
100
AcDbLine
 62
7
  6
CONTINUOUS
 10
120.6734093155
 20
40.8021259281
 11
120.6734093155
 21
64.8021259281
  0
LINE
  5
32E
100
AcDbEntity
  8
DEF_LAYER_ASSEM_MEMBER
100
AcDbLine
 62
2
  6
CONTINUOUS
 10
121.7184093155
 20
64.8021259281
 11
121.7184093155
 21
40.8021259281
  0
LINE
  5
32F
100
AcDbEntity
  8
DEF_LAYER_ASSEM_MEMBER
100
AcDbLine
 62
2
  6
CONTINUOUS
 10
121.7184093155
 20
27.8021259281
 11
121.7184093155
 21
20.3021259281
  0
LINE
  5
330
100
AcDbEntity
  8
DEF_LAYER_ASSEM_MEMBER
100
AcDbLine
 62
9
  6
CONTINUOUS
 10
123.1790717482
 20
28.8021259281
 11
123.1790717482
 21
35.5021259281
  0
LINE
  5
331
100
AcDbEntity
  8
DEF_LAYER_ASSEM_MEMBER
100
AcDbLine
 62
9
  6
CONTINUOUS
 10
123.6120844501
 20
28.8021259281
 11
123.6120844501
 21
36.0021259281
  0
LINE
  5
332
100
AcDbEntity
  8
DEF_LAYER_ASSEM_MEMBER
100
AcDbLine
 62
9
  6
CONTINUOUS
 10
123.223403943
 20
183.4109351914
 11
123.223521329
 21
183.4312193731
  0
LINE
  5
333
100
AcDbEntity
  8
DEF_LAYER_ASSEM_MEMBER
100
AcDbLine
 62
7
  6
CONTINUOUS
 10
149.1234093155
 20
36.0021259281
 11
113.1234093155
 21
36.0021259281
  0
LINE
  5
334
100
AcDbEntity
  8
DEF_LAYER_ASSEM_MEMBER
100
AcDbLine
 62
9
  6
CONTINUOUS
 10
151.8734093155
 20
38.7521259281
 11
110.3734093155
 21
38.7521259281
  0
LINE
  5
335
100
AcDbEntity
  8
DEF_LAYER_ASSEM_MEMBER
100
AcDbLine
 62
7
  6
CONTINUOUS
 10
153.3734093155
 20
38.8021259281
 11
108.8734093155
 21
38.8021259281
  0
LINE
  5
336
100
AcDbEntity
  8
DEF_LAYER_ASSEM_MEMBER
100
AcDbLine
 62
7
  6
CONTINUOUS
 10
153.3734093155
 20
40.8021259281
 11
108.8734093155
 21
40.8021259281
  0
LINE
  5
337
100
AcDbEntity
  8
DEF_LAYER_ASSEM_MEMBER
100
AcDbLine
 62
9
  6
CONTINUOUS
 10
128.1234093155
 20
64.8021259281
 11
128.1234093155
 21
65.8021259281
  0
LINE
  5
338
100
AcDbEntity
  8
DEF_LAYER_ASSEM_MEMBER
100
AcDbLine
 62
9
  6
CONTINUOUS
 10
129.22340931
 20
65.8021259281
 11
129.2234093157
 21
171.5589304759
  0
LINE
  5
339
100
AcDbEntity
  8
DEF_LAYER_ASSEM_MEMBER
100
AcDbLine
 62
9
  6
CONTINUOUS
 10
129.2234093155
 20
171.5991038291
 11
129.2234093155
 21
180.802125928
  0
LINE
  5
33A
100
AcDbEntity
  8
DEFAULT_1
100
AcDbLine
 62
7
  6
CENTER
 10
131.1234093155
 20
18.5260063651
 11
131.1234093155
 21
74.0671977837
  0
LINE
  5
33B
100
AcDbEntity
  8
DEF_LAYER_ASSEM_MEMBER
100
AcDbLine
 62
9
  6
CONTINUOUS
 10
133.9234093155
 20
183.4464879332
 11
133.9234093155
 21
180.8021259279
  0
LINE
  5
33C
100
AcDbEntity
  8
DEFAULT_1
100
AcDbLine
 62
7
  6
CENTER
 10
133.9234093155
 20
64.1705812594
 11
133.9234093155
 21
186.6680913536
  0
LINE
  5
33D
100
AcDbEntity
  8
DEF_LAYER_ASSEM_MEMBER
100
AcDbLine
 62
9
  6
CONTINUOUS
 10
135.3489530509
 20
65.8021259281
 11
135.3489530509
 21
64.8021259281
  0
LINE
  5
33E
100
AcDbEntity
  8
DEF_LAYER_ASSEM_MEMBER
100
AcDbLine
 62
9
  6
CONTINUOUS
 10
135.6772137735
 20
65.8021259281
 11
135.6772137735
 21
64.8021259281
  0
LINE
  5
33F
100
AcDbEntity
  8
DEF_LAYER_ASSEM_MEMBER
100
AcDbLine
 62
9
  6
CONTINUOUS
 10
136.1696048575
 20
64.8021259281
 11
136.1696048575
 21
65.8021259281
  0
LINE
  5
340
100
AcDbEntity
  8
DEF_LAYER_ASSEM_MEMBER
100
AcDbLine
 62
9
  6
CONTINUOUS
 10
136.4978655802
 20
64.8021259281
 11
136.4978655802
 21
65.8021259281
  0
LINE
  5
341
100
AcDbEntity
  8
DEF_LAYER_ASSEM_MEMBER
100
AcDbLine
 62
9
  6
CONTINUOUS
 10
138.6234093155
 20
171.5991038385
 11
138.6234093155
 21
180.802125928
  0
LINE
  5
342
100
AcDbEntity
  8
DEF_LAYER_ASSEM_MEMBER
100
AcDbLine
 62
9
  6
CONTINUOUS
 10
138.6347341809
 20
28.8021259281
 11
138.6347341809
 21
36.0021259281
  0
LINE
  5
343
100
AcDbEntity
  8
DEF_LAYER_ASSEM_MEMBER
100
AcDbLine
 62
9
  6
CONTINUOUS
 10
139.0677468828
 20
28.8021259281
 11
139.0677468828
 21
35.5021259281
  0
LINE
  5
344
100
AcDbEntity
  8
DEF_LAYER_ASSEM_MEMBER
100
AcDbLine
 62
2
  6
CONTINUOUS
 10
140.5284093155
 20
64.8021259281
 11
140.5284093155
 21
40.8021259281
  0
LINE
  5
345
100
AcDbEntity
  8
DEF_LAYER_ASSEM_MEMBER
100
AcDbLine
 62
2
  6
CONTINUOUS
 10
140.5284093155
 20
27.8021259281
 11
140.5284093155
 21
20.3021259281
  0
LINE
  5
346
100
AcDbEntity
  8
DEF_LAYER_ASSEM_MEMBER
100
AcDbLine
 62
9
  6
CONTINUOUS
 10
144.623411534
 20
183.4464875285
 11
144.6234307491
 21
183.4312043026
  0
LINE
  5
347
100
AcDbEntity
  8
DEF_LAYER_ASSEM_MEMBER
100
AcDbLine
 62
7
  6
CONTINUOUS
 10
141.5734093155
 20
21.3021259281
 11
141.5734093155
 21
27.8021259281
  0
LINE
  5
348
100
AcDbEntity
  8
DEF_LAYER_ASSEM_MEMBER
100
AcDbLine
 62
7
  6
CONTINUOUS
 10
141.5734093155
 20
40.8021259281
 11
141.5734093155
 21
64.8021259281
  0
LINE
  5
349
100
AcDbEntity
  8
DEF_LAYER_ASSEM_MEMBER
100
AcDbLine
 62
9
  6
CONTINUOUS
 10
142.6234093278
 20
73.7863294115
 11
142.6231191719
 21
120.4386393995
  0
LINE
  5
34A
100
AcDbEntity
  8
DEF_LAYER_ASSEM_MEMBER
100
AcDbLine
 62
9
  6
CONTINUOUS
 10
142.6234093211
 20
65.8021259281
 11
142.6234093282
 21
73.7863294115
  0
LINE
  5
34B
100
AcDbEntity
  8
DEF_LAYER_ASSEM_MEMBER
100
AcDbLine
 62
9
  6
CONTINUOUS
 10
143.7234093155
 20
64.8021259281
 11
143.7234093155
 21
65.8021259281
  0
LINE
  5
34C
100
AcDbEntity
  8
DEF_LAYER_ASSEM_MEMBER
100
AcDbLine
 62
9
  6
CONTINUOUS
 10
146.5790886506
 20
28.8021259281
 11
146.579073885
 21
35.5021259281
  0
LINE
  5
34D
100
AcDbEntity
  8
DEF_LAYER_ASSEM_MEMBER
100
AcDbLine
 62
7
  6
CONTINUOUS
 10
146.6460611831
 20
28.8025576352
 11
146.6460611831
 21
35.5021259281
  0
LINE
  5
34E
100
AcDbEntity
  8
DEF_LAYER_ASSEM_MEMBER
100
AcDbLine
 62
9
  6
CONTINUOUS
 10
144.6234307491
 20
183.4312043026
 11
144.6234139247
 21
183.4109328962
  0
LINE
  5
34F
100
AcDbEntity
  8
DEF_LAYER_ASSEM_MEMBER
100
AcDbLine
 62
7
  6
CONTINUOUS
 10
112.3234093155
 20
64.8021259281
 11
159.5234093155
 21
64.8021259281
  0
LINE
  5
350
100
AcDbEntity
  8
DEF_LAYER_ASSEM_MEMBER
100
AcDbLine
 62
7
  6
CONTINUOUS
 10
149.6234053857
 20
180.8065035386
 11
149.6126355068
 21
181.0243750623
  0
LINE
  5
351
100
AcDbEntity
  8
DEF_LAYER_ASSEM_MEMBER
100
AcDbLine
 62
7
  6
CONTINUOUS
 10
149.9600658588
 20
171.8020688116
 11
149.9603424954
 21
171.7846450839
  0
LINE
  5
352
100
AcDbEntity
  8
DEF_LAYER_ASSEM_MEMBER
100
AcDbLine
 62
7
  6
CONTINUOUS
 10
149.6234093155
 20
180.802125928
 11
149.6521927482
 21
177.5038712352
  0
LINE
  5
353
100
AcDbEntity
  8
DEF_LAYER_ASSEM_MEMBER
100
AcDbLine
 62
7
  6
CONTINUOUS
 10
149.6234093155
 20
180.802125928
 11
149.6233577347
 21
180.8162916862
  0
LINE
  5
354
100
AcDbEntity
  8
DEF_LAYER_ASSEM_MEMBER
100
AcDbLine
 62
9
  6
CONTINUOUS
 10
149.6487543711
 20
65.8021259281
 11
149.6487543711
 21
69.6078983932
  0
LINE
  5
355
100
AcDbEntity
  8
DEF_LAYER_ASSEM_MEMBER
100
AcDbLine
 62
7
  6
CONTINUOUS
 10
151.8734093155
 20
38.7521259281
 11
151.8734093155
 21
38.8021259281
  0
LINE
  5
356
100
AcDbEntity
  8
DEF_LAYER_ASSEM_MEMBER
100
AcDbLine
 62
7
  6
CONTINUOUS
 10
153.3734093155
 20
40.8021259281
 11
153.3734093155
 21
38.8021259281
  0
LINE
  5
357
100
AcDbEntity
  8
DEF_LAYER_ASSEM_MEMBER
100
AcDbLine
 62
7
  6
CONTINUOUS
 10
149.5725290132
 20
177.2012532746
 11
149.5249314832
 21
171.7471165564
  0
LINE
  5
358
100
AcDbEntity
  8
DEF_LAYER_ASSEM_MEMBER
100
AcDbLine
 62
7
  6
CONTINUOUS
 10
110.9234093155
 20
65.8021259281
 11
160.9234093155
 21
65.8021259281
  0
LINE
  5
359
100
AcDbEntity
  8
DEF_LAYER_ASSEM_MEMBER
100
AcDbLine
 62
9
  6
CONTINUOUS
 10
155.3901968423
 20
69.6078984059
 11
142.6234094688
 21
69.6080860159
  0
LINE
  5
35A
100
AcDbEntity
  8
DEF_LAYER_ASSEM_MEMBER
100
AcDbLine
 62
9
  6
CONTINUOUS
 10
142.6234093278
 20
69.6080802488
 11
129.2234093033
 21
69.6080802488
  0
LINE
  5
35B
100
AcDbEntity
  8
DEF_LAYER_ASSEM_MEMBER
100
AcDbLine
 62
9
  6
CONTINUOUS
 10
129.2234092453
 20
69.6080725396
 11
112.0387307227
 21
69.607910075
  0
LINE
  5
35C
100
AcDbEntity
  8
DEF_LAYER_ASSEM_MEMBER
100
AcDbLine
 62
9
  6
CONTINUOUS
 10
160.923409315
 20
69.6080711608
 11
155.3901968423
 21
69.6078984059
  0
LINE
  5
35D
100
AcDbEntity
  8
DEF_LAYER_ASSEM_MEMBER
100
AcDbLine
 62
9
  6
CONTINUOUS
 10
142.6234093287
 20
70.5347416121
 11
129.223409385
 21
70.5347416121
  0
LINE
  5
35E
100
AcDbEntity
  8
DEF_LAYER_ASSEM_MEMBER
100
AcDbLine
 62
9
  6
CONTINUOUS
 10
129.2234093005
 20
72.4337779092
 11
142.6234093282
 21
72.4337779092
  0
LINE
  5
35F
100
AcDbEntity
  8
DEF_LAYER_ASSEM_MEMBER
100
AcDbLine
 62
9
  6
CONTINUOUS
 10
112.0387307227
 20
69.607910075
 11
110.9234093161
 21
69.6080829229
  0
LINE
  5
360
100
AcDbEntity
  8
DEF_LAYER_ASSEM_MEMBER
100
AcDbLine
 62
7
  6
CONTINUOUS
 10
157.4234093155
 20
120.4386393639
 11
157.4234093155
 21
73.7863294115
  0
LINE
  5
361
100
AcDbEntity
  8
DEF_LAYER_ASSEM_MEMBER
100
AcDbLine
 62
7
  6
CONTINUOUS
 10
159.2234093155
 20
64.8021259281
 11
159.2234093155
 21
65.8021259281
  0
LINE
  5
362
100
AcDbEntity
  8
DEF_LAYER_ASSEM_MEMBER
100
AcDbLine
 62
9
  6
CONTINUOUS
 10
159.394837887
 20
65.8021259281
 11
159.394837887
 21
64.8021259281
  0
LINE
  5
363
100
AcDbEntity
  8
DEF_LAYER_ASSEM_MEMBER
100
AcDbLine
 62
7
  6
CONTINUOUS
 10
159.5234093155
 20
64.8021259281
 11
159.5234093155
 21
65.8021259281
  0
LINE
  5
364
100
AcDbEntity
  8
DEF_LAYER_ASSEM_MEMBER
100
AcDbLine
 62
7
  6
CONTINUOUS
 10
160.9234093155
 20
69.6080802488
 11
160.9234093155
 21
65.8021259281
  0
LINE
  5
365
100
AcDbEntity
  8
DEF_LAYER_ASSEM_MEMBER
100
AcDbLine
 62
9
  6
CONTINUOUS
 10
129.2234093033
 20
73.7863294115
 11
142.6234093278
 21
73.7863294115
  0
LINE
  5
366
100
AcDbEntity
  8
DEF_LAYER_ASSEM_MEMBER
100
AcDbLine
 62
7
  6
CONTINUOUS
 10
149.6042673467
 20
181.0953256916
 11
149.6041890869
 21
181.0958997411
  0
LINE
  5
367
100
AcDbEntity
  8
DEF_LAYER_ASSEM_MEMBER
100
AcDbLine
 62
7
  6
CONTINUOUS
 10
149.6126355068
 20
181.0243750623
 11
149.6041890951
 21
181.0958996813
  0
LINE
  5
368
100
AcDbEntity
  8
DEF_LAYER_ASSEM_MEMBER
100
AcDbLine
 62
9
  6
CONTINUOUS
 10
142.6234093278
 20
120.4386393995
 11
157.4234093155
 21
120.4386393639
  0
LINE
  5
369
100
AcDbEntity
  8
DEF_LAYER_ASSEM_MEMBER
100
AcDbLine
 62
7
  6
CONTINUOUS
 10
141.5734093155
 20
21.3021259281
 11
140.5734093155
 21
20.3021259281
  0
LINE
  5
36A
100
AcDbEntity
  8
DEF_LAYER_ASSEM_MEMBER
100
AcDbLine
 62
7
  6
CONTINUOUS
 10
223.5013787361
 20
145.4579879893
 11
244.5970481407
 21
149.1777236814
  0
LINE
  5
36B
100
AcDbEntity
  8
DEF_LAYER_ASSEM_MEMBER
100
AcDbLine
 62
9
  6
CONTINUOUS
 10
222.9365253705
 20
145.8038039722
 11
245.0095606481
 21
149.6958756377
  0
LINE
  5
36C
100
AcDbEntity
  8
DEF_LAYER_ASSEM_MEMBER
100
AcDbLine
 62
9
  6
CONTINUOUS
 10
244.4715320742
 20
154.4358101942
 11
221.8209537549
 21
150.4419021078
  0
LINE
  5
36D
100
AcDbEntity
  8
DEF_LAYER_ASSEM_MEMBER
100
AcDbLine
 62
7
  6
CONTINUOUS
 10
183.9234093155
 20
146.8800982953
 11
221.5963114823
 21
152.3233222913
  0
LINE
  5
36E
100
AcDbEntity
  8
DEF_LAYER_ASSEM_MEMBER
100
AcDbLine
 62
7
  6
CONTINUOUS
 10
221.8209537549
 20
150.4419021078
 11
221.491869469
 21
152.3082318353
  0
LINE
  5
36F
100
AcDbEntity
  8
DEF_LAYER_ASSEM_MEMBER
100
AcDbLine
 62
7
  6
CONTINUOUS
 10
232.9234093155
 20
168.8021261205
 11
232.9234093155
 21
169.0021259281
  0
LINE
  5
370
100
AcDbEntity
  8
DEF_LAYER_ASSEM_MEMBER
100
AcDbLine
 62
9
  6
CONTINUOUS
 10
232.9234093155
 20
169.0021259281
 11
232.9234093155
 21
171.5589304759
  0
LINE
  5
371
100
AcDbEntity
  8
DEFAULT_1
100
AcDbLine
 62
7
  6
CENTER
 10
234.4426837207
 20
145.0863749768
 11
230.7221441341
 21
166.1866034937
  0
LINE
  5
372
100
AcDbEntity
  8
DEF_LAYER_ASSEM_MEMBER
100
AcDbLine
 62
7
  6
CONTINUOUS
 10
252.4228545422
 20
169.0021259281
 11
252.4228545422
 21
169.8020685208
  0
LINE
  5
373
100
AcDbEntity
  8
DEF_LAYER_ASSEM_MEMBER
100
AcDbLine
 62
9
  6
CONTINUOUS
 10
232.9237153868
 20
168.3017232947
 11
233.1728444648
 21
168.3018635257
  0
LINE
  5
374
100
AcDbEntity
  8
DEF_LAYER_ASSEM_MEMBER
100
AcDbLine
 62
9
  6
CONTINUOUS
 10
183.9234097811
 20
168.3021218004
 11
114.4234093155
 21
168.3021259281
  0
LINE
  5
375
100
AcDbEntity
  8
DEF_LAYER_ASSEM_MEMBER
100
AcDbLine
 62
9
  6
CONTINUOUS
 10
183.9234097811
 20
168.3021218004
 11
221.4048658384
 21
168.3029240743
  0
LINE
  5
376
100
AcDbEntity
  8
DEF_LAYER_ASSEM_MEMBER
100
AcDbLine
 62
7
  6
CONTINUOUS
 10
252.2228545422
 20
168.8021259281
 11
114.6234093159
 21
168.8021259281
  0
LINE
  5
377
100
AcDbEntity
  8
DEF_LAYER_ASSEM_MEMBER
100
AcDbLine
 62
9
  6
CONTINUOUS
 10
252.4228545422
 20
169.0021259281
 11
114.4234093162
 21
169.0021259281
  0
LINE
  5
378
100
AcDbEntity
  8
DEF_LAYER_ASSEM_MEMBER
100
AcDbLine
 62
9
  6
CONTINUOUS
 10
232.9234093155
 20
169.5597052797
 11
129.2234093157
 21
169.5596975948
  0
LINE
  5
379
100
AcDbEntity
  8
DEF_LAYER_ASSEM_MEMBER
100
AcDbLine
 62
9
  6
CONTINUOUS
 10
233.1728444648
 20
168.3018635257
 11
251.8487934604
 21
168.3003554004
  0
LINE
  5
37A
100
AcDbEntity
  8
DEF_LAYER_ASSEM_MEMBER
100
AcDbLine
 62
9
  6
CONTINUOUS
 10
221.4048658384
 20
168.3029240743
 11
232.9237564705
 21
168.3016925631
  0
LINE
  5
37B
100
AcDbEntity
  8
DEF_LAYER_ASSEM_MEMBER
100
AcDbLine
 62
7
  6
CONTINUOUS
 10
244.4715320742
 20
154.4358101942
 11
244.0825230967
 21
156.6419897357
  0
LWPOLYLINE
  5
37C
100
AcDbEntity
  8
DEF_LAYER_ASSEM_MEMBER
100
AcDbPolyline
 62
7
  6
CONTINUOUS
 90
7
 70
0
 10
252.422851639
 20
169.8020685209
 10
252.3963798703
 20
170.1263929512
 10
252.2255784556
 20
170.6681956084
 10
251.909332849
 20
171.140117041
 10
251.4736911573
 20
171.5037549217
 10
250.9546390347
 20
171.7300732925
 10
250.4228519324
 20
171.80206852
  0
LINE
  5
37D
100
AcDbEntity
  8
DEF_LAYER_ASSEM_MEMBER
100
AcDbLine
 62
9
  6
CONTINUOUS
 10
232.9234093155
 20
171.5589304759
 11
129.2234093157
 21
171.5589304759
  0
LINE
  5
37E
100
AcDbEntity
  8
DEF_LAYER_ASSEM_MEMBER
100
AcDbLine
 62
7
  6
CONTINUOUS
 10
138.6244990954
 20
171.5991038393
 11
129.2223216798
 21
171.5991038299
  0
LINE
  5
37F
100
AcDbEntity
  8
DEF_LAYER_ASSEM_MEMBER
100
AcDbLine
 62
7
  6
CONTINUOUS
 10
250.4228519421
 20
171.8020688116
 11
149.9600658588
 21
171.8020688116
  0
LINE
  5
380
100
AcDbEntity
  8
DEF_LAYER_ASSEM_MEMBER
100
AcDbLine
 62
7
  6
CONTINUOUS
 10
117.8867527723
 20
171.8020688116
 11
116.4234093157
 21
171.8020688116
  0
LINE
  5
381
100
AcDbEntity
  8
DEF_LAYER_ASSEM_MEMBER
100
AcDbLine
 62
9
  6
CONTINUOUS
 10
118.2742896178
 20
177.2012532746
 11
149.5725290132
 21
177.2012532746
  0
LINE
  5
382
100
AcDbEntity
  8
DEF_LAYER_ASSEM_MEMBER
100
AcDbLine
 62
7
  6
CONTINUOUS
 10
118.3742858102
 20
177.3021259281
 11
149.4725328209
 21
177.3021259281
  0
LINE
  5
383
100
AcDbEntity
  8
DEF_LAYER_ASSEM_MEMBER
100
AcDbLine
 62
9
  6
CONTINUOUS
 10
149.6521927482
 20
177.5038712352
 11
118.1946258829
 21
177.5038712352
  0
LINE
  5
384
100
AcDbEntity
  8
DEF_LAYER_ASSEM_MEMBER
100
AcDbLine
 62
9
  6
CONTINUOUS
 10
129.2229045234
 20
180.802125928
 11
118.2234093155
 21
180.8021259281
  0
LINE
  5
385
100
AcDbEntity
  8
DEF_LAYER_ASSEM_MEMBER
100
AcDbLine
 62
9
  6
CONTINUOUS
 10
129.2234093155
 20
180.802125928
 11
149.6234093155
 21
180.8021259281
  0
LWPOLYLINE
  5
386
100
AcDbEntity
  8
DEF_LAYER_ASSEM_MEMBER
100
AcDbPolyline
 62
7
  6
CONTINUOUS
 90
5
 70
0
 10
144.6234103475
 20
183.4465060177
 10
139.7643173927
 20
183.7867573746
 10
133.9278100899
 20
183.8784787203
 10
128.090626875
 20
183.7870675752
 10
123.2234079567
 20
183.4465059444
  0
LINE
  5
387
100
AcDbEntity
  8
DEF_LAYER_ASSEM_MEMBER
100
AcDbLine
 62
7
  6
CONTINUOUS
 10
39.4590156816
 20
20.3021259281
 11
58.3581658522
 21
20.3021259281
  0
LINE
  5
388
100
AcDbEntity
  8
DEF_LAYER_ASSEM_MEMBER
100
AcDbLine
 62
7
  6
CONTINUOUS
 10
38.4585907574
 20
21.3021259281
 11
59.3585907574
 21
21.3021259281
  0
LINE
  5
389
100
AcDbEntity
  8
DEF_LAYER_ASSEM_MEMBER
100
AcDbLine
 62
7
  6
CONTINUOUS
 10
61.4185907574
 20
27.8021259281
 11
36.3985907574
 21
27.8021259281
  0
LINE
  5
38A
100
AcDbEntity
  8
DEF_LAYER_ASSEM_MEMBER
100
AcDbLine
 62
9
  6
CONTINUOUS
 10
62.4185907574
 20
28.8021259389
 11
35.3985907574
 21
28.8021259725
  0
LINE
  5
38B
100
AcDbEntity
  8
DEF_LAYER_ASSEM_MEMBER
100
AcDbLine
 62
9
  6
CONTINUOUS
 10
35.3985907574
 20
35.5021259281
 11
62.4185907574
 21
35.5021259281
  0
LINE
  5
38C
100
AcDbEntity
  8
DEF_LAYER_ASSEM_MEMBER
100
AcDbLine
 62
7
  6
CONTINUOUS
 10
66.9085907574
 20
36.0021259281
 11
30.9085907574
 21
36.0021259281
  0
LINE
  5
38D
100
AcDbEntity
  8
DEF_LAYER_ASSEM_MEMBER
100
AcDbLine
 62
9
  6
CONTINUOUS
 10
69.6585907574
 20
38.7521259281
 11
28.1585907574
 21
38.7521259281
  0
LINE
  5
38E
100
AcDbEntity
  8
DEF_LAYER_ASSEM_MEMBER
100
AcDbLine
 62
7
  6
CONTINUOUS
 10
26.6587719974
 20
38.8021259281
 11
71.1584095173
 21
38.8021259281
  0
LINE
  5
38F
100
AcDbEntity
  8
DEF_LAYER_ASSEM_MEMBER
100
AcDbLine
 62
7
  6
CONTINUOUS
 10
39.4585907574
 20
20.3021259281
 11
38.4585907574
 21
21.3021259281
  0
LINE
  5
390
100
AcDbEntity
  8
DEF_LAYER_ASSEM_MEMBER
100
AcDbLine
 62
7
  6
CONTINUOUS
 10
26.6587719974
 20
40.8021259281
 11
71.1584095173
 21
40.8021259281
  0
LINE
  5
391
100
AcDbEntity
  8
DEF_LAYER_ASSEM_MEMBER
100
AcDbLine
 62
7
  6
CONTINUOUS
 10
50.7529684593
 20
148.5802228013
 11
50.2948054404
 21
148.2833039243
  0
LINE
  5
392
100
AcDbEntity
  8
DEF_LAYER_ASSEM_MEMBER
100
AcDbLine
 62
7
  6
CONTINUOUS
 10
47.3291909091
 20
146.3613964375
 11
46.8710278902
 21
146.0644775605
  0
LINE
  5
393
100
AcDbEntity
  8
DEF_LAYER_ASSEM_MEMBER
100
AcDbLine
 62
7
  6
CONTINUOUS
 10
47.0642130554
 20
146.0554888694
 11
47.5223760743
 21
146.3524077464
  0
LINE
  5
394
100
AcDbEntity
  8
DEF_LAYER_ASSEM_MEMBER
100
AcDbLine
 62
7
  6
CONTINUOUS
 10
50.4879906056
 20
148.2743152332
 11
50.9461536246
 21
148.5712341102
  0
LINE
  5
395
100
AcDbEntity
  8
DEF_LAYER_ASSEM_MEMBER
100
AcDbLine
 62
7
  6
CONTINUOUS
 10
47.4935853451
 20
146.9790923314
 11
48.3385310158
 21
147.2332245
  0
LINE
  5
396
100
AcDbEntity
  8
DEF_LAYER_ASSEM_MEMBER
100
AcDbLine
 62
7
  6
CONTINUOUS
 10
51.2675571724
 20
148.0794506405
 11
50.3569120055
 21
147.8055582009
  0
LINE
  5
397
100
AcDbEntity
  8
DEF_LAYER_ASSEM_MEMBER
100
AcDbLine
 62
7
  6
CONTINUOUS
 10
47.2004690975
 20
146.8562028648
 11
46.2898167212
 21
146.5823082568
  0
LINE
  5
398
100
AcDbEntity
  8
DEF_LAYER_ASSEM_MEMBER
100
AcDbLine
 62
7
  6
CONTINUOUS
 10
52.5716548688
 20
148.4543159828
 11
51.6865518836
 21
148.1881058005
  0
LINE
  5
399
100
AcDbEntity
  8
DEF_LAYER_ASSEM_MEMBER
100
AcDbLine
 62
7
  6
CONTINUOUS
 10
45.9574245504
 20
146.464970688
 11
45.0723215651
 21
146.1987605056
  0
LINE
  5
39A
100
AcDbEntity
  8
DEF_LAYER_ASSEM_MEMBER
100
AcDbLine
 62
7
  6
CONTINUOUS
 10
45.2455266459
 20
146.1813956879
 11
46.1306296311
 21
146.4476058702
  0
LINE
  5
39B
100
AcDbEntity
  8
DEF_LAYER_ASSEM_MEMBER
100
AcDbLine
 62
7
  6
CONTINUOUS
 10
51.8597569643
 20
148.1707409827
 11
52.7448599496
 21
148.436951165
  0
LINE
  5
39C
100
AcDbEntity
  8
DEF_LAYER_ASSEM_MEMBER
100
AcDbLine
 62
7
  6
CONTINUOUS
 10
46.5496243423
 20
146.5562610302
 11
47.4602797161
 21
146.8301565397
  0
LINE
  5
39D
100
AcDbEntity
  8
DEF_LAYER_ASSEM_MEMBER
100
AcDbLine
 62
7
  6
CONTINUOUS
 10
50.6167175503
 20
147.7795103498
 11
51.5273647935
 21
148.0534034139
  0
LINE
  5
39E
100
AcDbEntity
  8
DEF_LAYER_ASSEM_MEMBER
100
AcDbLine
 62
7
  6
CONTINUOUS
 10
48.7715437177
 20
147.1898124556
 11
47.926598047
 21
146.935680287
  0
LINE
  5
39F
100
AcDbEntity
  8
DEF_LAYER_ASSEM_MEMBER
100
AcDbLine
 62
7
  6
CONTINUOUS
 10
27.3085907574
 20
64.8021259281
 11
70.5085907574
 21
64.8021259281
  0
LINE
  5
3A0
100
AcDbEntity
  8
DEF_LAYER_ASSEM_MEMBER
100
AcDbLine
 62
7
  6
CONTINUOUS
 10
25.9085907574
 20
65.8021259281
 11
71.9085907574
 21
65.8021259281
  0
LWPOLYLINE
  5
3A1
100
AcDbEntity
  8
DEF_LAYER_ASSEM_MEMBER
100
AcDbPolyline
 62
7
  6
CONTINUOUS
 90
13
 70
0
 10
33.2456231152
 20
181.2041896756
 10
33.2424595715
 20
181.1875994851
 10
33.2389947016
 20
181.1684152584
 10
33.2354671651
 20
181.1476052171
 10
33.231959805
 20
181.1253742904
 10
33.2285417712
 20
181.1018869751
 10
33.2252782829
 20
181.0773335516
 10
33.2222286085
 20
181.0519337827
 10
33.2194269573
 20
181.025771563
 10
33.2169012258
 20
180.9989112278
 10
33.2146772403
 20
180.9714387663
 10
33.2127759882
 20
180.9434405929
 10
33.2112136332
 20
180.9150043989
  0
LINE
  5
3A2
100
AcDbEntity
  8
DEF_LAYER_ASSEM_MEMBER
100
AcDbLine
 62
7
  6
CONTINUOUS
 10
33.2486225849
 20
181.2192103157
 11
33.2456231152
 21
181.2041896756
  0
LINE
  5
3A3
100
AcDbEntity
  8
DEF_LAYER_ASSEM_MEMBER
100
AcDbLine
 62
7
  6
CONTINUOUS
 10
57.1209984453
 20
148.3358839157
 11
57.0085907574
 21
148.226918439
  0
LINE
  5
3A4
100
AcDbEntity
  8
DEF_LAYER_ASSEM_MEMBER
100
AcDbLine
 62
7
  6
CONTINUOUS
 10
56.5863776221
 20
147.0790287361
 11
56.8816771169
 21
147.3652854044
  0
LINE
  5
3A5
100
AcDbEntity
  8
DEF_LAYER_ASSEM_MEMBER
100
AcDbLine
 62
9
  6
CONTINUOUS
 10
70.7932014889
 20
69.6079752633
 11
71.9085907567
 21
69.6080860159
  0
LINE
  5
3A6
100
AcDbEntity
  8
DEF_LAYER_ASSEM_MEMBER
100
AcDbLine
 62
9
  6
CONTINUOUS
 10
44.2085907432
 20
69.6080802488
 11
53.6085907715
 21
69.6080802488
  0
LINE
  5
3A7
100
AcDbEntity
  8
DEF_LAYER_ASSEM_MEMBER
100
AcDbLine
 62
9
  6
CONTINUOUS
 10
53.6085908281
 20
69.6080711608
 11
70.7932014889
 21
69.6079752633
  0
LINE
  5
3A8
100
AcDbEntity
  8
DEF_LAYER_ASSEM_MEMBER
100
AcDbLine
 62
9
  6
CONTINUOUS
 10
44.2085906866
 20
69.6080711608
 11
27.0239800258
 21
69.6079752633
  0
LINE
  5
3A9
100
AcDbEntity
  8
DEF_LAYER_ASSEM_MEMBER
100
AcDbLine
 62
9
  6
CONTINUOUS
 10
53.6085906884
 20
70.5347416121
 11
44.2085908264
 21
70.5347416121
  0
LINE
  5
3AA
100
AcDbEntity
  8
DEF_LAYER_ASSEM_MEMBER
100
AcDbLine
 62
9
  6
CONTINUOUS
 10
53.6085907698
 20
72.4337779092
 11
44.208590745
 21
72.4337779092
  0
LINE
  5
3AB
100
AcDbEntity
  8
DEF_LAYER_ASSEM_MEMBER
100
AcDbLine
 62
9
  6
CONTINUOUS
 10
44.2085907451
 20
73.7863294115
 11
53.6085907696
 21
73.7863294115
  0
LINE
  5
3AC
100
AcDbEntity
  8
DEF_LAYER_ASSEM_MEMBER
100
AcDbLine
 62
9
  6
CONTINUOUS
 10
27.0239800258
 20
69.6079752633
 11
25.908590758
 21
69.6080860159
  0
LINE
  5
3AD
100
AcDbEntity
  8
DEF_LAYER_ASSEM_MEMBER
100
AcDbLine
 62
7
  6
CONTINUOUS
 10
25.9085907574
 20
69.6080802488
 11
25.9085907574
 21
65.8021259281
  0
LINE
  5
3AE
100
AcDbEntity
  8
DEF_LAYER_ASSEM_MEMBER
100
AcDbLine
 62
7
  6
CONTINUOUS
 10
26.6585907574
 20
38.8021259281
 11
26.6585907574
 21
40.8021259281
  0
LINE
  5
3AF
100
AcDbEntity
  8
DEF_LAYER_ASSEM_MEMBER
100
AcDbLine
 62
9
  6
CONTINUOUS
 10
27.0178791132
 20
65.8021259281
 11
27.0178791132
 21
69.6078983932
  0
LINE
  5
3B0
100
AcDbEntity
  8
DEF_LAYER_ASSEM_MEMBER
100
AcDbLine
 62
7
  6
CONTINUOUS
 10
27.3085907574
 20
64.8021259281
 11
27.3085907574
 21
65.8021259281
  0
LINE
  5
3B1
100
AcDbEntity
  8
DEF_LAYER_ASSEM_MEMBER
100
AcDbLine
 62
9
  6
CONTINUOUS
 10
27.4371621859
 20
64.8021259281
 11
27.4371621859
 21
65.8021259281
  0
LINE
  5
3B2
100
AcDbEntity
  8
DEF_LAYER_ASSEM_MEMBER
100
AcDbLine
 62
7
  6
CONTINUOUS
 10
27.6085907574
 20
64.8021259281
 11
27.6085907574
 21
65.8021259281
  0
LINE
  5
3B3
100
AcDbEntity
  8
DEF_LAYER_ASSEM_MEMBER
100
AcDbLine
 62
7
  6
CONTINUOUS
 10
28.1585907574
 20
38.7521259281
 11
28.1585907574
 21
38.8021259281
  0
LWPOLYLINE
  5
3B4
100
AcDbEntity
  8
DEF_LAYER_ASSEM_MEMBER
100
AcDbPolyline
 62
7
  6
CONTINUOUS
 90
9
 70
0
 10
29.422224682
 20
167.1419087975
 10
29.4353289188
 20
166.6836700752
 10
29.4703543355
 20
165.8554831645
 10
29.5403791017
 20
164.7588602771
 10
29.6546963772
 20
163.5188774372
 10
29.8255968008
 20
162.1695789665
 10
30.0696902842
 20
160.7143810091
 10
30.3964862567
 20
159.2039927423
 10
30.6786471362
 20
158.1359562908
  0
LINE
  5
3B5
100
AcDbEntity
  8
DEF_LAYER_ASSEM_MEMBER
100
AcDbLine
 62
7
  6
CONTINUOUS
 10
29.421506808
 20
167.3492081221
 11
29.4204677284
 21
167.3856409829
  0
LWPOLYLINE
  5
3B6
100
AcDbEntity
  8
DEF_LAYER_ASSEM_MEMBER
100
AcDbPolyline
 62
7
  6
CONTINUOUS
 90
16
 70
0
 10
29.4121473243
 20
167.7682123211
 10
29.4226702907
 20
167.3096569478
 10
29.4261075682
 20
167.2016350853
 10
29.4327638324
 20
167.0186905467
 10
29.4465062691
 20
166.7084491942
 10
29.4748707146
 20
166.2167922675
 10
29.5265773183
 20
165.5564259488
 10
29.6038838096
 20
164.8250989859
 10
29.7094851835
 20
164.0632161628
 10
29.8417115404
 20
163.3116011385
 10
29.9913027203
 20
162.6175896575
 10
30.1506216805
 20
161.9941186924
 10
30.310845381
 20
161.4503883633
 10
30.4586194033
 20
161.0040228813
 10
30.5720765726
 20
160.689773512
 10
30.6121374422
 20
160.5838274158
  0
LWPOLYLINE
  5
3B7
100
AcDbEntity
  8
DEF_LAYER_ASSEM_MEMBER
100
AcDbPolyline
 62
7
  6
CONTINUOUS
 90
6
 70
0
 10
29.4117766684
 20
167.7262921331
 10
29.4124304376
 20
167.6744139359
 10
29.4133357855
 20
167.6084313813
 10
29.4147241528
 20
167.5174267344
 10
29.4171540728
 20
167.379006464
 10
29.422224682
 20
167.1419087975
  0
LINE
  5
3B8
100
AcDbEntity
  8
DEF_LAYER_ASSEM_MEMBER
100
AcDbLine
 62
7
  6
CONTINUOUS
 10
29.4144262801
 20
167.6381352846
 11
29.4084562338
 21
168.1358250244
  0
LINE
  5
3B9
100
AcDbEntity
  8
DEF_LAYER_ASSEM_MEMBER
100
AcDbLine
 62
7
  6
CONTINUOUS
 10
29.4108352339
 20
167.8091171532
 11
29.4117766684
 21
167.7262921331
  0
LINE
  5
3BA
100
AcDbEntity
  8
DEF_LAYER_ASSEM_MEMBER
100
AcDbLine
 62
7
  6
CONTINUOUS
 10
33.2594710597
 20
177.2012532746
 11
33.3082669264
 21
171.6098007698
  0
LINE
  5
3BB
100
AcDbEntity
  8
DEF_LAYER_ASSEM_MEMBER
100
AcDbLine
 62
7
  6
CONTINUOUS
 10
29.4085907574
 20
168.1020096674
 11
29.4090155024
 21
168.0216369099
  0
LWPOLYLINE
  5
3BC
100
AcDbEntity
  8
DEF_LAYER_ASSEM_MEMBER
100
AcDbPolyline
 62
7
  6
CONTINUOUS
 90
4
 70
0
 10
29.4085907574
 20
168.1623919488
 10
29.4097785935
 20
167.9191655385
 10
29.4101072039
 20
167.882278767
 10
29.4108352339
 20
167.8091171532
  0
LINE
  5
3BD
100
AcDbEntity
  8
DEF_LAYER_ASSEM_MEMBER
100
AcDbLine
 62
7
  6
CONTINUOUS
 10
29.4084589955
 20
168.1332573258
 11
29.4085907574
 21
168.1020096674
  0
LINE
  5
3BE
100
AcDbEntity
  8
DEF_LAYER_ASSEM_MEMBER
100
AcDbLine
 62
7
  6
CONTINUOUS
 10
29.4090155024
 20
168.0216369099
 11
29.4085907574
 21
168.14491918
  0
LINE
  5
3BF
100
AcDbEntity
  8
DEF_LAYER_ASSEM_MEMBER
100
AcDbLine
 62
7
  6
CONTINUOUS
 10
29.4079632041
 20
168.3016920287
 11
29.4082360922
 21
168.1920820655
  0
LINE
  5
3C0
100
AcDbEntity
  8
DEF_LAYER_ASSEM_MEMBER
100
AcDbLine
 62
7
  6
CONTINUOUS
 10
29.4085907575
 20
169.5597052797
 11
29.4085907575
 21
169.0021259281
  0
LINE
  5
3C1
100
AcDbEntity
  8
DEF_LAYER_ASSEM_MEMBER
100
AcDbLine
 62
7
  6
CONTINUOUS
 10
29.4085907574
 20
168.1020096674
 11
29.4085907574
 21
73.7863294115
  0
LINE
  5
3C2
100
AcDbEntity
  8
DEF_LAYER_ASSEM_MEMBER
100
AcDbLine
 62
7
  6
CONTINUOUS
 10
33.2085907574
 20
180.802125928
 11
33.1798073247
 21
177.5038712352
  0
LINE
  5
3C3
100
AcDbEntity
  8
DEF_LAYER_ASSEM_MEMBER
100
AcDbLine
 62
7
  6
CONTINUOUS
 10
33.2089048534
 20
180.8467189429
 11
33.2087441805
 21
180.8335614103
  0
LWPOLYLINE
  5
3C4
100
AcDbEntity
  8
DEF_LAYER_ASSEM_MEMBER
100
AcDbPolyline
 62
7
  6
CONTINUOUS
 90
3
 70
0
 10
33.2091460744
 20
180.8571771499
 10
33.2086490364
 20
180.8279706355
 10
33.2085057511
 20
180.802125928
  0
LINE
  5
3C5
100
AcDbEntity
  8
DEF_LAYER_ASSEM_MEMBER
100
AcDbLine
 62
7
  6
CONTINUOUS
 10
33.2091332302
 20
180.8604389671
 11
33.2089048534
 21
180.8467189429
  0
LINE
  5
3C6
100
AcDbEntity
  8
DEF_LAYER_ASSEM_MEMBER
100
AcDbLine
 62
7
  6
CONTINUOUS
 10
33.2094132483
 20
180.8736703737
 11
33.2091332302
 21
180.8604389671
  0
LINE
  5
3C7
100
AcDbEntity
  8
DEF_LAYER_ASSEM_MEMBER
100
AcDbLine
 62
7
  6
CONTINUOUS
 10
33.2097369965
 20
180.8863139413
 11
33.2094132483
 21
180.8736703737
  0
LINE
  5
3C8
100
AcDbEntity
  8
DEF_LAYER_ASSEM_MEMBER
100
AcDbLine
 62
7
  6
CONTINUOUS
 10
33.2100015
 20
180.8862195224
 11
33.2091460744
 21
180.8571771499
  0
LINE
  5
3C9
100
AcDbEntity
  8
DEF_LAYER_ASSEM_MEMBER
100
AcDbLine
 62
7
  6
CONTINUOUS
 10
33.2112136332
 20
180.9150043989
 11
33.2100015
 21
180.8862195224
  0
LINE
  5
3CA
100
AcDbEntity
  8
DEF_LAYER_ASSEM_MEMBER
100
AcDbLine
 62
7
  6
CONTINUOUS
 10
36.6585907574
 20
154.8837126647
 11
36.6620326006
 21
154.9214484997
  0
LINE
  5
3CB
100
AcDbEntity
  8
DEF_LAYER_ASSEM_MEMBER
100
AcDbLine
 62
7
  6
CONTINUOUS
 10
35.3985907574
 20
28.8021259281
 11
35.3985907574
 21
35.5021259281
  0
LINE
  5
3CC
100
AcDbEntity
  8
DEF_LAYER_ASSEM_MEMBER
100
AcDbLine
 62
9
  6
CONTINUOUS
 10
35.6485907574
 20
28.8021259281
 11
35.6485907574
 21
35.5021259281
  0
LINE
  5
3CD
100
AcDbEntity
  8
DEF_LAYER_ASSEM_MEMBER
100
AcDbLine
 62
7
  6
CONTINUOUS
 10
37.4085907574
 20
155.3783248767
 11
37.4085907574
 21
152.438856151
  0
LINE
  5
3CE
100
AcDbEntity
  8
DEF_LAYER_ASSEM_MEMBER
100
AcDbLine
 62
7
  6
CONTINUOUS
 10
38.4585907574
 20
64.8021259281
 11
38.4585907574
 21
40.8021259281
  0
LINE
  5
3CF
100
AcDbEntity
  8
DEF_LAYER_ASSEM_MEMBER
100
AcDbLine
 62
7
  6
CONTINUOUS
 10
38.4585907574
 20
27.8021259281
 11
38.4585907574
 21
21.3021259281
  0
LINE
  5
3D0
100
AcDbEntity
  8
DEF_LAYER_ASSEM_MEMBER
100
AcDbLine
 62
2
  6
CONTINUOUS
 10
39.5035907574
 20
64.8021259281
 11
39.5035907574
 21
40.8021259281
  0
LINE
  5
3D1
100
AcDbEntity
  8
DEF_LAYER_ASSEM_MEMBER
100
AcDbLine
 62
2
  6
CONTINUOUS
 10
39.5035907574
 20
27.8021259281
 11
39.5035907574
 21
20.3021259281
  0
LINE
  5
3D2
100
AcDbEntity
  8
DEF_LAYER_ASSEM_MEMBER
100
AcDbLine
 62
9
  6
CONTINUOUS
 10
38.2085861765
 20
183.4109234883
 11
38.2085898676
 21
183.446507513
  0
LINE
  5
3D3
100
AcDbEntity
  8
DEF_LAYER_ASSEM_MEMBER
100
AcDbLine
 62
7
  6
CONTINUOUS
 10
40.8085907574
 20
148.351903976
 11
40.8085907574
 21
147.6132981612
  0
LINE
  5
3D4
100
AcDbEntity
  8
DEF_LAYER_ASSEM_MEMBER
100
AcDbLine
 62
7
  6
CONTINUOUS
 10
41.6389091349
 20
147.3004910176
 11
41.6389091349
 21
146.9975830085
  0
LINE
  5
3D5
100
AcDbEntity
  8
DEF_LAYER_ASSEM_MEMBER
100
AcDbLine
 62
7
  6
CONTINUOUS
 10
42.3639776049
 20
146.9953648744
 11
42.3639776049
 21
146.6817714277
  0
LINE
  5
3D6
100
AcDbEntity
  8
DEF_LAYER_ASSEM_MEMBER
100
AcDbLine
 62
9
  6
CONTINUOUS
 10
43.1085907574
 20
64.8021259281
 11
43.1085907574
 21
65.8021259281
  0
LINE
  5
3D7
100
AcDbEntity
  8
DEF_LAYER_ASSEM_MEMBER
100
AcDbLine
 62
7
  6
CONTINUOUS
 10
43.1794634242
 20
147.5664483827
 11
43.1794634242
 21
147.3352206531
  0
LINE
  5
3D8
100
AcDbEntity
  8
DEF_LAYER_ASSEM_MEMBER
100
AcDbLine
 62
7
  6
CONTINUOUS
 10
43.4005606086
 20
147.8500167617
 11
43.4005606086
 21
147.5921157408
  0
LINE
  5
3D9
100
AcDbEntity
  8
DEF_LAYER_ASSEM_MEMBER
100
AcDbLine
 62
7
  6
CONTINUOUS
 10
43.5350506458
 20
146.7590759893
 11
43.5350506458
 21
146.4093079481
  0
LINE
  5
3DA
100
AcDbEntity
  8
DEF_LAYER_ASSEM_MEMBER
100
AcDbLine
 62
7
  6
CONTINUOUS
 10
43.9970209453
 20
148.1461834219
 11
43.9970209453
 21
147.8303204692
  0
LINE
  5
3DB
100
AcDbEntity
  8
DEF_LAYER_ASSEM_MEMBER
100
AcDbLine
 62
9
  6
CONTINUOUS
 10
44.2085907511
 20
65.8021259281
 11
44.2085907609
 21
145.640200772
  0
LINE
  5
3DC
100
AcDbEntity
  8
DEF_LAYER_ASSEM_MEMBER
100
AcDbLine
 62
9
  6
CONTINUOUS
 10
44.2085907574
 20
171.7829381482
 11
44.2085907574
 21
180.802125928
  0
LINE
  5
3DD
100
AcDbEntity
  8
DEF_LAYER_ASSEM_MEMBER
100
AcDbLine
 62
7
  6
CONTINUOUS
 10
44.5227410731
 20
147.2918086087
 11
44.5227410731
 21
146.9082256162
  0
LINE
  5
3DE
100
AcDbEntity
  8
DEF_LAYER_ASSEM_MEMBER
100
AcDbLine
 62
7
  6
CONTINUOUS
 10
44.9281966479
 20
148.4199858732
 11
44.9281966479
 21
148.0336015796
  0
LINE
  5
3DF
100
AcDbEntity
  8
DEF_LAYER_ASSEM_MEMBER
100
AcDbLine
 62
7
  6
CONTINUOUS
 10
45.0723215651
 20
146.5805459438
 11
45.0723215651
 21
146.1987605056
  0
LINE
  5
3E0
100
AcDbEntity
  8
DEF_LAYER_ASSEM_MEMBER
100
AcDbLine
 62
7
  6
CONTINUOUS
 10
45.7521528917
 20
147.6042303619
 11
45.7521528917
 21
147.343903062
  0
LINE
  5
3E1
100
AcDbEntity
  8
DEF_LAYER_ASSEM_MEMBER
100
AcDbLine
 62
7
  6
CONTINUOUS
 10
46.1306296311
 20
148.5266314021
 11
46.1306296311
 21
148.1881058005
  0
LINE
  5
3E2
100
AcDbEntity
  8
DEF_LAYER_ASSEM_MEMBER
100
AcDbLine
 62
7
  6
CONTINUOUS
 10
46.2500353802
 20
148.0483566564
 11
46.2500353802
 21
147.614468237
  0
LINE
  5
3E3
100
AcDbEntity
  8
DEF_LAYER_ASSEM_MEMBER
100
AcDbLine
 62
7
  6
CONTINUOUS
 10
46.2898167212
 20
147.0120167707
 11
46.2898167212
 21
146.5823082568
  0
LWPOLYLINE
  5
3E4
100
AcDbEntity
  8
DEF_LAYER_ASSEM_MEMBER
100
AcDbPolyline
 62
7
  6
CONTINUOUS
 90
17
 70
0
 10
67.2090474625
 20
160.594537363
 10
67.1894008474
 20
160.5431016427
 10
67.2002405866
 20
160.5712816641
 10
67.2795453757
 20
160.7828515918
 10
67.4093959214
 20
161.1524263324
 10
67.5583463034
 20
161.6192699753
 10
67.7098408482
 20
162.1541409162
 10
67.8584232174
 20
162.7580517326
 10
67.9995897589
 20
163.4369520541
 10
68.124921527
 20
164.1750959074
 10
68.2249714648
 20
164.9231634181
 10
68.2980231945
 20
165.639610848
 10
68.3462396849
 20
166.2771085262
 10
68.3722774145
 20
166.7412626893
 10
68.3849760324
 20
167.03298645
 10
68.3912448908
 20
167.2067497105
 10
68.3945531776
 20
167.3110496101
  0
LINE
  5
3E5
100
AcDbEntity
  8
DEF_LAYER_ASSEM_MEMBER
100
AcDbLine
 62
7
  6
CONTINUOUS
 10
46.8710278902
 20
146.389178697
 11
46.8710278902
 21
146.0644775605
  0
LINE
  5
3E6
100
AcDbEntity
  8
DEF_LAYER_ASSEM_MEMBER
100
AcDbLine
 62
7
  6
CONTINUOUS
 10
47.4602756351
 20
148.1430726526
 11
47.4602756351
 21
147.8055563585
  0
LINE
  5
3E7
100
AcDbEntity
  8
DEF_LAYER_ASSEM_MEMBER
100
AcDbLine
 62
7
  6
CONTINUOUS
 10
47.4935853451
 20
147.6566193392
 11
47.4935853451
 21
146.9790923314
  0
LINE
  5
3E8
100
AcDbEntity
  8
DEF_LAYER_ASSEM_MEMBER
100
AcDbLine
 62
7
  6
CONTINUOUS
 10
47.5223760743
 20
148.5954980718
 11
47.5223760743
 21
148.2833039243
  0
LINE
  5
3E9
100
AcDbEntity
  8
DEF_LAYER_ASSEM_MEMBER
100
AcDbLine
 62
7
  6
CONTINUOUS
 10
48.1585907574
 20
147.4566073463
 11
48.1585907574
 21
147.3178558353
  0
LINE
  5
3EA
100
AcDbEntity
  8
DEF_LAYER_ASSEM_MEMBER
100
AcDbLine
 62
9
  6
CONTINUOUS
 10
48.3341344927
 20
65.8021259281
 11
48.3341344927
 21
64.8021259281
  0
LINE
  5
3EB
100
AcDbEntity
  8
DEF_LAYER_ASSEM_MEMBER
100
AcDbLine
 62
9
  6
CONTINUOUS
 10
48.6586163322
 20
28.8021259281
 11
48.6585907574
 21
35.5021259281
  0
LINE
  5
3EC
100
AcDbEntity
  8
DEF_LAYER_ASSEM_MEMBER
100
AcDbLine
 62
9
  6
CONTINUOUS
 10
48.6623952154
 20
65.8021259281
 11
48.6623952154
 21
64.8021259281
  0
LINE
  5
3ED
100
AcDbEntity
  8
DEF_LAYER_ASSEM_MEMBER
100
AcDbLine
 62
7
  6
CONTINUOUS
 10
48.7585907574
 20
148.1822313936
 11
48.7585907574
 21
147.8659664107
  0
LINE
  5
3EE
100
AcDbEntity
  8
DEF_LAYER_ASSEM_MEMBER
100
AcDbLine
 62
7
  6
CONTINUOUS
 10
48.7585907574
 20
146.7697466911
 11
48.7585907574
 21
146.4534802771
  0
LINE
  5
3EF
100
AcDbEntity
  8
DEF_LAYER_ASSEM_MEMBER
100
AcDbLine
 62
7
  6
CONTINUOUS
 10
48.7715437177
 20
147.7351333298
 11
48.7715437177
 21
147.4458992151
  0
LINE
  5
3F0
100
AcDbEntity
  8
DEF_LAYER_ASSEM_MEMBER
100
AcDbLine
 62
7
  6
CONTINUOUS
 10
48.8085907574
 20
148.6201013972
 11
48.8085907574
 21
148.3127083564
  0
LINE
  5
3F1
100
AcDbEntity
  8
DEF_LAYER_ASSEM_MEMBER
100
AcDbLine
 62
7
  6
CONTINUOUS
 10
48.8085907574
 20
146.3230033143
 11
48.8085907574
 21
146.0156102734
  0
LINE
  5
3F2
100
AcDbEntity
  8
DEF_LAYER_ASSEM_MEMBER
100
AcDbLine
 62
9
  6
CONTINUOUS
 10
48.9085907574
 20
183.4464879204
 11
48.9085907574
 21
180.8021259279
  0
LINE
  5
3F3
100
AcDbEntity
  8
DEF_LAYER_ASSEM_MEMBER
100
AcDbLine
 62
9
  6
CONTINUOUS
 10
48.9085907574
 20
168.302125643
 11
48.9085907574
 21
156.809057663
  0
LINE
  5
3F4
100
AcDbEntity
  8
DEF_LAYER_AXIS
100
AcDbLine
 62
7
  6
CENTER
 10
48.9085907574
 20
19.5576307838
 11
48.9085907574
 21
51.463724196
  0
LINE
  5
3F5
100
AcDbEntity
  8
DEF_LAYER_AXIS
100
AcDbLine
 62
7
  6
CENTER
 10
48.9085907574
 20
59.376581796
 11
48.9085907574
 21
88.9688303726
  0
LINE
  5
3F6
100
AcDbEntity
  8
DEF_LAYER_AXIS
100
AcDbLine
 62
7
  6
CENTER
 10
48.9085907574
 20
97.9267823726
 11
48.9085907574
 21
184.8941970308
  0
LINE
  5
3F7
100
AcDbEntity
  8
DEF_LAYER_ASSEM_MEMBER
100
AcDbLine
 62
7
  6
CONTINUOUS
 10
49.0085907574
 20
146.0156102734
 11
49.0085907574
 21
146.3230033143
  0
LINE
  5
3F8
100
AcDbEntity
  8
DEF_LAYER_ASSEM_MEMBER
100
AcDbLine
 62
7
  6
CONTINUOUS
 10
49.0085907574
 20
148.3127083564
 11
49.0085907574
 21
148.6201013972
  0
LINE
  5
3F9
100
AcDbEntity
  8
DEF_LAYER_ASSEM_MEMBER
100
AcDbLine
 62
7
  6
CONTINUOUS
 10
49.0585907574
 20
146.4534802771
 11
49.0585907574
 21
146.7697476788
  0
LINE
  5
3FA
100
AcDbEntity
  8
DEF_LAYER_ASSEM_MEMBER
100
AcDbLine
 62
7
  6
CONTINUOUS
 10
49.0585907574
 20
147.8659662581
 11
49.0585907574
 21
148.1822313936
  0
LINE
  5
3FB
100
AcDbEntity
  8
DEF_LAYER_ASSEM_MEMBER
100
AcDbLine
 62
9
  6
CONTINUOUS
 10
49.1547862994
 20
64.8021259281
 11
49.1547862994
 21
65.8021259281
  0
LINE
  5
3FC
100
AcDbEntity
  8
DEF_LAYER_ASSEM_MEMBER
100
AcDbLine
 62
9
  6
CONTINUOUS
 10
49.1585907574
 20
28.8021259281
 11
49.1585907574
 21
35.5021259281
  0
LINE
  5
3FD
100
AcDbEntity
  8
DEF_LAYER_ASSEM_MEMBER
100
AcDbLine
 62
9
  6
CONTINUOUS
 10
49.483047022
 20
64.8021259281
 11
49.483047022
 21
65.8021259281
  0
LINE
  5
3FE
100
AcDbEntity
  8
DEF_LAYER_ASSEM_MEMBER
100
AcDbLine
 62
7
  6
CONTINUOUS
 10
49.6156975385
 20
147.7167160213
 11
49.6156975385
 21
147.3612678798
  0
LINE
  5
3FF
100
AcDbEntity
  8
DEF_LAYER_ASSEM_MEMBER
100
AcDbLine
 62
7
  6
CONTINUOUS
 10
50.2948054404
 20
148.5954965842
 11
50.2948054404
 21
148.2833039243
  0
LINE
  5
400
100
AcDbEntity
  8
DEF_LAYER_ASSEM_MEMBER
100
AcDbLine
 62
7
  6
CONTINUOUS
 10
50.3569058796
 20
148.1430731893
 11
50.3569058796
 21
147.8055563585
  0
LINE
  5
401
100
AcDbEntity
  8
DEF_LAYER_ASSEM_MEMBER
100
AcDbLine
 62
7
  6
CONTINUOUS
 10
50.9461536246
 20
146.3891805215
 11
50.9461536246
 21
146.0644775605
  0
LINE
  5
402
100
AcDbEntity
  8
DEF_LAYER_ASSEM_MEMBER
100
AcDbLine
 62
7
  6
CONTINUOUS
 10
51.5273647935
 20
147.0120154862
 11
51.5273647935
 21
146.5823082568
  0
LINE
  5
403
100
AcDbEntity
  8
DEF_LAYER_ASSEM_MEMBER
100
AcDbLine
 62
7
  6
CONTINUOUS
 10
51.5671461345
 20
148.048356729
 11
51.5671461345
 21
147.614468237
  0
LINE
  5
404
100
AcDbEntity
  8
DEF_LAYER_ASSEM_MEMBER
100
AcDbLine
 62
7
  6
CONTINUOUS
 10
51.6865518836
 20
148.5266360709
 11
51.6865518836
 21
148.1881058005
  0
LINE
  5
405
100
AcDbEntity
  8
DEF_LAYER_ASSEM_MEMBER
100
AcDbLine
 62
7
  6
CONTINUOUS
 10
52.0650286231
 20
147.6042303619
 11
52.0650286231
 21
147.343903062
  0
LINE
  5
406
100
AcDbEntity
  8
DEF_LAYER_ASSEM_MEMBER
100
AcDbLine
 62
7
  6
CONTINUOUS
 10
67.1383635558
 20
158.135438915
 11
67.1370900222
 21
158.1309852077
  0
LINE
  5
407
100
AcDbEntity
  8
DEF_LAYER_ASSEM_MEMBER
100
AcDbLine
 62
7
  6
CONTINUOUS
 10
30.6787603639
 20
158.1356404023
 11
30.6800914939
 21
158.1309852029
  0
LINE
  5
408
100
AcDbEntity
  8
DEF_LAYER_ASSEM_MEMBER
100
AcDbLine
 62
7
  6
CONTINUOUS
 10
52.7448599496
 20
146.580545089
 11
52.7448599496
 21
146.1987605056
  0
LINE
  5
409
100
AcDbEntity
  8
DEF_LAYER_ASSEM_MEMBER
100
AcDbLine
 62
7
  6
CONTINUOUS
 10
52.8889848668
 20
148.4199871604
 11
52.8889848668
 21
148.0336015796
  0
LINE
  5
40A
100
AcDbEntity
  8
DEF_LAYER_ASSEM_MEMBER
100
AcDbLine
 62
7
  6
CONTINUOUS
 10
53.2944404416
 20
147.2918086087
 11
53.2944404416
 21
146.9082256162
  0
LINE
  5
40B
100
AcDbEntity
  8
DEF_LAYER_ASSEM_MEMBER
100
AcDbLine
 62
9
  6
CONTINUOUS
 10
53.6085907574
 20
171.7829387321
 11
53.6085907574
 21
180.802125928
  0
LINE
  5
40C
100
AcDbEntity
  8
DEF_LAYER_ASSEM_MEMBER
100
AcDbLine
 62
9
  6
CONTINUOUS
 10
53.6085907636
 20
65.8021259281
 11
53.6085907538
 21
145.6401439574
  0
LINE
  5
40D
100
AcDbEntity
  8
DEF_LAYER_ASSEM_MEMBER
100
AcDbLine
 62
7
  6
CONTINUOUS
 10
53.8201605694
 20
148.1461834219
 11
53.8201605694
 21
147.8303204692
  0
LINE
  5
40E
100
AcDbEntity
  8
DEF_LAYER_ASSEM_MEMBER
100
AcDbLine
 62
7
  6
CONTINUOUS
 10
54.2821308689
 20
146.7590759893
 11
54.2821308689
 21
146.4093079481
  0
LINE
  5
40F
100
AcDbEntity
  8
DEF_LAYER_ASSEM_MEMBER
100
AcDbLine
 62
7
  6
CONTINUOUS
 10
54.4166209061
 20
147.8500167617
 11
54.4166209061
 21
147.5921157408
  0
LINE
  5
410
100
AcDbEntity
  8
DEF_LAYER_ASSEM_MEMBER
100
AcDbLine
 62
7
  6
CONTINUOUS
 10
54.6377180906
 20
147.5664483827
 11
54.6377180906
 21
147.3352206531
  0
LINE
  5
411
100
AcDbEntity
  8
DEF_LAYER_ASSEM_MEMBER
100
AcDbLine
 62
9
  6
CONTINUOUS
 10
54.7085907574
 20
64.8021259281
 11
54.7085907574
 21
65.8021259281
  0
LINE
  5
412
100
AcDbEntity
  8
DEF_LAYER_ASSEM_MEMBER
100
AcDbLine
 62
7
  6
CONTINUOUS
 10
55.4532039098
 20
146.9953648744
 11
55.4532039098
 21
146.6817714277
  0
LINE
  5
413
100
AcDbEntity
  8
DEF_LAYER_ASSEM_MEMBER
100
AcDbLine
 62
7
  6
CONTINUOUS
 10
56.1782723799
 20
147.3004910176
 11
56.1782723799
 21
146.9975830085
  0
LINE
  5
414
100
AcDbEntity
  8
DEF_LAYER_ASSEM_MEMBER
100
AcDbLine
 62
7
  6
CONTINUOUS
 10
57.0085907574
 20
148.351903976
 11
57.0085907574
 21
147.6132981612
  0
LWPOLYLINE
  5
415
100
AcDbEntity
  8
DEF_LAYER_ASSEM_MEMBER
100
AcDbPolyline
 62
7
  6
CONTINUOUS
 90
11
 70
0
 10
67.138476797
 20
158.1357547501
 10
67.4187618031
 20
159.1960543234
 10
67.7453296591
 20
160.7030492366
 10
67.9886184483
 20
162.1492676032
 10
68.1572380315
 20
163.4706500103
 10
68.2695063276
 20
164.6651545449
 10
68.3391691049
 20
165.710844519
 10
68.3771021822
 20
166.5473451812
 10
68.393533709
 20
167.083653471
 10
68.3999055444
 20
167.3725985145
 10
68.4026812376
 20
167.531401188
  0
LINE
  5
416
100
AcDbEntity
  8
DEF_LAYER_ASSEM_MEMBER
100
AcDbLine
 62
2
  6
CONTINUOUS
 10
58.3135907574
 20
64.8021259281
 11
58.3135907574
 21
40.8021259281
  0
LINE
  5
417
100
AcDbEntity
  8
DEF_LAYER_ASSEM_MEMBER
100
AcDbLine
 62
2
  6
CONTINUOUS
 10
58.3135907574
 20
27.8021259281
 11
58.3135907574
 21
20.3021259281
  0
LINE
  5
418
100
AcDbEntity
  8
DEF_LAYER_ASSEM_MEMBER
100
AcDbLine
 62
7
  6
CONTINUOUS
 10
59.3585907574
 20
64.8021259281
 11
59.3585907574
 21
40.8021259281
  0
LINE
  5
419
100
AcDbEntity
  8
DEF_LAYER_ASSEM_MEMBER
100
AcDbLine
 62
7
  6
CONTINUOUS
 10
59.3585907574
 20
27.8021259281
 11
59.3585907574
 21
21.3021259281
  0
LINE
  5
41A
100
AcDbEntity
  8
DEF_LAYER_ASSEM_MEMBER
100
AcDbLine
 62
7
  6
CONTINUOUS
 10
60.4085907574
 20
155.3783248768
 11
60.4085907574
 21
152.438856151
  0
LINE
  5
41B
100
AcDbEntity
  8
DEF_LAYER_ASSEM_MEMBER
100
AcDbLine
 62
9
  6
CONTINUOUS
 10
62.1685907574
 20
28.8021259281
 11
62.1685907574
 21
35.5021259281
  0
LINE
  5
41C
100
AcDbEntity
  8
DEF_LAYER_ASSEM_MEMBER
100
AcDbLine
 62
7
  6
CONTINUOUS
 10
62.4185907574
 20
28.8021259281
 11
62.4185907574
 21
35.5021259281
  0
LINE
  5
41D
100
AcDbEntity
  8
DEF_LAYER_ASSEM_MEMBER
100
AcDbLine
 62
9
  6
CONTINUOUS
 10
59.6086049874
 20
183.4464861122
 11
59.6085953605
 21
183.4109308233
  0
LINE
  5
41E
100
AcDbEntity
  8
DEF_LAYER_ASSEM_MEMBER
100
AcDbLine
 62
7
  6
CONTINUOUS
 10
61.1551498061
 20
154.9214440832
 11
61.1585907573
 21
154.8837132291
  0
LINE
  5
41F
100
AcDbEntity
  8
DEF_LAYER_ASSEM_MEMBER
100
AcDbLine
 62
7
  6
CONTINUOUS
 10
64.6068642654
 20
180.900391639
 11
64.6063859295
 21
180.912587669
  0
LINE
  5
420
100
AcDbEntity
  8
DEF_LAYER_ASSEM_MEMBER
100
AcDbLine
 62
7
  6
CONTINUOUS
 10
64.6072602418
 20
180.8890025833
 11
64.6068642654
 21
180.900391639
  0
LWPOLYLINE
  5
421
100
AcDbEntity
  8
DEF_LAYER_ASSEM_MEMBER
100
AcDbPolyline
 62
7
  6
CONTINUOUS
 90
16
 70
0
 10
64.6080278948
 20
180.8575013938
 10
64.6071655862
 20
180.886622029
 10
64.6059446368
 20
180.9154824806
 10
64.6043716604
 20
180.9439908178
 10
64.6024581646
 20
180.9720569754
 10
64.6002205504
 20
180.9995925487
 10
64.5976800969
 20
181.0265104115
 10
64.5948629783
 20
181.0527238352
 10
64.5917972388
 20
181.0781696618
 10
64.5885182072
 20
181.1027579138
 10
64.5850860807
 20
181.1262664919
 10
64.5815667676
 20
181.1485048627
 10
64.5780302262
 20
181.1693074709
 10
64.5745620211
 20
181.1884582019
 10
64.5714153097
 20
181.2049211809
 10
64.5685792791
 20
181.2191105662
  0
LINE
  5
422
100
AcDbEntity
  8
DEF_LAYER_ASSEM_MEMBER
100
AcDbLine
 62
7
  6
CONTINUOUS
 10
64.6076286406
 20
180.8768201611
 11
64.6072602418
 21
180.8890025833
  0
LINE
  5
423
100
AcDbEntity
  8
DEF_LAYER_ASSEM_MEMBER
100
AcDbLine
 62
7
  6
CONTINUOUS
 10
64.6081464104
 20
180.854994912
 11
64.6076286406
 21
180.8768201611
  0
LINE
  5
424
100
AcDbEntity
  8
DEF_LAYER_ASSEM_MEMBER
100
AcDbLine
 62
7
  6
CONTINUOUS
 10
64.6079244735
 20
180.8666381575
 11
64.6075737581
 21
180.8815225015
  0
LINE
  5
425
100
AcDbEntity
  8
DEF_LAYER_ASSEM_MEMBER
100
AcDbLine
 62
7
  6
CONTINUOUS
 10
64.6085298092
 20
180.828214691
 11
64.6080278948
 21
180.8575013938
  0
LINE
  5
426
100
AcDbEntity
  8
DEF_LAYER_ASSEM_MEMBER
100
AcDbLine
 62
7
  6
CONTINUOUS
 10
64.6081462209
 20
180.8550040624
 11
64.6079244735
 21
180.8666381575
  0
LINE
  5
427
100
AcDbEntity
  8
DEF_LAYER_ASSEM_MEMBER
100
AcDbLine
 62
7
  6
CONTINUOUS
 10
64.6085907574
 20
180.802125928
 11
64.63737419
 21
177.5038712352
  0
LINE
  5
428
100
AcDbEntity
  8
DEF_LAYER_ASSEM_MEMBER
100
AcDbLine
 62
7
  6
CONTINUOUS
 10
64.6086520886
 20
180.8033862103
 11
64.6085298092
 21
180.828214691
  0
LINE
  5
429
100
AcDbEntity
  8
DEF_LAYER_ASSEM_MEMBER
100
AcDbLine
 62
7
  6
CONTINUOUS
 10
64.6086636265
 20
180.7937759492
 11
64.6086520886
 21
180.8033862103
  0
LINE
  5
42A
100
AcDbEntity
  8
DEF_LAYER_ASSEM_MEMBER
100
AcDbLine
 62
7
  6
CONTINUOUS
 10
68.4085907572
 20
169.5597052797
 11
68.4085907572
 21
169.0021259281
  0
LINE
  5
42B
100
AcDbEntity
  8
DEF_LAYER_ASSEM_MEMBER
100
AcDbLine
 62
7
  6
CONTINUOUS
 10
68.4085907574
 20
168.1020097304
 11
68.4085907574
 21
73.7863294115
  0
LINE
  5
42C
100
AcDbEntity
  8
DEF_LAYER_ASSEM_MEMBER
100
AcDbLine
 62
7
  6
CONTINUOUS
 10
68.4092186388
 20
168.3020733634
 11
68.4089454226
 21
168.1920820669
  0
LINE
  5
42D
100
AcDbEntity
  8
DEF_LAYER_ASSEM_MEMBER
100
AcDbLine
 62
7
  6
CONTINUOUS
 10
68.4085907574
 20
168.1386058588
 11
68.4082949939
 21
168.0436263693
  0
LINE
  5
42E
100
AcDbEntity
  8
DEF_LAYER_ASSEM_MEMBER
100
AcDbLine
 62
7
  6
CONTINUOUS
 10
68.4085907574
 20
168.1020097304
 11
68.4087225192
 21
168.1332573161
  0
LINE
  5
42F
100
AcDbEntity
  8
DEF_LAYER_ASSEM_MEMBER
100
AcDbLine
 62
7
  6
CONTINUOUS
 10
68.4072886665
 20
167.9059941049
 11
68.4085907574
 21
168.1637777954
  0
LINE
  5
430
100
AcDbEntity
  8
DEF_LAYER_ASSEM_MEMBER
100
AcDbLine
 62
7
  6
CONTINUOUS
 10
68.4081660012
 20
168.0216351428
 11
68.4085907574
 21
168.1020097304
  0
LINE
  5
431
100
AcDbEntity
  8
DEF_LAYER_ASSEM_MEMBER
100
AcDbLine
 62
7
  6
CONTINUOUS
 10
64.557710455
 20
177.2012532746
 11
64.5089145819
 21
171.6098000426
  0
LINE
  5
432
100
AcDbEntity
  8
DEF_LAYER_ASSEM_MEMBER
100
AcDbLine
 62
7
  6
CONTINUOUS
 10
68.4087253914
 20
168.135834205
 11
68.4027552137
 21
167.6381341338
  0
LWPOLYLINE
  5
433
100
AcDbEntity
  8
DEF_LAYER_ASSEM_MEMBER
100
AcDbPolyline
 62
7
  6
CONTINUOUS
 90
7
 70
0
 10
68.4026812376
 20
167.531401188
 10
68.4041693953
 20
167.631327166
 10
68.405116956
 20
167.7029538212
 10
68.4058044562
 20
167.7601285761
 10
68.4063577059
 20
167.8101940224
 10
68.4068411349
 20
167.8577375774
 10
68.4072886665
 20
167.9059941049
  0
LINE
  5
434
100
AcDbEntity
  8
DEF_LAYER_ASSEM_MEMBER
100
AcDbLine
 62
7
  6
CONTINUOUS
 10
68.3945531776
 20
167.3110496101
 11
68.4050342046
 21
167.7682132165
  0
LINE
  5
435
100
AcDbEntity
  8
DEF_LAYER_ASSEM_MEMBER
100
AcDbLine
 62
7
  6
CONTINUOUS
 10
68.3960107978
 20
167.3607264754
 11
68.396725087
 21
167.386046376
  0
LINE
  5
436
100
AcDbEntity
  8
DEF_LAYER_ASSEM_MEMBER
100
AcDbLine
 62
7
  6
CONTINUOUS
 10
69.6585907574
 20
38.7521259281
 11
69.6585907574
 21
38.8021259281
  0
LINE
  5
437
100
AcDbEntity
  8
DEF_LAYER_ASSEM_MEMBER
100
AcDbLine
 62
7
  6
CONTINUOUS
 10
70.2085907574
 20
64.8021259281
 11
70.2085907574
 21
65.8021259281
  0
LINE
  5
438
100
AcDbEntity
  8
DEF_LAYER_ASSEM_MEMBER
100
AcDbLine
 62
9
  6
CONTINUOUS
 10
70.3800193288
 20
65.8021259281
 11
70.3800193288
 21
64.8021259281
  0
LINE
  5
439
100
AcDbEntity
  8
DEF_LAYER_ASSEM_MEMBER
100
AcDbLine
 62
7
  6
CONTINUOUS
 10
70.5085907574
 20
64.8021259281
 11
70.5085907574
 21
65.8021259281
  0
LINE
  5
43A
100
AcDbEntity
  8
DEF_LAYER_ASSEM_MEMBER
100
AcDbLine
 62
9
  6
CONTINUOUS
 10
70.7993024016
 20
65.8021259281
 11
70.7993024016
 21
69.6078983932
  0
LINE
  5
43B
100
AcDbEntity
  8
DEF_LAYER_ASSEM_MEMBER
100
AcDbLine
 62
7
  6
CONTINUOUS
 10
71.1585907574
 20
38.8021259281
 11
71.1585907574
 21
40.8021259281
  0
LINE
  5
43C
100
AcDbEntity
  8
DEF_LAYER_ASSEM_MEMBER
100
AcDbLine
 62
7
  6
CONTINUOUS
 10
71.9085907574
 20
69.6080802488
 11
71.9085907574
 21
65.8021259281
  0
LINE
  5
43D
100
AcDbEntity
  8
DEF_LAYER_ASSEM_MEMBER
100
AcDbLine
 62
9
  6
CONTINUOUS
 10
29.4085907574
 20
120.4386393995
 11
68.4085907574
 21
120.4386393995
  0
LINE
  5
43E
100
AcDbEntity
  8
DEF_LAYER_ASSEM_MEMBER
100
AcDbLine
 62
7
  6
CONTINUOUS
 10
41.2308038926
 20
147.0790287361
 11
40.9355043978
 21
147.3652854044
  0
LINE
  5
43F
100
AcDbEntity
  8
DEF_LAYER_ASSEM_MEMBER
100
AcDbLine
 62
7
  6
CONTINUOUS
 10
40.6961830694
 20
148.3358839157
 11
40.8085907574
 21
148.226918439
  0
LINE
  5
440
100
AcDbEntity
  8
DEF_LAYER_ASSEM_MEMBER
100
AcDbLine
 62
7
  6
CONTINUOUS
 10
46.8710278902
 20
148.5712341102
 11
47.3291909091
 21
148.2743152332
  0
LINE
  5
441
100
AcDbEntity
  8
DEF_LAYER_ASSEM_MEMBER
100
AcDbLine
 62
7
  6
CONTINUOUS
 10
50.2948054404
 20
146.3524077464
 11
50.7529684593
 21
146.0554888694
  0
LINE
  5
442
100
AcDbEntity
  8
DEF_LAYER_ASSEM_MEMBER
100
AcDbLine
 62
7
  6
CONTINUOUS
 10
50.9461536246
 20
146.0644775605
 11
50.4879906056
 21
146.3613964375
  0
LINE
  5
443
100
AcDbEntity
  8
DEF_LAYER_ASSEM_MEMBER
100
AcDbLine
 62
7
  6
CONTINUOUS
 10
47.5223760743
 20
148.2833039243
 11
47.0642130554
 21
148.5802228013
  0
LINE
  5
444
100
AcDbEntity
  8
DEF_LAYER_ASSEM_MEMBER
100
AcDbLine
 62
7
  6
CONTINUOUS
 10
43.676472002
 20
146.3847503874
 11
44.9281966479
 21
146.602110091
  0
LINE
  5
445
100
AcDbEntity
  8
DEF_LAYER_ASSEM_MEMBER
100
AcDbLine
 62
7
  6
CONTINUOUS
 10
53.0304062231
 20
148.0090440188
 11
54.2821308689
 21
148.2264037225
  0
LINE
  5
446
100
AcDbEntity
  8
DEF_LAYER_ASSEM_MEMBER
100
AcDbLine
 62
7
  6
CONTINUOUS
 10
54.1407095127
 20
148.2509612833
 11
52.8889848668
 21
148.0336015796
  0
LINE
  5
447
100
AcDbEntity
  8
DEF_LAYER_ASSEM_MEMBER
100
AcDbLine
 62
7
  6
CONTINUOUS
 10
44.7867752917
 20
146.6266676518
 11
43.5350506458
 21
146.4093079481
  0
LINE
  5
448
100
AcDbEntity
  8
DEF_LAYER_ASSEM_MEMBER
100
AcDbLine
 62
7
  6
CONTINUOUS
 10
44.6727410731
 20
146.8631104962
 11
46.2500418434
 21
147.0212440817
  0
LINE
  5
449
100
AcDbEntity
  8
DEF_LAYER_ASSEM_MEMBER
100
AcDbLine
 62
7
  6
CONTINUOUS
 10
51.7171461345
 20
147.569353117
 11
53.2944404416
 21
147.7274860545
  0
LINE
  5
44A
100
AcDbEntity
  8
DEF_LAYER_ASSEM_MEMBER
100
AcDbLine
 62
7
  6
CONTINUOUS
 10
42.4639776049
 20
146.6516946811
 11
43.9970209453
 21
146.8053912015
  0
LINE
  5
44B
100
AcDbEntity
  8
DEF_LAYER_ASSEM_MEMBER
100
AcDbLine
 62
7
  6
CONTINUOUS
 10
53.9201605694
 20
147.8002437225
 11
55.4532039098
 21
147.953940243
  0
LINE
  5
44C
100
AcDbEntity
  8
DEF_LAYER_ASSEM_MEMBER
100
AcDbLine
 62
7
  6
CONTINUOUS
 10
55.3532039098
 20
147.9840169896
 11
53.8201605694
 21
147.8303204692
  0
LINE
  5
44D
100
AcDbEntity
  8
DEF_LAYER_ASSEM_MEMBER
100
AcDbLine
 62
7
  6
CONTINUOUS
 10
43.8970209453
 20
146.8354679481
 11
42.3639776049
 21
146.6817714277
  0
LINE
  5
44E
100
AcDbEntity
  8
DEF_LAYER_ASSEM_MEMBER
100
AcDbLine
 62
7
  6
CONTINUOUS
 10
53.1444404416
 20
147.7726011744
 11
51.5671461345
 21
147.614468237
  0
LINE
  5
44F
100
AcDbEntity
  8
DEF_LAYER_ASSEM_MEMBER
100
AcDbLine
 62
7
  6
CONTINUOUS
 10
46.1000366721
 20
147.0663586832
 11
44.5227410731
 21
146.9082256162
  0
LINE
  5
450
100
AcDbEntity
  8
DEF_LAYER_ASSEM_MEMBER
100
AcDbLine
 62
7
  6
CONTINUOUS
 10
41.6906729439
 20
146.9640367566
 11
43.4005606086
 21
147.0435959299
  0
LINE
  5
451
100
AcDbEntity
  8
DEF_LAYER_ASSEM_MEMBER
100
AcDbLine
 62
7
  6
CONTINUOUS
 10
54.4683847151
 20
147.5585694889
 11
56.1782723799
 21
147.6381286622
  0
LINE
  5
452
100
AcDbEntity
  8
DEF_LAYER_ASSEM_MEMBER
100
AcDbLine
 62
7
  6
CONTINUOUS
 10
56.1265085708
 20
147.6716749141
 11
54.4166209061
 21
147.5921157408
  0
LINE
  5
453
100
AcDbEntity
  8
DEF_LAYER_ASSEM_MEMBER
100
AcDbLine
 62
7
  6
CONTINUOUS
 10
43.3487967996
 20
147.0771421818
 11
41.6389091349
 21
146.9975830085
  0
LINE
  5
454
100
AcDbEntity
  8
DEF_LAYER_ASSEM_MEMBER
100
AcDbLine
 62
7
  6
CONTINUOUS
 10
51.30558888
 20
147.2744437909
 11
49.6156975385
 21
147.2744437909
  0
LINE
  5
455
100
AcDbEntity
  8
DEF_LAYER_ASSEM_MEMBER
100
AcDbLine
 62
7
  6
CONTINUOUS
 10
43.9308503061
 20
147.2918086087
 11
45.7521597029
 21
147.2918086087
  0
LINE
  5
456
100
AcDbEntity
  8
DEF_LAYER_ASSEM_MEMBER
100
AcDbLine
 62
7
  6
CONTINUOUS
 10
52.0650286231
 20
147.2918086087
 11
53.8863312086
 21
147.2918086087
  0
LINE
  5
457
100
AcDbEntity
  8
DEF_LAYER_ASSEM_MEMBER
100
AcDbLine
 62
7
  6
CONTINUOUS
 10
41.4092574537
 20
147.3004910176
 11
43.1794634242
 21
147.3004910176
  0
LINE
  5
458
100
AcDbEntity
  8
DEF_LAYER_ASSEM_MEMBER
100
AcDbLine
 62
7
  6
CONTINUOUS
 10
54.6377180906
 20
147.3004910176
 11
56.4079240611
 21
147.3004910176
  0
LINE
  5
459
100
AcDbEntity
  8
DEF_LAYER_ASSEM_MEMBER
100
AcDbLine
 62
7
  6
CONTINUOUS
 10
56.4079240611
 20
147.3352206531
 11
54.6377180906
 21
147.3352206531
  0
LINE
  5
45A
100
AcDbEntity
  8
DEF_LAYER_ASSEM_MEMBER
100
AcDbLine
 62
7
  6
CONTINUOUS
 10
43.1794634242
 20
147.3352206531
 11
41.4092574537
 21
147.3352206531
  0
LINE
  5
45B
100
AcDbEntity
  8
DEF_LAYER_ASSEM_MEMBER
100
AcDbLine
 62
7
  6
CONTINUOUS
 10
53.8863312086
 20
147.343903062
 11
52.0650286231
 21
147.343903062
  0
LINE
  5
45C
100
AcDbEntity
  8
DEF_LAYER_ASSEM_MEMBER
100
AcDbLine
 62
7
  6
CONTINUOUS
 10
45.7521538796
 20
147.343903062
 11
43.9308503061
 21
147.343903062
  0
LINE
  5
45D
100
AcDbEntity
  8
DEF_LAYER_ASSEM_MEMBER
100
AcDbLine
 62
7
  6
CONTINUOUS
 10
49.6156975385
 20
147.3612678798
 11
51.30558888
 21
147.3612678798
  0
LINE
  5
45E
100
AcDbEntity
  8
DEF_LAYER_ASSEM_MEMBER
100
AcDbLine
 62
7
  6
CONTINUOUS
 10
41.6389091349
 20
147.6381286622
 11
43.3487967996
 21
147.5585694889
  0
LINE
  5
45F
100
AcDbEntity
  8
DEF_LAYER_ASSEM_MEMBER
100
AcDbLine
 62
7
  6
CONTINUOUS
 10
54.4166209061
 20
147.0435959299
 11
56.1265085708
 21
146.9640367566
  0
LINE
  5
460
100
AcDbEntity
  8
DEF_LAYER_ASSEM_MEMBER
100
AcDbLine
 62
7
  6
CONTINUOUS
 10
56.1782723799
 20
146.9975830085
 11
54.4683847151
 21
147.0771421818
  0
LINE
  5
461
100
AcDbEntity
  8
DEF_LAYER_ASSEM_MEMBER
100
AcDbLine
 62
7
  6
CONTINUOUS
 10
43.4005606086
 20
147.5921157408
 11
41.6906729439
 21
147.6716749141
  0
LINE
  5
462
100
AcDbEntity
  8
DEF_LAYER_ASSEM_MEMBER
100
AcDbLine
 62
7
  6
CONTINUOUS
 10
44.5227410731
 20
147.7274860545
 11
46.1000407736
 21
147.5693525763
  0
LINE
  5
463
100
AcDbEntity
  8
DEF_LAYER_ASSEM_MEMBER
100
AcDbLine
 62
7
  6
CONTINUOUS
 10
51.5671405863
 20
147.02124399
 11
53.1444404416
 21
146.8631104962
  0
LINE
  5
464
100
AcDbEntity
  8
DEF_LAYER_ASSEM_MEMBER
100
AcDbLine
 62
7
  6
CONTINUOUS
 10
42.3639776049
 20
147.953940243
 11
43.8970209453
 21
147.8002437225
  0
LINE
  5
465
100
AcDbEntity
  8
DEF_LAYER_ASSEM_MEMBER
100
AcDbLine
 62
7
  6
CONTINUOUS
 10
53.8201605694
 20
146.8053912015
 11
55.3532039098
 21
146.6516946811
  0
LINE
  5
466
100
AcDbEntity
  8
DEF_LAYER_ASSEM_MEMBER
100
AcDbLine
 62
7
  6
CONTINUOUS
 10
55.4532039098
 20
146.6817714277
 11
53.9201605694
 21
146.8354679481
  0
LINE
  5
467
100
AcDbEntity
  8
DEF_LAYER_ASSEM_MEMBER
100
AcDbLine
 62
7
  6
CONTINUOUS
 10
43.9970209453
 20
147.8303204692
 11
42.4639776049
 21
147.9840169896
  0
LINE
  5
468
100
AcDbEntity
  8
DEF_LAYER_ASSEM_MEMBER
100
AcDbLine
 62
7
  6
CONTINUOUS
 10
53.2944404416
 20
146.9082256162
 11
51.7171406192
 21
147.0663591066
  0
LINE
  5
469
100
AcDbEntity
  8
DEF_LAYER_ASSEM_MEMBER
100
AcDbLine
 62
7
  6
CONTINUOUS
 10
46.2500358959
 20
147.6144681853
 11
44.6727410731
 21
147.7726011744
  0
LINE
  5
46A
100
AcDbEntity
  8
DEF_LAYER_ASSEM_MEMBER
100
AcDbLine
 62
7
  6
CONTINUOUS
 10
43.5350506458
 20
148.2264037225
 11
44.7867752917
 21
148.0090440188
  0
LINE
  5
46B
100
AcDbEntity
  8
DEF_LAYER_ASSEM_MEMBER
100
AcDbLine
 62
7
  6
CONTINUOUS
 10
52.8889848668
 20
146.602110091
 11
54.1407095127
 21
146.3847503874
  0
LINE
  5
46C
100
AcDbEntity
  8
DEF_LAYER_ASSEM_MEMBER
100
AcDbLine
 62
7
  6
CONTINUOUS
 10
54.2821308689
 20
146.4093079481
 11
53.0304062231
 21
146.6266676518
  0
LINE
  5
46D
100
AcDbEntity
  8
DEF_LAYER_ASSEM_MEMBER
100
AcDbLine
 62
7
  6
CONTINUOUS
 10
44.9281966479
 20
148.0336015796
 11
43.676472002
 21
148.2509612833
  0
LINE
  5
46E
100
AcDbEntity
  8
DEF_LAYER_ASSEM_MEMBER
100
AcDbLine
 62
7
  6
CONTINUOUS
 10
48.338523617
 20
147.402489396
 11
47.4935853451
 21
147.6566193392
  0
LINE
  5
46F
100
AcDbEntity
  8
DEF_LAYER_ASSEM_MEMBER
100
AcDbLine
 62
7
  6
CONTINUOUS
 10
46.2898167212
 20
148.0534034139
 11
47.2004708608
 21
147.7795082756
  0
LINE
  5
470
100
AcDbEntity
  8
DEF_LAYER_ASSEM_MEMBER
100
AcDbLine
 62
7
  6
CONTINUOUS
 10
50.3569036097
 20
146.8301559949
 11
51.2675571724
 21
146.5562610302
  0
LINE
  5
471
100
AcDbEntity
  8
DEF_LAYER_ASSEM_MEMBER
100
AcDbLine
 62
7
  6
CONTINUOUS
 10
45.0723215651
 20
148.436951165
 11
45.9574245504
 21
148.1707409827
  0
LINE
  5
472
100
AcDbEntity
  8
DEF_LAYER_ASSEM_MEMBER
100
AcDbLine
 62
7
  6
CONTINUOUS
 10
51.6865518836
 20
146.4476058702
 11
52.5716548688
 21
146.1813956879
  0
LINE
  5
473
100
AcDbEntity
  8
DEF_LAYER_ASSEM_MEMBER
100
AcDbLine
 62
7
  6
CONTINUOUS
 10
52.7448599496
 20
146.1987605056
 11
51.8597569643
 21
146.464970688
  0
LINE
  5
474
100
AcDbEntity
  8
DEF_LAYER_ASSEM_MEMBER
100
AcDbLine
 62
7
  6
CONTINUOUS
 10
46.1306296311
 20
148.1881058005
 11
45.2455266459
 21
148.4543159828
  0
LINE
  5
475
100
AcDbEntity
  8
DEF_LAYER_ASSEM_MEMBER
100
AcDbLine
 62
7
  6
CONTINUOUS
 10
51.5273647935
 20
146.5823082568
 11
50.6167090601
 21
146.8562038745
  0
LINE
  5
476
100
AcDbEntity
  8
DEF_LAYER_ASSEM_MEMBER
100
AcDbLine
 62
7
  6
CONTINUOUS
 10
47.4602757697
 20
147.805556318
 11
46.5496243423
 21
148.0794506405
  0
LINE
  5
477
100
AcDbEntity
  8
DEF_LAYER_ASSEM_MEMBER
100
AcDbLine
 62
7
  6
CONTINUOUS
 10
47.926598047
 20
147.7000313837
 11
48.7715372646
 21
147.4459011559
  0
LINE
  5
478
100
AcDbEntity
  8
DEF_LAYER_ASSEM_MEMBER
100
AcDbLine
 62
7
  6
CONTINUOUS
 10
58.3585907574
 20
20.3021259281
 11
59.3585907574
 21
21.3021259281
  0
LINE
  5
479
100
AcDbEntity
  8
DEF_LAYER_ASSEM_MEMBER
100
AcDbLine
 62
9
  6
CONTINUOUS
 10
29.4082216669
 20
168.3017232947
 11
29.4085909288
 21
168.3017511272
  0
LINE
  5
47A
100
AcDbEntity
  8
DEF_LAYER_ASSEM_MEMBER
100
AcDbLine
 62
9
  6
CONTINUOUS
 10
29.4085909288
 20
168.3017511272
 11
29.4112306478
 21
168.3018635257
  0
LINE
  5
47B
100
AcDbEntity
  8
DEF_LAYER_ASSEM_MEMBER
100
AcDbLine
 62
9
  6
CONTINUOUS
 10
66.403389706
 20
168.301861543
 11
53.6090100668
 21
168.3003553917
  0
LINE
  5
47C
100
AcDbEntity
  8
DEF_LAYER_ASSEM_MEMBER
100
AcDbLine
 62
9
  6
CONTINUOUS
 10
29.4112306478
 20
168.3018635257
 11
31.4150023386
 21
168.301861543
  0
LINE
  5
47D
100
AcDbEntity
  8
DEF_LAYER_ASSEM_MEMBER
100
AcDbLine
 62
9
  6
CONTINUOUS
 10
68.4059508669
 20
168.3018635257
 11
66.403389706
 21
168.301861543
  0
LINE
  5
47E
100
AcDbEntity
  8
DEF_LAYER_ASSEM_MEMBER
100
AcDbLine
 62
7
  6
CONTINUOUS
 10
68.2083133706
 20
168.8021259281
 11
29.6088681441
 21
168.8021259281
  0
LINE
  5
47F
100
AcDbEntity
  8
DEF_LAYER_ASSEM_MEMBER
100
AcDbLine
 62
9
  6
CONTINUOUS
 10
68.4080359841
 20
169.0021259281
 11
29.4091455307
 21
169.0021259281
  0
LINE
  5
480
100
AcDbEntity
  8
DEF_LAYER_ASSEM_MEMBER
100
AcDbLine
 62
9
  6
CONTINUOUS
 10
31.4150023386
 20
168.301861543
 11
44.2081505319
 21
168.3003554004
  0
LINE
  5
481
100
AcDbEntity
  8
DEF_LAYER_ASSEM_MEMBER
100
AcDbLine
 62
9
  6
CONTINUOUS
 10
68.4089598478
 20
168.3017232947
 11
68.4059508669
 21
168.3018635257
  0
LINE
  5
482
100
AcDbEntity
  8
DEF_LAYER_ASSEM_MEMBER
100
AcDbLine
 62
9
  6
CONTINUOUS
 10
33.2594710597
 20
177.2012532746
 11
64.557710455
 21
177.2012532746
  0
LINE
  5
483
100
AcDbEntity
  8
DEF_LAYER_ASSEM_MEMBER
100
AcDbLine
 62
7
  6
CONTINUOUS
 10
33.359467252
 20
177.3021259281
 11
64.4577142627
 21
177.3021259281
  0
LINE
  5
484
100
AcDbEntity
  8
DEF_LAYER_ASSEM_MEMBER
100
AcDbLine
 62
9
  6
CONTINUOUS
 10
64.63737419
 20
177.5038712352
 11
33.1798073247
 21
177.5038712352
  0
LINE
  5
485
100
AcDbEntity
  8
DEF_LAYER_ASSEM_MEMBER
100
AcDbLine
 62
9
  6
CONTINUOUS
 10
64.6085894657
 20
180.802125928
 11
33.2085907574
 21
180.802125928
  0
LWPOLYLINE
  5
486
100
AcDbEntity
  8
DEF_LAYER_ASSEM_MEMBER
100
AcDbPolyline
 62
7
  6
CONTINUOUS
 90
5
 70
0
 10
59.6085925132
 20
183.4465074191
 10
54.7406130638
 20
183.787099376
 10
48.9035137489
 20
183.878478706
 10
43.067429738
 20
183.7867470952
 10
38.2085883652
 20
183.4465073643
  0
ARC
  5
487
100
AcDbEntity
  8
DEF_LAYER_ASSEM_MEMBER
100
AcDbCircle
 62
7
  6
CONTINUOUS
 10
113.1234093155
 20
38.7521259281
 40
2.75
100
AcDbArc
 50
180.0
 51
270.0
  0
ARC
  5
488
100
AcDbEntity
  8
DEF_LAYER_ASSEM_MEMBER
100
AcDbCircle
 62
7
  6
CONTINUOUS
 10
112.9234093155
 20
73.7863294115
 40
1.5
100
AcDbArc
 50
295.6174350285
 51
360.0
  0
ARC
  5
489
100
AcDbEntity
  8
DEF_LAYER_ASSEM_MEMBER
100
AcDbCircle
 62
7
  6
CONTINUOUS
 10
112.4234093155
 20
69.6080802488
 40
1.5
100
AcDbArc
 50
141.8462205998
 51
180.0
  0
ARC
  5
48A
100
AcDbEntity
  8
DEF_LAYER_ASSEM_MEMBER
100
AcDbCircle
 62
7
  6
CONTINUOUS
 10
115.100757448
 20
35.5021259281
 40
0.5
100
AcDbArc
 50
0.0
 51
90.0
  0
ARC
  5
48B
100
AcDbEntity
  8
DEF_LAYER_ASSEM_MEMBER
100
AcDbCircle
 62
9
  6
CONTINUOUS
 10
121.657935089
 20
278.2799613212
 40
106.6490010211
100
AcDbArc
 50
267.9564578479
 51
268.1922974275
  0
ARC
  5
48C
100
AcDbEntity
  8
DEF_LAYER_ASSEM_MEMBER
100
AcDbCircle
 62
7
  6
CONTINUOUS
 10
121.3612293563
 20
180.8023802598
 40
3.1378195721
100
AcDbArc
 50
179.5847235664
 51
179.7498993602
  0
ARC
  5
48D
100
AcDbEntity
  8
DEF_LAYER_ASSEM_MEMBER
100
AcDbCircle
 62
7
  6
CONTINUOUS
 10
121.3171938656
 20
180.8027008013
 40
3.0937829148
100
AcDbArc
 50
179.4065417408
 51
179.584748923
  0
ARC
  5
48E
100
AcDbEntity
  8
DEF_LAYER_ASSEM_MEMBER
100
AcDbCircle
 62
7
  6
CONTINUOUS
 10
120.6273452247
 20
180.8022396606
 40
2.4039357607
100
AcDbArc
 50
179.2244677237
 51
179.8983617087
  0
ARC
  5
48F
100
AcDbEntity
  8
DEF_LAYER_ASSEM_MEMBER
100
AcDbCircle
 62
7
  6
CONTINUOUS
 10
116.4234093157
 20
169.8020688116
 40
2.0
100
AcDbArc
 50
90.0
 51
180.0
  0
ARC
  5
490
100
AcDbEntity
  8
DEF_LAYER_ASSEM_MEMBER
100
AcDbCircle
 62
7
  6
CONTINUOUS
 10
114.9234093155
 20
168.3021259281
 40
0.5
100
AcDbArc
 50
90.0
 51
180.0
  0
ARC
  5
491
100
AcDbEntity
  8
DEF_LAYER_ASSEM_MEMBER
100
AcDbCircle
 62
7
  6
CONTINUOUS
 10
118.3946182675
 20
177.5021259281
 40
0.2
100
AcDbArc
 50
179.5
 51
270.0
  0
ARC
  5
492
100
AcDbEntity
  8
DEF_LAYER_ASSEM_MEMBER
100
AcDbCircle
 62
7
  6
CONTINUOUS
 10
114.6234093159
 20
169.0021259281
 40
0.2
100
AcDbArc
 50
180.0
 51
270.0
  0
ARC
  5
493
100
AcDbEntity
  8
DEF_LAYER_ASSEM_MEMBER
100
AcDbCircle
 62
7
  6
CONTINUOUS
 10
118.3742858102
 20
177.2021259281
 40
0.1
100
AcDbArc
 50
90.0
 51
180.5
  0
ARC
  5
494
100
AcDbEntity
  8
DEF_LAYER_ASSEM_MEMBER
100
AcDbCircle
 62
7
  6
CONTINUOUS
 10
149.1234093155
 20
38.7521259281
 40
2.75
100
AcDbArc
 50
270.0
 51
360.0
  0
ARC
  5
495
100
AcDbEntity
  8
DEF_LAYER_ASSEM_MEMBER
100
AcDbCircle
 62
7
  6
CONTINUOUS
 10
158.9234093155
 20
73.7863294115
 40
1.5
100
AcDbArc
 50
180.0
 51
244.3825649715
  0
ARC
  5
496
100
AcDbEntity
  8
DEF_LAYER_ASSEM_MEMBER
100
AcDbCircle
 62
7
  6
CONTINUOUS
 10
159.4234093155
 20
69.6080802488
 40
1.5
100
AcDbArc
 50
0.0
 51
38.1537794002
  0
ARC
  5
497
100
AcDbEntity
  8
DEF_LAYER_ASSEM_MEMBER
100
AcDbCircle
 62
7
  6
CONTINUOUS
 10
147.1460611831
 20
35.5021259281
 40
0.5
100
AcDbArc
 50
90.0
 51
180.0
  0
ARC
  5
498
100
AcDbEntity
  8
DEF_LAYER_ASSEM_MEMBER
100
AcDbCircle
 62
7
  6
CONTINUOUS
 10
146.4855907826
 20
180.8023802679
 40
3.1378180642
100
AcDbArc
 50
0.2501006017
 51
0.4152879879
  0
ARC
  5
499
100
AcDbEntity
  8
DEF_LAYER_ASSEM_MEMBER
100
AcDbCircle
 62
7
  6
CONTINUOUS
 10
146.5296291969
 20
180.8027008395
 40
3.0937784832
100
AcDbArc
 50
0.4152626292
 51
0.5934820188
  0
ARC
  5
49A
100
AcDbEntity
  8
DEF_LAYER_ASSEM_MEMBER
100
AcDbCircle
 62
7
  6
CONTINUOUS
 10
147.219473771
 20
180.8022396608
 40
2.4039353961
100
AcDbArc
 50
0.101627076
 51
0.7755523892
  0
ARC
  5
49B
100
AcDbEntity
  8
DEF_LAYER_ASSEM_MEMBER
100
AcDbCircle
 62
7
  6
CONTINUOUS
 10
149.4522003636
 20
177.5021259281
 40
0.2
100
AcDbArc
 50
270.0
 51
0.5
  0
ARC
  5
49C
100
AcDbEntity
  8
DEF_LAYER_ASSEM_MEMBER
100
AcDbCircle
 62
7
  6
CONTINUOUS
 10
149.4725328209
 20
177.2021259281
 40
0.1
100
AcDbArc
 50
359.5
 51
90.0
  0
ARC
  5
49D
100
AcDbEntity
  8
DEF_LAYER_ASSEM_MEMBER
100
AcDbCircle
 62
7
  6
CONTINUOUS
 10
138.6446541163
 20
844.0887999506
 40
672.4896964133
100
AcDbArc
 50
269.9982828025
 51
270.2056238523
  0
ARC
  5
49E
100
AcDbEntity
  8
DEF_LAYER_ASSEM_MEMBER
100
AcDbCircle
 62
7
  6
CONTINUOUS
 10
129.1586950167
 20
819.2618190888
 40
647.6627183843
100
AcDbArc
 50
269.7903354196
 51
270.0056287619
  0
ARC
  5
49F
100
AcDbEntity
  8
DEF_LAYER_ASSEM_MEMBER
100
AcDbCircle
 62
9
  6
CONTINUOUS
 10
134.9183413604
 20
774.9080775209
 40
626.8292422051
100
AcDbArc
 50
274.4839191885
 51
275.0865599964
  0
ARC
  5
4A0
100
AcDbEntity
  8
DEF_LAYER_ASSEM_MEMBER
100
AcDbCircle
 62
7
  6
CONTINUOUS
 10
225.4918471874
 20
250.8828467905
 40
96.1438013764
100
AcDbArc
 50
278.3843324058
 51
278.821622453
  0
ARC
  5
4A1
100
AcDbEntity
  8
DEF_LAYER_ASSEM_MEMBER
100
AcDbCircle
 62
7
  6
CONTINUOUS
 10
198.8557583249
 20
242.2195305935
 40
92.8185820895
100
AcDbArc
 50
285.9344514045
 51
286.2953192587
  0
ARC
  5
4A2
100
AcDbEntity
  8
DEF_LAYER_ASSEM_MEMBER
100
AcDbCircle
 62
7
  6
CONTINUOUS
 10
262.4272574769
 20
85.9544523216
 40
73.0300798766
100
AcDbArc
 50
104.353550977
 51
104.5288167435
  0
ARC
  5
4A3
100
AcDbEntity
  8
DEF_LAYER_ASSEM_MEMBER
100
AcDbCircle
 62
7
  6
CONTINUOUS
 10
230.5113675522
 20
218.8990291224
 40
63.768570216
100
AcDbArc
 50
278.7720762318
 51
279.7296587065
  0
ARC
  5
4A4
100
AcDbEntity
  8
DEF_LAYER_ASSEM_MEMBER
100
AcDbCircle
 62
7
  6
CONTINUOUS
 10
243.7428507652
 20
92.5618562572
 40
63.4211420158
100
AcDbArc
 50
104.8669601628
 51
105.9261791576
  0
ARC
  5
4A5
100
AcDbEntity
  8
DEF_LAYER_ASSEM_MEMBER
100
AcDbCircle
 62
7
  6
CONTINUOUS
 10
239.3903617973
 20
108.7884031698
 40
46.6210700962
100
AcDbArc
 50
103.9115960543
 51
104.8135593801
  0
ARC
  5
4A6
100
AcDbEntity
  8
DEF_LAYER_ASSEM_MEMBER
100
AcDbCircle
 62
7
  6
CONTINUOUS
 10
233.5855892902
 20
200.9907947097
 40
45.598383597
100
AcDbArc
 50
279.7252381375
 51
280.6419726022
  0
ARC
  5
4A7
100
AcDbEntity
  8
DEF_LAYER_ASSEM_MEMBER
100
AcDbCircle
 62
7
  6
CONTINUOUS
 10
238.1791467788
 20
113.0116466235
 40
42.2384575864
100
AcDbArc
 50
97.1521431934
 51
97.9989411916
  0
ARC
  5
4A8
100
AcDbEntity
  8
DEF_LAYER_ASSEM_MEMBER
100
AcDbCircle
 62
7
  6
CONTINUOUS
 10
238.1907854207
 20
113.5805634236
 40
41.6810684893
100
AcDbArc
 50
101.7619949625
 51
103.8947741269
  0
ARC
  5
4A9
100
AcDbEntity
  8
DEF_LAYER_ASSEM_MEMBER
100
AcDbCircle
 62
7
  6
CONTINUOUS
 10
237.9343406906
 20
114.6281302151
 40
40.6036391663
100
AcDbArc
 50
97.9742711775
 51
100.6078442703
  0
ARC
  5
4AA
100
AcDbEntity
  8
DEF_LAYER_ASSEM_MEMBER
100
AcDbCircle
 62
7
  6
CONTINUOUS
 10
237.7871977437
 20
115.4792472005
 40
39.7399825199
100
AcDbArc
 50
100.6252180732
 51
101.7503555385
  0
ARC
  5
4AB
100
AcDbEntity
  8
DEF_LAYER_ASSEM_MEMBER
100
AcDbCircle
 62
7
  6
CONTINUOUS
 10
206.2574740868
 20
147.6976407286
 40
38.8035714286
100
AcDbArc
 50
2.9518182225
 51
10.0
  0
ARC
  5
4AC
100
AcDbEntity
  8
DEF_LAYER_ASSEM_MEMBER
100
AcDbCircle
 62
7
  6
CONTINUOUS
 10
260.0350117423
 20
157.1800715734
 40
38.8035714286
100
AcDbArc
 50
190.0
 51
197.0481817775
  0
ARC
  5
4AD
100
AcDbEntity
  8
DEF_LAYER_ASSEM_MEMBER
100
AcDbCircle
 62
7
  6
CONTINUOUS
 10
235.7623480729
 20
189.5439399993
 40
33.9464355169
100
AcDbArc
 50
280.5990797683
 51
281.8640625699
  0
ARC
  5
4AE
100
AcDbEntity
  8
DEF_LAYER_ASSEM_MEMBER
100
AcDbCircle
 62
7
  6
CONTINUOUS
 10
251.9244089018
 20
126.5534381523
 40
31.0945731871
100
AcDbArc
 50
104.5619057937
 51
105.105939923
  0
ARC
  5
4AF
100
AcDbEntity
  8
DEF_LAYER_ASSEM_MEMBER
100
AcDbCircle
 62
7
  6
CONTINUOUS
 10
236.8090649997
 20
184.513607592
 40
28.8083671476
100
AcDbArc
 50
281.8836149377
 51
282.0361046648
  0
ARC
  5
4B0
100
AcDbEntity
  8
DEF_LAYER_ASSEM_MEMBER
100
AcDbCircle
 62
7
  6
CONTINUOUS
 10
216.7552619411
 20
178.1923254037
 40
26.334756448
100
AcDbArc
 50
283.2849615628
 51
284.9701605468
  0
ARC
  5
4B1
100
AcDbEntity
  8
DEF_LAYER_ASSEM_MEMBER
100
AcDbCircle
 62
7
  6
CONTINUOUS
 10
218.1995580825
 20
172.0730521679
 40
20.0473487221
100
AcDbArc
 50
282.2657040774
 51
283.286471889
  0
ARC
  5
4B2
100
AcDbEntity
  8
DEF_LAYER_ASSEM_MEMBER
100
AcDbCircle
 62
7
  6
CONTINUOUS
 10
223.4145546473
 20
145.9503918658
 40
0.5
100
AcDbArc
 50
197.0481817775
 51
280.0
  0
ARC
  5
4B3
100
AcDbEntity
  8
DEF_LAYER_ASSEM_MEMBER
100
AcDbCircle
 62
7
  6
CONTINUOUS
 10
244.5102240519
 20
149.6701275579
 40
0.5
100
AcDbArc
 50
280.0
 51
2.9518182225
  0
ARC
  5
4B4
100
AcDbEntity
  8
DEF_LAYER_ASSEM_MEMBER
100
AcDbCircle
 62
7
  6
CONTINUOUS
 10
251.9234093561
 20
168.3021259281
 40
0.5
100
AcDbArc
 50
0.0331225966
 51
90.0
  0
ARC
  5
4B5
100
AcDbEntity
  8
DEF_LAYER_ASSEM_MEMBER
100
AcDbCircle
 62
7
  6
CONTINUOUS
 10
252.2228545422
 20
169.0021259281
 40
0.2
100
AcDbArc
 50
270.0
 51
360.0
  0
ARC
  5
4B6
100
AcDbEntity
  8
DEF_LAYER_ASSEM_MEMBER
100
AcDbCircle
 62
9
  6
CONTINUOUS
 10
232.9171760853
 20
954.4884788134
 40
784.9287991112
100
AcDbArc
 50
270.6653933179
 51
270.7883405762
  0
ARC
  5
4B7
100
AcDbEntity
  8
DEF_LAYER_ASSEM_MEMBER
100
AcDbCircle
 62
9
  6
CONTINUOUS
 10
232.9213764102
 20
954.1431173423
 40
784.5834120653
100
AcDbArc
 50
270.000148457
 51
270.6462762923
  0
ARC
  5
4B8
100
AcDbEntity
  8
DEF_LAYER_ASSEM_MEMBER
100
AcDbCircle
 62
9
  6
CONTINUOUS
 10
48.906442403
 20
-615.2152676658
 40
785.0173416182
100
AcDbArc
 50
89.6466316375
 51
89.7769414773
  0
ARC
  5
4B9
100
AcDbEntity
  8
DEF_LAYER_ASSEM_MEMBER
100
AcDbCircle
 62
9
  6
CONTINUOUS
 10
48.9082551808
 20
-615.0046916065
 40
784.8067601269
100
AcDbArc
 50
89.781142194
 51
89.9999724119
  0
ARC
  5
4BA
100
AcDbEntity
  8
DEF_LAYER_ASSEM_MEMBER
100
AcDbCircle
 62
9
  6
CONTINUOUS
 10
48.9088605909
 20
-614.8375146656
 40
784.6395838702
100
AcDbArc
 50
90.2190968799
 51
90.3649056972
  0
ARC
  5
4BB
100
AcDbEntity
  8
DEF_LAYER_ASSEM_MEMBER
100
AcDbCircle
 62
9
  6
CONTINUOUS
 10
48.9089958155
 20
-614.7401603916
 40
784.5422275809
100
AcDbArc
 50
88.931127032
 51
89.6353596889
  0
ARC
  5
4BC
100
AcDbEntity
  8
DEF_LAYER_ASSEM_MEMBER
100
AcDbCircle
 62
9
  6
CONTINUOUS
 10
48.9080878574
 20
-614.7341389174
 40
784.5362052971
100
AcDbArc
 50
90.3648973466
 51
91.0686378886
  0
ARC
  5
4BD
100
AcDbEntity
  8
DEF_LAYER_ASSEM_MEMBER
100
AcDbCircle
 62
9
  6
CONTINUOUS
 10
48.9082485803
 20
-614.6110078942
 40
784.4130764146
100
AcDbArc
 50
89.9999719159
 51
90.2191154434
  0
ARC
  5
4BE
100
AcDbEntity
  8
DEF_LAYER_ASSEM_MEMBER
100
AcDbCircle
 62
7
  6
CONTINUOUS
 10
48.9085907574
 20
-462.0979311778
 40
633.8999999894
100
AcDbArc
 50
88.4130457242
 51
91.5869542758
  0
ARC
  5
4BF
100
AcDbEntity
  8
DEF_LAYER_ASSEM_MEMBER
100
AcDbCircle
 62
7
  6
CONTINUOUS
 10
31.2538233455
 20
66.8257706772
 40
6.2331272464
100
AcDbArc
 50
130.341691677
 51
133.7283168714
  0
ARC
  5
4C0
100
AcDbEntity
  8
DEF_LAYER_ASSEM_MEMBER
100
AcDbCircle
 62
7
  6
CONTINUOUS
 10
30.9824942014
 20
67.1466820764
 40
5.8128860116
100
AcDbArc
 50
124.4382455418
 51
130.3508964378
  0
ARC
  5
4C1
100
AcDbEntity
  8
DEF_LAYER_ASSEM_MEMBER
100
AcDbCircle
 62
7
  6
CONTINUOUS
 10
30.9085907574
 20
38.7521259281
 40
2.75
100
AcDbArc
 50
180.0
 51
270.0
  0
ARC
  5
4C2
100
AcDbEntity
  8
DEF_LAYER_ASSEM_MEMBER
100
AcDbCircle
 62
7
  6
CONTINUOUS
 10
27.4085907574
 20
69.6080802488
 40
1.5
100
AcDbArc
 50
141.8462205998
 51
180.0
  0
ARC
  5
4C3
100
AcDbEntity
  8
DEF_LAYER_ASSEM_MEMBER
100
AcDbCircle
 62
7
  6
CONTINUOUS
 10
27.9085907574
 20
73.7863294115
 40
1.5
100
AcDbArc
 50
295.6174350285
 51
360.0
  0
ARC
  5
4C4
100
AcDbEntity
  8
DEF_LAYER_ASSEM_MEMBER
100
AcDbCircle
 62
7
  6
CONTINUOUS
 10
34.8985907574
 20
35.5021259281
 40
0.5
100
AcDbArc
 50
0.0
 51
90.0
  0
ARC
  5
4C5
100
AcDbEntity
  8
DEF_LAYER_ASSEM_MEMBER
100
AcDbCircle
 62
7
  6
CONTINUOUS
 10
22.4351577415
 20
152.4386247346
 40
37.9734330165
100
AcDbArc
 50
352.8427685515
 51
0.00034917
  0
ARC
  5
4C6
100
AcDbEntity
  8
DEF_LAYER_ASSEM_MEMBER
100
AcDbCircle
 62
7
  6
CONTINUOUS
 10
31.4085907575
 20
169.5596975948
 40
2.0
100
AcDbArc
 50
91.5869668562
 51
179.9997798438
  0
ARC
  5
4C7
100
AcDbEntity
  8
DEF_LAYER_ASSEM_MEMBER
100
AcDbCircle
 62
7
  6
CONTINUOUS
 10
29.9085907574
 20
168.3021259281
 40
0.5
100
AcDbArc
 50
90.0
 51
180.0496599771
  0
ARC
  5
4C8
100
AcDbEntity
  8
DEF_LAYER_ASSEM_MEMBER
100
AcDbCircle
 62
7
  6
CONTINUOUS
 10
33.3797997093
 20
177.5021259281
 40
0.2
100
AcDbArc
 50
179.5
 51
270.0
  0
ARC
  5
4C9
100
AcDbEntity
  8
DEF_LAYER_ASSEM_MEMBER
100
AcDbCircle
 62
7
  6
CONTINUOUS
 10
29.6085907575
 20
169.0021259281
 40
0.2
100
AcDbArc
 50
180.0
 51
270.0794653469
  0
ARC
  5
4CA
100
AcDbEntity
  8
DEF_LAYER_ASSEM_MEMBER
100
AcDbCircle
 62
7
  6
CONTINUOUS
 10
33.359467252
 20
177.2021259281
 40
0.1
100
AcDbArc
 50
90.0
 51
180.5
  0
ARC
  5
4CB
100
AcDbEntity
  8
DEF_LAYER_ASSEM_MEMBER
100
AcDbCircle
 62
9
  6
CONTINUOUS
 10
46.7632877448
 20
46.9285267924
 40
136.506326184
100
AcDbArc
 50
90.4195325606
 51
91.0723603947
  0
ARC
  5
4CC
100
AcDbEntity
  8
DEF_LAYER_ASSEM_MEMBER
100
AcDbCircle
 62
7
  6
CONTINUOUS
 10
46.1538508637
 20
86.6201316661
 40
70.3510146976
100
AcDbArc
 50
81.883019708
 51
82.9550489298
  0
ARC
  5
4CD
100
AcDbEntity
  8
DEF_LAYER_ASSEM_MEMBER
100
AcDbCircle
 62
9
  6
CONTINUOUS
 10
48.9085344553
 20
85.29743177
 40
64.3984438678
100
AcDbArc
 50
89.9999499077
 51
90.6688033326
  0
ARC
  5
4CE
100
AcDbEntity
  8
DEF_LAYER_ASSEM_MEMBER
100
AcDbCircle
 62
7
  6
CONTINUOUS
 10
46.9352956689
 20
92.814631038
 40
64.107441648
100
AcDbArc
 50
82.9691720032
 51
83.4074008308
  0
ARC
  5
4CF
100
AcDbEntity
  8
DEF_LAYER_ASSEM_MEMBER
100
AcDbCircle
 62
9
  6
CONTINUOUS
 10
48.9085267962
 20
87.6432587632
 40
61.5344649183
100
AcDbArc
 50
89.9999404447
 51
90.7000742683
  0
ARC
  5
4D0
100
AcDbEntity
  8
DEF_LAYER_ASSEM_MEMBER
100
AcDbCircle
 62
7
  6
CONTINUOUS
 10
47.3602040164
 20
96.482847702
 40
60.4146974611
100
AcDbArc
 50
83.408306526
 51
84.0635779458
  0
ARC
  5
4D1
100
AcDbEntity
  8
DEF_LAYER_ASSEM_MEMBER
100
AcDbCircle
 62
7
  6
CONTINUOUS
 10
48.9082927986
 20
91.053397247
 40
58.0183051835
100
AcDbArc
 50
89.9997057519
 51
90.7415425125
  0
ARC
  5
4D2
100
AcDbEntity
  8
DEF_LAYER_ASSEM_MEMBER
100
AcDbCircle
 62
7
  6
CONTINUOUS
 10
48.9081602563
 20
102.5552019271
 40
46.4646464752
100
AcDbArc
 50
89.9994691471
 51
90.9267746052
  0
ARC
  5
4D3
100
AcDbEntity
  8
DEF_LAYER_ASSEM_MEMBER
100
AcDbCircle
 62
7
  6
CONTINUOUS
 10
48.9080776699
 20
103.9427056484
 40
44.7296059757
100
AcDbArc
 50
89.9993427677
 51
90.962552391
  0
ARC
  5
4D4
100
AcDbEntity
  8
DEF_LAYER_ASSEM_MEMBER
100
AcDbCircle
 62
7
  6
CONTINUOUS
 10
48.9071730434
 20
105.683990191
 40
42.9362243796
100
AcDbArc
 50
90.1315521793
 51
91.0003217894
  0
ARC
  5
4D5
100
AcDbEntity
  8
DEF_LAYER_ASSEM_MEMBER
100
AcDbCircle
 62
7
  6
CONTINUOUS
 10
48.8701573067
 20
107.4159753054
 40
41.2038575599
100
AcDbArc
 50
90.990903549
 51
92.356158974
  0
ARC
  5
4D6
100
AcDbEntity
  8
DEF_LAYER_ASSEM_MEMBER
100
AcDbCircle
 62
7
  6
CONTINUOUS
 10
36.3985907574
 20
28.8021259281
 40
1.0
100
AcDbArc
 50
180.0
 51
270.0
  0
ARC
  5
4D7
100
AcDbEntity
  8
DEF_LAYER_ASSEM_MEMBER
100
AcDbCircle
 62
7
  6
CONTINUOUS
 10
48.902258467
 20
188.284244843
 40
42.2687383537
100
AcDbArc
 50
267.5077216265
 51
269.8730321973
  0
ARC
  5
4D8
100
AcDbEntity
  8
DEF_LAYER_ASSEM_MEMBER
100
AcDbCircle
 62
7
  6
CONTINUOUS
 10
48.8080213404
 20
108.9959780034
 40
39.622636252
100
AcDbArc
 50
92.360312397
 51
92.5224252197
  0
ARC
  5
4D9
100
AcDbEntity
  8
DEF_LAYER_ASSEM_MEMBER
100
AcDbCircle
 62
7
  6
CONTINUOUS
 10
46.4654231272
 20
118.6015570868
 40
37.9478807421
100
AcDbArc
 50
99.9996907059
 51
100.7853798996
  0
ARC
  5
4DA
100
AcDbEntity
  8
DEF_LAYER_ASSEM_MEMBER
100
AcDbCircle
 62
7
  6
CONTINUOUS
 10
48.9034227059
 20
116.0189147464
 40
32.2939328485
100
AcDbArc
 50
90.1682507438
 51
92.4509954324
  0
ARC
  5
4DB
100
AcDbEntity
  8
DEF_LAYER_ASSEM_MEMBER
100
AcDbCircle
 62
7
  6
CONTINUOUS
 10
48.8927767125
 20
178.1511177041
 40
31.8282257263
100
AcDbArc
 50
267.532301874
 51
269.8484519498
  0
ARC
  5
4DC
100
AcDbEntity
  8
DEF_LAYER_ASSEM_MEMBER
100
AcDbCircle
 62
7
  6
CONTINUOUS
 10
48.9048412594
 20
119.9130200349
 40
28.2695896689
100
AcDbArc
 50
90.2964165378
 51
91.5157051035
  0
ARC
  5
4DD
100
AcDbEntity
  8
DEF_LAYER_ASSEM_MEMBER
100
AcDbCircle
 62
7
  6
CONTINUOUS
 10
48.8278680172
 20
122.3105640056
 40
25.8708520911
100
AcDbArc
 50
91.485742694
 51
93.4898401203
  0
ARC
  5
4DE
100
AcDbEntity
  8
DEF_LAYER_ASSEM_MEMBER
100
AcDbCircle
 62
7
  6
CONTINUOUS
 10
48.5654634009
 20
126.4246909951
 40
21.7483843633
100
AcDbArc
 50
93.459583737
 51
95.3183303971
  0
ARC
  5
4DF
100
AcDbEntity
  8
DEF_LAYER_ASSEM_MEMBER
100
AcDbCircle
 62
9
  6
CONTINUOUS
 10
48.1911603294
 20
166.7628181646
 40
18.6714720112
100
AcDbArc
 50
193.7461655962
 51
194.7385293396
  0
ARC
  5
4E0
100
AcDbEntity
  8
DEF_LAYER_ASSEM_MEMBER
100
AcDbCircle
 62
9
  6
CONTINUOUS
 10
41.6356153083
 20
164.6721217039
 40
11.9597819501
100
AcDbArc
 50
245.2053061223
 51
249.2191989951
  0
ARC
  5
4E1
100
AcDbEntity
  8
DEF_LAYER_ASSEM_MEMBER
100
AcDbCircle
 62
9
  6
CONTINUOUS
 10
43.1777617536
 20
158.7037359034
 40
11.6929113567
100
AcDbArc
 50
228.1235234737
 51
241.5545863917
  0
ARC
  5
4E2
100
AcDbEntity
  8
DEF_LAYER_ASSEM_MEMBER
100
AcDbCircle
 62
7
  6
CONTINUOUS
 10
48.791899008
 20
136.5153468062
 40
11.2181065626
100
AcDbArc
 50
93.2533112908
 51
94.423864881
  0
ARC
  5
4E3
100
AcDbEntity
  8
DEF_LAYER_ASSEM_MEMBER
100
AcDbCircle
 62
7
  6
CONTINUOUS
 10
48.3474028297
 20
140.8558418665
 40
6.8541650499
100
AcDbArc
 50
97.1558751766
 51
98.3451681682
  0
ARC
  5
4E4
100
AcDbEntity
  8
DEF_LAYER_ASSEM_MEMBER
100
AcDbCircle
 62
7
  6
CONTINUOUS
 10
36.0929825637
 20
180.8061569368
 40
2.884359573
100
AcDbArc
 50
178.4076349974
 51
178.7428354482
  0
ARC
  5
4E5
100
AcDbEntity
  8
DEF_LAYER_ASSEM_MEMBER
100
AcDbCircle
 62
7
  6
CONTINUOUS
 10
41.0531206958
 20
148.3518954461
 40
0.2445299386
100
AcDbArc
 50
176.5851981901
 51
179.9980013501
  0
ARC
  5
4E6
100
AcDbEntity
  8
DEF_LAYER_ASSEM_MEMBER
100
AcDbCircle
 62
9
  6
CONTINUOUS
 10
51.0512604547
 20
47.0350145587
 40
136.3998858356
100
AcDbArc
 50
88.9255392183
 51
89.5790502965
  0
ARC
  5
4E7
100
AcDbEntity
  8
DEF_LAYER_ASSEM_MEMBER
100
AcDbCircle
 62
7
  6
CONTINUOUS
 10
51.512825163
 20
87.7509846019
 40
69.2102410638
100
AcDbArc
 50
97.0361159492
 51
98.1258156499
  0
ARC
  5
4E8
100
AcDbEntity
  8
DEF_LAYER_ASSEM_MEMBER
100
AcDbCircle
 62
7
  6
CONTINUOUS
 10
50.8176094377
 20
93.3527341493
 40
63.5655172244
100
AcDbArc
 50
96.5907305971
 51
97.0326961257
  0
ARC
  5
4E9
100
AcDbEntity
  8
DEF_LAYER_ASSEM_MEMBER
100
AcDbCircle
 62
7
  6
CONTINUOUS
 10
50.3792647149
 20
97.1908332267
 40
59.7024713799
100
AcDbArc
 50
95.9325134825
 51
96.5956014888
  0
ARC
  5
4EA
100
AcDbEntity
  8
DEF_LAYER_ASSEM_MEMBER
100
AcDbCircle
 62
7
  6
CONTINUOUS
 10
48.9139174052
 20
106.2456302337
 40
42.3745769234
100
AcDbArc
 50
87.6641701662
 51
89.871989565
  0
ARC
  5
4EB
100
AcDbEntity
  8
DEF_LAYER_ASSEM_MEMBER
100
AcDbCircle
 62
7
  6
CONTINUOUS
 10
61.4185907574
 20
28.8021259281
 40
1.0
100
AcDbArc
 50
270.0
 51
360.0
  0
ARC
  5
4EC
100
AcDbEntity
  8
DEF_LAYER_ASSEM_MEMBER
100
AcDbCircle
 62
7
  6
CONTINUOUS
 10
48.9293625431
 20
187.6526294824
 40
41.6370945878
100
AcDbArc
 50
270.1090240585
 51
272.5102221177
  0
ARC
  5
4ED
100
AcDbEntity
  8
DEF_LAYER_ASSEM_MEMBER
100
AcDbCircle
 62
7
  6
CONTINUOUS
 10
49.0091643567
 20
108.996072626
 40
39.622541537
100
AcDbArc
 50
87.4775748004
 51
87.6396873343
  0
ARC
  5
4EE
100
AcDbEntity
  8
DEF_LAYER_ASSEM_MEMBER
100
AcDbCircle
 62
7
  6
CONTINUOUS
 10
51.6493082413
 20
120.2235365201
 40
36.2988756741
100
AcDbArc
 50
79.2068252246
 51
80.0182791514
  0
ARC
  5
4EF
100
AcDbEntity
  8
DEF_LAYER_ASSEM_MEMBER
100
AcDbCircle
 62
7
  6
CONTINUOUS
 10
48.9137592898
 20
178.6167758841
 40
32.2939118069
100
AcDbArc
 50
270.1682500001
 51
272.4509961762
  0
ARC
  5
4F0
100
AcDbEntity
  8
DEF_LAYER_ASSEM_MEMBER
100
AcDbCircle
 62
7
  6
CONTINUOUS
 10
48.9244041839
 20
116.4845669197
 40
31.8282527748
100
AcDbArc
 50
87.5323028583
 51
89.8484509655
  0
ARC
  5
4F1
100
AcDbEntity
  8
DEF_LAYER_ASSEM_MEMBER
100
AcDbCircle
 62
7
  6
CONTINUOUS
 10
48.9216703144
 20
120.704786443
 40
27.4777860866
100
AcDbArc
 50
86.5731950584
 51
89.7144967957
  0
ARC
  5
4F2
100
AcDbEntity
  8
DEF_LAYER_ASSEM_MEMBER
100
AcDbCircle
 62
7
  6
CONTINUOUS
 10
49.1952549688
 20
125.6890331565
 40
22.4861119701
100
AcDbArc
 50
84.7121632019
 51
86.5099274639
  0
ARC
  5
4F3
100
AcDbEntity
  8
DEF_LAYER_ASSEM_MEMBER
100
AcDbCircle
 62
9
  6
CONTINUOUS
 10
49.6209642548
 20
166.7641389546
 40
18.6766984232
100
AcDbArc
 50
345.2526250965
 51
346.2811099057
  0
ARC
  5
4F4
100
AcDbEntity
  8
DEF_LAYER_ASSEM_MEMBER
100
AcDbCircle
 62
9
  6
CONTINUOUS
 10
56.1815662064
 20
164.6721217038
 40
11.9597819501
100
AcDbArc
 50
290.7808010049
 51
294.7946938777
  0
ARC
  5
4F5
100
AcDbEntity
  8
DEF_LAYER_ASSEM_MEMBER
100
AcDbCircle
 62
9
  6
CONTINUOUS
 10
54.6394195843
 20
158.7037361489
 40
11.6929116574
100
AcDbArc
 50
298.4454314521
 51
311.8764763686
  0
ARC
  5
4F6
100
AcDbEntity
  8
DEF_LAYER_ASSEM_MEMBER
100
AcDbCircle
 62
7
  6
CONTINUOUS
 10
61.7091799655
 20
180.8057956286
 40
2.899382885
100
AcDbArc
 50
1.1995921794
 51
1.5050713897
  0
ARC
  5
4F7
100
AcDbEntity
  8
DEF_LAYER_ASSEM_MEMBER
100
AcDbCircle
 62
7
  6
CONTINUOUS
 10
56.7640608189
 20
148.3518954461
 40
0.2445299386
100
AcDbArc
 50
0.00199865
 51
3.4148018099
  0
ARC
  5
4F8
100
AcDbEntity
  8
DEF_LAYER_ASSEM_MEMBER
100
AcDbCircle
 62
7
  6
CONTINUOUS
 10
66.5633581692
 20
66.8257706772
 40
6.2331272464
100
AcDbArc
 50
46.2716831286
 51
49.658308323
  0
ARC
  5
4F9
100
AcDbEntity
  8
DEF_LAYER_ASSEM_MEMBER
100
AcDbCircle
 62
7
  6
CONTINUOUS
 10
66.8346873133
 20
67.1466820764
 40
5.8128860116
100
AcDbArc
 50
49.6491035622
 51
55.5617544582
  0
ARC
  5
4FA
100
AcDbEntity
  8
DEF_LAYER_ASSEM_MEMBER
100
AcDbCircle
 62
7
  6
CONTINUOUS
 10
66.9085907574
 20
38.7521259281
 40
2.75
100
AcDbArc
 50
270.0
 51
360.0
  0
ARC
  5
4FB
100
AcDbEntity
  8
DEF_LAYER_ASSEM_MEMBER
100
AcDbCircle
 62
7
  6
CONTINUOUS
 10
70.4085907574
 20
69.6080802488
 40
1.5
100
AcDbArc
 50
0.0
 51
38.1537794002
  0
ARC
  5
4FC
100
AcDbEntity
  8
DEF_LAYER_ASSEM_MEMBER
100
AcDbCircle
 62
7
  6
CONTINUOUS
 10
69.9085907574
 20
73.7863294115
 40
1.5
100
AcDbArc
 50
180.0
 51
244.3825649715
  0
ARC
  5
4FD
100
AcDbEntity
  8
DEF_LAYER_ASSEM_MEMBER
100
AcDbCircle
 62
7
  6
CONTINUOUS
 10
62.9185907574
 20
35.5021259281
 40
0.5
100
AcDbArc
 50
90.0
 51
180.0
  0
ARC
  5
4FE
100
AcDbEntity
  8
DEF_LAYER_ASSEM_MEMBER
100
AcDbCircle
 62
7
  6
CONTINUOUS
 10
75.385163718
 20
152.4388210971
 40
37.9765729607
100
AcDbArc
 50
179.9999471136
 51
187.1569351649
  0
ARC
  5
4FF
100
AcDbEntity
  8
DEF_LAYER_ASSEM_MEMBER
100
AcDbCircle
 62
7
  6
CONTINUOUS
 10
66.4083133706
 20
169.5597052797
 40
2.0
100
AcDbArc
 50
0.0
 51
88.4050835549
  0
ARC
  5
500
100
AcDbEntity
  8
DEF_LAYER_ASSEM_MEMBER
100
AcDbCircle
 62
7
  6
CONTINUOUS
 10
66.4085907572
 20
169.5596975948
 40
2.0
100
AcDbArc
 50
0.0000000002
 51
88.4130331438
  0
ARC
  5
501
100
AcDbEntity
  8
DEF_LAYER_ASSEM_MEMBER
100
AcDbCircle
 62
7
  6
CONTINUOUS
 10
67.9085907574
 20
168.3021259281
 40
0.5
100
AcDbArc
 50
359.9939840406
 51
90.0
  0
ARC
  5
502
100
AcDbEntity
  8
DEF_LAYER_ASSEM_MEMBER
100
AcDbCircle
 62
7
  6
CONTINUOUS
 10
64.4373818054
 20
177.5021259281
 40
0.2
100
AcDbArc
 50
270.0
 51
0.5
  0
ARC
  5
503
100
AcDbEntity
  8
DEF_LAYER_ASSEM_MEMBER
100
AcDbCircle
 62
7
  6
CONTINUOUS
 10
68.2080359841
 20
169.0021259281
 40
0.2
100
AcDbArc
 50
270.0794654998
 51
360.0
  0
ARC
  5
504
100
AcDbEntity
  8
DEF_LAYER_ASSEM_MEMBER
100
AcDbCircle
 62
7
  6
CONTINUOUS
 10
64.4577142627
 20
177.2021259281
 40
0.1
100
AcDbArc
 50
359.5
 51
90.0
  0
SPLINE
  5
505
100
AcDbEntity
  8
DEF_LAYER_ASSEM_MEMBER
100
AcDbSpline
 62
7
  6
CONTINUOUS
 70
0
 71
3
 72
8
 73
4
 74
0
 42
0.0000001
 43
0.0000001
 44
0.0000000001
 40
0.0
 40
0.0
 40
0.0
 40
0.0
 40
1.0
 40
1.0
 40
1.0
 40
1.0
 10
149.6231889439
 20
180.834778199
 30
0.0
 10
149.6220083027
 20
180.9218480799
 30
0.0
 10
149.6160170536
 20
181.0090441613
 30
0.0
 10
149.6042673467
 20
181.0953256916
 30
0.0
  0
SPLINE
  5
506
100
AcDbEntity
  8
DEF_LAYER_ASSEM_MEMBER
100
AcDbSpline
 62
7
  6
CONTINUOUS
 70
0
 71
3
 72
8
 73
4
 74
0
 42
0.0000001
 43
0.0000001
 44
0.0000000001
 40
0.0
 40
0.0
 40
0.0
 40
0.0
 40
1.0
 40
1.0
 40
1.0
 40
1.0
 10
118.2236296758
 20
180.8347773599
 30
0.0
 10
118.2248102901
 20
180.9218475242
 30
0.0
 10
118.2308015403
 20
181.0090438921
 30
0.0
 10
118.2425512859
 20
181.0953257028
 30
0.0
  0
SPLINE
  5
507
100
AcDbEntity
  8
DEF_LAYER_ASSEM_MEMBER
100
AcDbSpline
 62
7
  6
CONTINUOUS
 70
0
 71
3
 72
22
 73
18
 74
0
 42
0.0000001
 43
0.0000001
 44
0.0000000001
 40
0.0
 40
0.0
 40
0.0
 40
0.0
 40
0.1250471927
 40
0.250074799
 40
0.3751343156
 40
0.4376221457
 40
0.5001289692
 40
0.562744113
 40
0.6251025527
 40
0.687618632
 40
0.7503195647
 40
0.8124764452
 40
0.8436025074
 40
0.8749366254
 40
0.9063516923
 40
0.9376406487
 40
1.0
 40
1.0
 40
1.0
 40
1.0
 10
123.2234104115
 20
183.4464879203
 30
0.0
 10
122.9671959451
 20
183.4196779681
 30
0.0
 10
122.4553936163
 20
183.3601652045
 30
0.0
 10
121.6905289418
 20
183.2485744255
 30
0.0
 10
121.0576599855
 20
183.1278447626
 30
0.0
 10
120.5565153514
 20
183.0081748503
 30
0.0
 10
120.1843949219
 20
182.9031473001
 30
0.0
 10
119.8188797977
 20
182.7776998111
 30
0.0
 10
119.4619121479
 20
182.6291670798
 30
0.0
 10
119.1208054375
 20
182.4456730351
 30
0.0
 10
118.8076528191
 20
182.2174681551
 30
0.0
 10
118.5848752652
 20
181.9821084309
 30
0.0
 10
118.4445337098
 20
181.766366172
 30
0.0
 10
118.3602160641
 20
181.5917848986
 30
0.0
 10
118.2963018366
 20
181.4084614178
 30
0.0
 10
118.2390305739
 20
181.1567933538
 30
0.0
 10
118.2249080137
 20
180.9632064163
 30
0.0
 10
118.2235769061
 20
180.8347450148
 30
0.0
  0
SPLINE
  5
508
100
AcDbEntity
  8
DEF_LAYER_ASSEM_MEMBER
100
AcDbSpline
 62
7
  6
CONTINUOUS
 70
0
 71
3
 72
22
 73
18
 74
0
 42
0.0000001
 43
0.0000001
 44
0.0000000001
 40
0.0
 40
0.0
 40
0.0
 40
0.0
 40
0.1250471926
 40
0.2500747989
 40
0.3751343154
 40
0.4376221456
 40
0.5001289689
 40
0.5627441128
 40
0.625102553
 40
0.6876186312
 40
0.7503195647
 40
0.8124764464
 40
0.8436025076
 40
0.8749366246
 40
0.9063516917
 40
0.9376406491
 40
1.0
 40
1.0
 40
1.0
 40
1.0
 10
144.6234082189
 20
183.4464879204
 30
0.0
 10
144.8796226325
 20
183.4196779737
 30
0.0
 10
145.3914248558
 20
183.3601652235
 30
0.0
 10
146.1562893738
 20
183.2485744753
 30
0.0
 10
146.7891582027
 20
183.1278448539
 30
0.0
 10
147.2903027384
 20
183.0081749885
 30
0.0
 10
147.6624230989
 20
182.9031474882
 30
0.0
 10
148.0279381612
 20
182.7777000624
 30
0.0
 10
148.3849057578
 20
182.6291674152
 30
0.0
 10
148.7260124438
 20
182.4456734964
 30
0.0
 10
149.0391650816
 20
182.2174687794
 30
0.0
 10
149.261942714
 20
181.9821092258
 30
0.0
 10
149.4022843919
 20
181.7663671124
 30
0.0
 10
149.4866021375
 20
181.5917859353
 30
0.0
 10
149.5505164724
 20
181.4084625338
 30
0.0
 10
149.6077878923
 20
181.1567945582
 30
0.0
 10
149.6219105511
 20
180.9632076636
 30
0.0
 10
149.6232417118
 20
180.83474629
 30
0.0
  0
SPLINE
  5
509
100
AcDbEntity
  8
DEF_LAYER_ASSEM_MEMBER
100
AcDbSpline
 62
9
  6
CONTINUOUS
 70
0
 71
3
 72
24
 73
20
 74
0
 42
0.0000001
 43
0.0000001
 44
0.0000000001
 40
0.0
 40
0.0
 40
0.0
 40
0.0
 40
0.0311462372
 40
0.0625086673
 40
0.0940648747
 40
0.1256454493
 40
0.1571515704
 40
0.1887132558
 40
0.2523984167
 40
0.3167325899
 40
0.3808553269
 40
0.4128580889
 40
0.444834493
 40
0.5084278939
 40
0.5713345327
 40
0.6337257678
 40
0.757224831
 40
0.8791882867
 40
1.0
 40
1.0
 40
1.0
 40
1.0
 10
149.6041890869
 20
181.0958997411
 30
0.0
 10
149.5959319217
 20
181.1564006788
 30
0.0
 10
149.573670874
 20
181.2771506667
 30
0.0
 10
149.5213056482
 20
181.4543304629
 30
0.0
 10
149.449878869
 20
181.6256626044
 30
0.0
 10
149.3599990457
 20
181.7884484046
 30
0.0
 10
149.2515787642
 20
181.9395612287
 30
0.0
 10
149.0850361338
 20
182.1245514904
 30
0.0
 10
148.8427927551
 20
182.3252414542
 30
0.0
 10
148.519707835
 20
182.5207623823
 30
0.0
 10
148.2336087313
 20
182.6527520568
 30
0.0
 10
147.9997988955
 20
182.7444917372
 30
0.0
 10
147.764369454
 20
182.8289981261
 30
0.0
 10
147.4679337576
 20
182.9224871464
 30
0.0
 10
147.10999618
 20
183.017805964
 30
0.0
 10
146.6346579701
 20
183.1274734644
 30
0.0
 10
146.0415016663
 20
183.2402368506
 30
0.0
 10
145.3312633079
 20
183.3467751812
 30
0.0
 10
144.8588045098
 20
183.4047998772
 30
0.0
 10
144.6234198505
 20
183.4311040922
 30
0.0
  0
SPLINE
  5
50A
100
AcDbEntity
  8
DEF_LAYER_ASSEM_MEMBER
100
AcDbSpline
 62
9
  6
CONTINUOUS
 70
0
 71
3
 72
21
 73
17
 74
0
 42
0.0000001
 43
0.0000001
 44
0.0000000001
 40
0.0
 40
0.0
 40
0.0
 40
0.0
 40
0.0011982721
 40
0.0032814684
 40
0.011153211
 40
0.02502487
 40
0.0460662575
 40
0.075588758
 40
0.1152508682
 40
0.1673471893
 40
0.2331795343
 40
0.3118110052
 40
0.4001892606
 40
0.5930899956
 40
0.7951735737
 40
1.0
 40
1.0
 40
1.0
 40
1.0
 10
144.6234139247
 20
183.4109328962
 30
0.0
 10
144.6232152731
 20
183.4085402565
 30
0.0
 10
144.6185733066
 20
183.4028921268
 30
0.0
 10
144.5986845713
 20
183.3930821221
 30
0.0
 10
144.5518208339
 20
183.3812581134
 30
0.0
 10
144.4674244186
 20
183.3677158738
 30
0.0
 10
144.3388890261
 20
183.3537969541
 30
0.0
 10
144.158664068
 20
183.3402401078
 30
0.0
 10
143.9159181754
 20
183.328069763
 30
0.0
 10
143.6002598803
 20
183.3198113963
 30
0.0
 10
143.2064157372
 20
183.3171831442
 30
0.0
 10
142.7398954145
 20
183.3208817709
 30
0.0
 10
142.0188776378
 20
183.3334030973
 30
0.0
 10
141.0506829224
 20
183.356684705
 30
0.0
 10
139.8492373427
 20
183.385312139
 30
0.0
 10
139.0341362131
 20
183.4029468828
 30
0.0
 10
138.623821083
 20
183.4109234883
 30
0.0
  0
SPLINE
  5
50B
100
AcDbEntity
  8
DEF_LAYER_ASSEM_MEMBER
100
AcDbSpline
 62
9
  6
CONTINUOUS
 70
0
 71
3
 72
9
 73
5
 74
0
 42
0.0000001
 43
0.0000001
 44
0.0000000001
 40
0.0
 40
0.0
 40
0.0
 40
0.0
 40
0.500013117
 40
1.0
 40
1.0
 40
1.0
 40
1.0
 10
138.6238204553
 20
183.4108935325
 30
0.0
 10
137.8405217896
 20
183.4262724966
 30
0.0
 10
136.2736421924
 20
183.4372972802
 30
0.0
 10
134.7068178929
 20
183.4465300732
 30
0.0
 10
133.9234093748
 20
183.4465496738
 30
0.0
  0
SPLINE
  5
50C
100
AcDbEntity
  8
DEF_LAYER_ASSEM_MEMBER
100
AcDbSpline
 62
9
  6
CONTINUOUS
 70
0
 71
3
 72
9
 73
5
 74
0
 42
0.0000001
 43
0.0000001
 44
0.0000000001
 40
0.0
 40
0.0
 40
0.0
 40
0.0
 40
0.4999869324
 40
1.0
 40
1.0
 40
1.0
 40
1.0
 10
133.9234092745
 20
183.4464776632
 30
0.0
 10
133.1400690937
 20
183.4464972665
 30
0.0
 10
131.5733812018
 20
183.4373061884
 30
0.0
 10
130.0066384095
 20
183.426318551
 30
0.0
 10
129.2234075777
 20
183.4109740034
 30
0.0
  0
SPLINE
  5
50D
100
AcDbEntity
  8
DEF_LAYER_ASSEM_MEMBER
100
AcDbSpline
 62
9
  6
CONTINUOUS
 70
0
 71
3
 72
24
 73
20
 74
0
 42
0.0000001
 43
0.0000001
 44
0.0000000001
 40
0.0
 40
0.0
 40
0.0
 40
0.0
 40
0.0311462519
 40
0.0625087003
 40
0.0940649247
 40
0.1256455114
 40
0.1571516444
 40
0.1887133536
 40
0.2523985805
 40
0.3167327912
 40
0.3808555371
 40
0.4128583115
 40
0.4448347208
 40
0.5084280938
 40
0.5713346952
 40
0.6337259098
 40
0.7572249153
 40
0.8791883218
 40
1.0
 40
1.0
 40
1.0
 40
1.0
 10
118.2426294804
 20
181.0958992741
 30
0.0
 10
118.2508867332
 20
181.1564009623
 30
0.0
 10
118.2731480981
 20
181.2771524496
 30
0.0
 10
118.3255142823
 20
181.4543343667
 30
0.0
 10
118.3969424723
 20
181.6256684238
 30
0.0
 10
118.4868241559
 20
181.7884558313
 30
0.0
 10
118.5952467382
 20
181.9395698542
 30
0.0
 10
118.7617927426
 20
182.1245613363
 30
0.0
 10
119.0040406631
 20
182.3252520872
 30
0.0
 10
119.3271309886
 20
182.5207731761
 30
0.0
 10
119.613234454
 20
182.6527625928
 30
0.0
 10
119.8470475875
 20
182.7445021857
 30
0.0
 10
120.0824801851
 20
182.8290085319
 30
0.0
 10
120.3789197183
 20
182.9224972923
 30
0.0
 10
120.7368617898
 20
183.0178156952
 30
0.0
 10
121.2122057919
 20
183.1274828944
 30
0.0
 10
121.8053692566
 20
183.2402457308
 30
0.0
 10
122.515616061
 20
183.3467834608
 30
0.0
 10
122.988080443
 20
183.404807794
 30
0.0
 10
123.2234678905
 20
183.4311118152
 30
0.0
  0
SPLINE
  5
50E
100
AcDbEntity
  8
DEF_LAYER_ASSEM_MEMBER
100
AcDbSpline
 62
9
  6
CONTINUOUS
 70
0
 71
3
 72
22
 73
18
 74
0
 42
0.0000001
 43
0.0000001
 44
0.0000000001
 40
0.0
 40
0.0
 40
0.0
 40
0.0
 40
0.0012061239
 40
0.0033003691
 40
0.011189528
 40
0.025065104
 40
0.0460729225
 40
0.0755859274
 40
0.1153352247
 40
0.1673897259
 40
0.2331722997
 40
0.3118468471
 40
0.4002456395
 40
0.4948554531
 40
0.5931226918
 40
0.7951772132
 40
1.0
 40
1.0
 40
1.0
 40
1.0
 10
123.223403943
 20
183.4109351914
 30
0.0
 10
123.2236527991
 20
183.4085313021
 30
0.0
 10
123.2283776162
 20
183.4029261246
 30
0.0
 10
123.2483378045
 20
183.3931093334
 30
0.0
 10
123.2952830633
 20
183.3813122293
 30
0.0
 10
123.3796538252
 20
183.3677673523
 30
0.0
 10
123.5081123817
 20
183.3537874
 30
0.0
 10
123.6884354942
 20
183.3402136168
 30
0.0
 10
123.931275071
 20
183.3282142973
 30
0.0
 10
124.2469363644
 20
183.3198293811
 30
0.0
 10
124.6407063241
 20
183.3171610395
 30
0.0
 10
125.1072787471
 20
183.3209526114
 30
0.0
 10
125.6315442577
 20
183.3300298429
 30
0.0
 10
126.195006852
 20
183.3424250196
 30
0.0
 10
126.986117462
 20
183.361176347
 30
0.0
 10
127.9980003074
 20
183.3852293887
 30
0.0
 10
128.8130791005
 20
183.40290494
 30
0.0
 10
129.2234083725
 20
183.4109305053
 30
0.0
  0
SPLINE
  5
50F
100
AcDbEntity
  8
DEF_LAYER_ASSEM_MEMBER
100
AcDbSpline
 62
9
  6
CONTINUOUS
 70
0
 71
3
 72
11
 73
7
 74
0
 42
0.0000001
 43
0.0000001
 44
0.0000000001
 40
0.0
 40
0.0
 40
0.0
 40
0.0
 40
0.2663611513
 40
0.5233961669
 40
0.7667533872
 40
1.0
 40
1.0
 40
1.0
 40
1.0
 10
115.6677447461
 20
35.5021259281
 30
0.0
 10
115.6677447461
 20
35.5668534537
 30
0.0
 10
115.6461934179
 20
35.6951666734
 30
0.0
 10
115.5522289648
 20
35.8607224277
 30
0.0
 10
115.4087085912
 20
35.9746042408
 30
0.0
 10
115.2914125174
 20
36.0021259281
 30
0.0
 10
115.2347320442
 20
36.0021259281
 30
0.0
  0
SPLINE
  5
510
100
AcDbEntity
  8
DEF_LAYER_ASSEM_MEMBER
100
AcDbSpline
 62
9
  6
CONTINUOUS
 70
0
 71
3
 72
11
 73
7
 74
0
 42
0.0000001
 43
0.0000001
 44
0.0000000001
 40
0.0
 40
0.0
 40
0.0
 40
0.0
 40
0.2663611513
 40
0.5233961668
 40
0.7667533872
 40
1.0
 40
1.0
 40
1.0
 40
1.0
 10
146.579073885
 20
35.5021259281
 30
0.0
 10
146.579073885
 20
35.5668534537
 30
0.0
 10
146.6006252131
 20
35.6951666734
 30
0.0
 10
146.6945896663
 20
35.8607224277
 30
0.0
 10
146.8381100399
 20
35.9746042408
 30
0.0
 10
146.9554061137
 20
36.0021259281
 30
0.0
 10
147.0120865869
 20
36.0021259281
 30
0.0
  0
SPLINE
  5
511
100
AcDbEntity
  8
DEF_LAYER_ASSEM_MEMBER
100
AcDbSpline
 62
9
  6
CONTINUOUS
 70
0
 71
3
 72
11
 73
7
 74
0
 42
0.0000001
 43
0.0000001
 44
0.0000000001
 40
0.0
 40
0.0
 40
0.0
 40
0.0
 40
0.2663611513
 40
0.5233961669
 40
0.7667533872
 40
1.0
 40
1.0
 40
1.0
 40
1.0
 10
139.0677468828
 20
35.5021259281
 30
0.0
 10
139.0677468828
 20
35.5668534537
 30
0.0
 10
139.089298211
 20
35.6951666734
 30
0.0
 10
139.1832626641
 20
35.8607224277
 30
0.0
 10
139.3267830377
 20
35.9746042408
 30
0.0
 10
139.4440791115
 20
36.0021259281
 30
0.0
 10
139.5007595847
 20
36.0021259281
 30
0.0
  0
SPLINE
  5
512
100
AcDbEntity
  8
DEF_LAYER_ASSEM_MEMBER
100
AcDbSpline
 62
9
  6
CONTINUOUS
 70
0
 71
3
 72
11
 73
7
 74
0
 42
0.0000001
 43
0.0000001
 44
0.0000000001
 40
0.0
 40
0.0
 40
0.0
 40
0.0
 40
0.2533494596
 40
0.5046328174
 40
0.7532052605
 40
1.0
 40
1.0
 40
1.0
 40
1.0
 10
146.579073885
 20
28.8021259281
 30
0.0
 10
146.5790620953
 20
28.6696396109
 30
0.0
 10
146.5246199098
 20
28.402687283
 30
0.0
 10
146.2950009809
 20
28.0702769033
 30
0.0
 10
145.9595123876
 20
27.8522984621
 30
0.0
 10
145.6977694511
 20
27.8022521771
 30
0.0
 10
145.5687109139
 20
27.8021259281
 30
0.0
  0
SPLINE
  5
513
100
AcDbEntity
  8
DEF_LAYER_ASSEM_MEMBER
100
AcDbSpline
 62
9
  6
CONTINUOUS
 70
0
 71
3
 72
13
 73
9
 74
0
 42
0.0000001
 43
0.0000001
 44
0.0000000001
 40
0.0
 40
0.0
 40
0.0
 40
0.0
 40
0.1026428031
 40
0.2091102921
 40
0.3219466069
 40
0.4431305639
 40
0.7099004771
 40
1.0
 40
1.0
 40
1.0
 40
1.0
 10
138.3460590463
 20
27.8021259281
 30
0.0
 10
138.3924712285
 20
27.8021898537
 30
0.0
 10
138.4874463587
 20
27.8151263013
 30
0.0
 10
138.6231241621
 20
27.8718119608
 30
0.0
 10
138.7480532922
 20
27.9640533057
 30
0.0
 10
138.8990997568
 20
28.1346230875
 30
0.0
 10
139.0323676393
 20
28.41773687
 30
0.0
 10
139.0677307719
 20
28.6709509781
 30
0.0
 10
139.0677468828
 20
28.8021259281
 30
0.0
  0
SPLINE
  5
514
100
AcDbEntity
  8
DEF_LAYER_ASSEM_MEMBER
100
AcDbSpline
 62
9
  6
CONTINUOUS
 70
0
 71
3
 72
17
 73
13
 74
0
 42
0.0000001
 43
0.0000001
 44
0.0000000001
 40
0.0
 40
0.0
 40
0.0
 40
0.0
 40
0.1825364491
 40
0.3579734421
 40
0.5195081862
 40
0.6618796253
 40
0.7811258085
 40
0.8753974223
 40
0.913392159
 40
0.9458577096
 40
0.9740429078
 40
1.0
 40
1.0
 40
1.0
 40
1.0
 10
138.6347341809
 20
28.8021259281
 30
0.0
 10
138.6347641819
 20
28.7357992296
 30
0.0
 10
138.6310428817
 20
28.605692728
 30
0.0
 10
138.6145771038
 20
28.4175257965
 30
0.0
 10
138.5880301693
 20
28.2452484295
 30
0.0
 10
138.5527750209
 20
28.0953529954
 30
0.0
 10
138.5105483723
 20
27.9729141886
 30
0.0
 10
138.468131033
 20
27.8911519526
 30
0.0
 10
138.4305369029
 20
27.8443062741
 30
0.0
 10
138.403454674
 20
27.8204559824
 30
0.0
 10
138.3752783149
 20
27.805609792
 30
0.0
 10
138.3554907987
 20
27.8021577686
 30
0.0
 10
138.3460590463
 20
27.8021259281
 30
0.0
  0
SPLINE
  5
515
100
AcDbEntity
  8
DEF_LAYER_ASSEM_MEMBER
100
AcDbSpline
 62
9
  6
CONTINUOUS
 70
0
 71
3
 72
11
 73
7
 74
0
 42
0.0000001
 43
0.0000001
 44
0.0000000001
 40
0.0
 40
0.0
 40
0.0
 40
0.0
 40
0.2663611513
 40
0.5233961668
 40
0.7667533872
 40
1.0
 40
1.0
 40
1.0
 40
1.0
 10
123.1790717482
 20
35.5021259281
 30
0.0
 10
123.1790717482
 20
35.5668534537
 30
0.0
 10
123.1575204201
 20
35.6951666734
 30
0.0
 10
123.0635559669
 20
35.8607224277
 30
0.0
 10
122.9200355933
 20
35.9746042408
 30
0.0
 10
122.8027395196
 20
36.0021259281
 30
0.0
 10
122.7460590463
 20
36.0021259281
 30
0.0
  0
SPLINE
  5
516
100
AcDbEntity
  8
DEF_LAYER_ASSEM_MEMBER
100
AcDbSpline
 62
9
  6
CONTINUOUS
 70
0
 71
3
 72
11
 73
7
 74
0
 42
0.0000001
 43
0.0000001
 44
0.0000000001
 40
0.0
 40
0.0
 40
0.0
 40
0.0
 40
0.2467945334
 40
0.4953690008
 40
0.7466499413
 40
1.0
 40
1.0
 40
1.0
 40
1.0
 10
116.6781077172
 20
27.8021259281
 30
0.0
 10
116.5490492808
 20
27.802252177
 30
0.0
 10
116.2873073467
 20
27.8523013881
 30
0.0
 10
115.9518104216
 20
28.070268559
 30
0.0
 10
115.7222047621
 20
28.4026922243
 30
0.0
 10
115.6677675097
 20
28.6696392918
 30
0.0
 10
115.6677447461
 20
28.8021259281
 30
0.0
  0
SPLINE
  5
517
100
AcDbEntity
  8
DEF_LAYER_ASSEM_MEMBER
100
AcDbSpline
 62
9
  6
CONTINUOUS
 70
0
 71
3
 72
17
 73
13
 74
0
 42
0.0000001
 43
0.0000001
 44
0.0000000001
 40
0.0
 40
0.0
 40
0.0
 40
0.0
 40
0.0259571827
 40
0.0541424464
 40
0.0866077875
 40
0.1246022857
 40
0.2188755488
 40
0.3381232144
 40
0.4804932098
 40
0.6420276982
 40
0.8174636427
 40
1.0
 40
1.0
 40
1.0
 40
1.0
 10
123.9007595847
 20
27.8021259281
 30
0.0
 10
123.8913277916
 20
27.8021577687
 30
0.0
 10
123.8715402078
 20
27.8056097705
 30
0.0
 10
123.8433637591
 20
27.820455824
 30
0.0
 10
123.8162817236
 20
27.8443062419
 30
0.0
 10
123.7786882323
 20
27.891152993
 30
0.0
 10
123.7362659173
 20
27.972913003
 30
0.0
 10
123.6940228476
 20
28.0953476196
 30
0.0
 10
123.6587849285
 20
28.245247859
 30
0.0
 10
123.6322484101
 20
28.4175255166
 30
0.0
 10
123.61580176
 20
28.6056945107
 30
0.0
 10
123.6120877
 20
28.7357992011
 30
0.0
 10
123.6120844501
 20
28.8021259281
 30
0.0
  0
SPLINE
  5
518
100
AcDbEntity
  8
DEF_LAYER_ASSEM_MEMBER
100
AcDbSpline
 62
9
  6
CONTINUOUS
 70
0
 71
3
 72
13
 73
9
 74
0
 42
0.0000001
 43
0.0000001
 44
0.0000000001
 40
0.0
 40
0.0
 40
0.0
 40
0.0
 40
0.290099528
 40
0.5568632651
 40
0.6780513031
 40
0.7908900785
 40
0.8973571601
 40
1.0
 40
1.0
 40
1.0
 40
1.0
 10
123.1790717482
 20
28.8021259281
 30
0.0
 10
123.1791427546
 20
28.6709508411
 30
0.0
 10
123.2144343445
 20
28.4177422828
 30
0.0
 10
123.3477104928
 20
28.1346195954
 30
0.0
 10
123.4987615072
 20
27.9640549593
 30
0.0
 10
123.6236935897
 20
27.8718126766
 30
0.0
 10
123.7593722119
 20
27.8151262325
 30
0.0
 10
123.8543473318
 20
27.8021898538
 30
0.0
 10
123.9007595847
 20
27.8021259281
 30
0.0
  0
SPLINE
  5
519
100
AcDbEntity
  8
DEF_LAYER_ASSEM_MEMBER
100
AcDbSpline
 62
7
  6
CONTINUOUS
 70
0
 71
3
 72
13
 73
9
 74
0
 42
0.0000001
 43
0.0000001
 44
0.0000000001
 40
0.0
 40
0.0
 40
0.0
 40
0.0
 40
0.0196029392
 40
0.0656317422
 40
0.1412298589
 40
0.2476449507
 40
0.5567271551
 40
1.0
 40
1.0
 40
1.0
 40
1.0
 10
117.8864762023
 20
171.7846450842
 30
0.0
 10
117.8864589457
 20
171.7835119506
 30
0.0
 10
117.8907841459
 20
171.7813095072
 30
0.0
 10
117.8978775698
 20
171.7794060305
 30
0.0
 10
117.9112558119
 20
171.776741701
 30
0.0
 10
117.9390905665
 20
171.7727374363
 30
0.0
 10
117.9886856324
 20
171.7674953403
 30
0.0
 10
118.0319562484
 20
171.7639314375
 30
0.0
 10
118.0575075462
 20
171.7619757135
 30
0.0
  0
SPLINE
  5
51A
100
AcDbEntity
  8
DEF_LAYER_ASSEM_MEMBER
100
AcDbSpline
 62
7
  6
CONTINUOUS
 70
0
 71
3
 72
9
 73
5
 74
0
 42
0.0000001
 43
0.0000001
 44
0.0000000001
 40
0.0
 40
0.0
 40
0.0
 40
0.0
 40
0.2084656682
 40
1.0
 40
1.0
 40
1.0
 40
1.0
 10
118.0575075462
 20
171.7619757135
 30
0.0
 10
118.0727958824
 20
171.7608055276
 30
0.0
 10
118.1461550611
 20
171.7554763645
 30
0.0
 10
118.2195792937
 20
171.7510803653
 30
0.0
 10
118.2777086318
 20
171.7478525524
 30
0.0
  0
SPLINE
  5
51B
100
AcDbEntity
  8
DEF_LAYER_ASSEM_MEMBER
100
AcDbSpline
 62
7
  6
CONTINUOUS
 70
0
 71
3
 72
11
 73
7
 74
0
 42
0.0000001
 43
0.0000001
 44
0.0000000001
 40
0.0
 40
0.0
 40
0.0
 40
0.0
 40
0.1275377732
 40
0.3516230316
 40
0.6552088997
 40
1.0
 40
1.0
 40
1.0
 40
1.0
 10
118.2777086318
 20
171.7478525524
 30
0.0
 10
118.6390492394
 20
171.7277879881
 30
0.0
 10
119.6363381876
 20
171.6934921639
 30
0.0
 10
121.495019192
 20
171.6507016793
 30
0.0
 10
123.9705395504
 20
171.6184720645
 30
0.0
 10
125.8103220852
 20
171.6070540964
 30
0.0
 10
126.7886839939
 20
171.6034370442
 30
0.0
  0
SPLINE
  5
51C
100
AcDbEntity
  8
DEF_LAYER_ASSEM_MEMBER
100
AcDbSpline
 62
7
  6
CONTINUOUS
 70
0
 71
3
 72
11
 73
7
 74
0
 42
0.0000001
 43
0.0000001
 44
0.0000000001
 40
0.0
 40
0.0
 40
0.0
 40
0.0
 40
0.3447870906
 40
0.6483792803
 40
0.8725545832
 40
1.0
 40
1.0
 40
1.0
 40
1.0
 10
141.0580888641
 20
171.6034342252
 30
0.0
 10
142.0364004895
 20
171.6070499869
 30
0.0
 10
143.8761166665
 20
171.6184641372
 30
0.0
 10
146.351799538
 20
171.6507323286
 30
0.0
 10
148.2104204789
 20
171.6934335744
 30
0.0
 10
149.2076612301
 20
171.7277856409
 30
0.0
 10
149.56872526
 20
171.7478448359
 30
0.0
  0
SPLINE
  5
51D
100
AcDbEntity
  8
DEF_LAYER_ASSEM_MEMBER
100
AcDbSpline
 62
7
  6
CONTINUOUS
 70
0
 71
3
 72
9
 73
5
 74
0
 42
0.0000001
 43
0.0000001
 44
0.0000000001
 40
0.0
 40
0.0
 40
0.0
 40
0.0
 40
0.2924241204
 40
1.0
 40
1.0
 40
1.0
 40
1.0
 10
149.56872526
 20
171.7478448359
 30
0.0
 10
149.5901976332
 20
171.7490377505
 30
0.0
 10
149.6636182147
 20
171.7532563316
 30
0.0
 10
149.7370121322
 20
171.7579974955
 30
0.0
 10
149.7888972108
 20
171.7619658907
 30
0.0
  0
SPLINE
  5
51E
100
AcDbEntity
  8
DEF_LAYER_ASSEM_MEMBER
100
AcDbSpline
 62
7
  6
CONTINUOUS
 70
0
 71
3
 72
13
 73
9
 74
0
 42
0.0000001
 43
0.0000001
 44
0.0000000001
 40
0.0
 40
0.0
 40
0.0
 40
0.0
 40
0.4429505288
 40
0.7520842324
 40
0.8585922891
 40
0.9342886891
 40
0.9803897028
 40
1.0
 40
1.0
 40
1.0
 40
1.0
 10
149.7888972108
 20
171.7619658907
 30
0.0
 10
149.8144901094
 20
171.7639233463
 30
0.0
 10
149.8578466705
 20
171.767490904
 30
0.0
 10
149.9075506142
 20
171.7727339307
 30
0.0
 10
149.9354640819
 20
171.7767394522
 30
0.0
 10
149.9488942906
 20
171.7794036068
 30
0.0
 10
149.9560088159
 20
171.7813091243
 30
0.0
 10
149.9603598107
 20
171.7835088582
 30
0.0
 10
149.9603424954
 20
171.7846450839
 30
0.0
  0
SPLINE
  5
51F
100
AcDbEntity
  8
DEF_LAYER_ASSEM_MEMBER
100
AcDbSpline
 62
9
  6
CONTINUOUS
 70
0
 71
3
 72
10
 73
6
 74
0
 42
0.0000001
 43
0.0000001
 44
0.0000000001
 40
0.0
 40
0.0
 40
0.0
 40
0.0
 40
0.0759413246
 40
0.2923976889
 40
1.0
 40
1.0
 40
1.0
 40
1.0
 10
250.4228519389
 20
171.8020688113
 30
0.0
 10
249.979987092
 20
171.7900190548
 30
0.0
 10
248.2748119878
 20
171.7438461222
 30
0.0
 10
242.4424484673
 20
171.6124401186
 30
0.0
 10
237.0514406055
 20
171.5589377333
 30
0.0
 10
232.9234093172
 20
171.5589343305
 30
0.0
  0
SPLINE
  5
520
100
AcDbEntity
  8
DEF_LAYER_ASSEM_MEMBER
100
AcDbSpline
 62
9
  6
CONTINUOUS
 70
0
 71
3
 72
28
 73
24
 74
0
 42
0.0000001
 43
0.0000001
 44
0.0000000001
 40
0.0
 40
0.0
 40
0.0
 40
0.0
 40
0.0002568501
 40
0.0010274753
 40
0.0023119656
 40
0.0041101074
 40
0.0064214299
 40
0.009245454
 40
0.0164296906
 40
0.0256589847
 40
0.0369288632
 40
0.0502317639
 40
0.0655591947
 40
0.1022526855
 40
0.1469218126
 40
0.1994611191
 40
0.2597449313
 40
0.3276313437
 40
0.4029578731
 40
0.4855474754
 40
0.5752025613
 40
0.7748467763
 40
1.0
 40
1.0
 40
1.0
 40
1.0
 10
252.4228516231
 20
169.8020685203
 30
0.0
 10
252.4228882805
 20
169.8025480937
 30
0.0
 10
252.419704655
 20
169.8013035809
 30
0.0
 10
252.4165942311
 20
169.8023524499
 30
0.0
 10
252.4086865914
 20
169.8015138227
 30
0.0
 10
252.3988960087
 20
169.8015544588
 30
0.0
 10
252.385797631
 20
169.801119374
 30
0.0
 10
252.3627919863
 20
169.8006012362
 30
0.0
 10
252.3267420551
 20
169.7996744233
 30
0.0
 10
252.274934656
 20
169.7984099041
 30
0.0
 10
252.2116509233
 20
169.7968455939
 30
0.0
 10
252.1369590827
 20
169.7950142587
 30
0.0
 10
252.0146706603
 20
169.7920252121
 30
0.0
 10
251.8336645741
 20
169.7876355506
 30
0.0
 10
251.5829942592
 20
169.7816290454
 30
0.0
 10
251.2881597159
 20
169.774666665
 30
0.0
 10
250.9498577638
 20
169.7668146894
 30
0.0
 10
250.5688924328
 20
169.7581466994
 30
0.0
 10
250.1461636404
 20
169.7487455287
 30
0.0
 10
249.6826756049
 20
169.7386992618
 30
0.0
 10
248.9864382547
 20
169.7240376333
 30
0.0
 10
248.0232775643
 20
169.70475152
 30
0.0
 10
247.2279461746
 20
169.6900349702
 30
0.0
 10
246.8063947965
 20
169.6825744616
 30
0.0
  0
LINE
  5
521
100
AcDbEntity
  8
DEF_LAYER_ASSEM_MEMBER
100
AcDbLine
 62
9
  6
CONTINUOUS
 10
246.8063947965
 20
169.6825744616
 11
246.6623851381
 21
169.6800390353
  0
SPLINE
  5
522
100
AcDbEntity
  8
DEF_LAYER_ASSEM_MEMBER
100
AcDbSpline
 62
9
  6
CONTINUOUS
 70
0
 71
3
 72
9
 73
5
 74
0
 42
0.0000001
 43
0.0000001
 44
0.0000000001
 40
0.0
 40
0.0
 40
0.0
 40
0.0
 40
0.2423455632
 40
1.0
 40
1.0
 40
1.0
 40
1.0
 10
246.6623851381
 20
169.6800390353
 30
0.0
 10
246.5583735861
 20
169.67821736
 30
0.0
 10
246.129185151
 20
169.6707858299
 30
0.0
 10
245.6999906211
 20
169.6637060106
 30
0.0
 10
245.3748063225
 20
169.6585442751
 30
0.0
  0
SPLINE
  5
523
100
AcDbEntity
  8
DEF_LAYER_ASSEM_MEMBER
100
AcDbSpline
 62
9
  6
CONTINUOUS
 70
0
 71
3
 72
9
 73
5
 74
0
 42
0.0000001
 43
0.0000001
 44
0.0000000001
 40
0.0
 40
0.0
 40
0.0
 40
0.0
 40
0.2437176261
 40
1.0
 40
1.0
 40
1.0
 40
1.0
 10
245.3748063225
 20
169.6585442751
 30
0.0
 10
245.2643335146
 20
169.6567907113
 30
0.0
 10
244.8110500206
 20
169.6496914424
 30
0.0
 10
244.3577603788
 20
169.6429844097
 30
0.0
 10
244.0149422942
 20
169.6381368738
 30
0.0
  0
LINE
  5
524
100
AcDbEntity
  8
DEF_LAYER_ASSEM_MEMBER
100
AcDbLine
 62
9
  6
CONTINUOUS
 10
244.0149422942
 20
169.6381368738
 11
243.7167795275
 21
169.6339774951
  0
LINE
  5
525
100
AcDbEntity
  8
DEF_LAYER_ASSEM_MEMBER
100
AcDbLine
 62
9
  6
CONTINUOUS
 10
242.0325881176
 20
169.6126103236
 11
241.7710143897
 21
169.6096162121
  0
SPLINE
  5
526
100
AcDbEntity
  8
DEF_LAYER_ASSEM_MEMBER
100
AcDbSpline
 62
9
  6
CONTINUOUS
 70
0
 71
3
 72
9
 73
5
 74
0
 42
0.0000001
 43
0.0000001
 44
0.0000000001
 40
0.0
 40
0.0
 40
0.0
 40
0.0
 40
0.5456680996
 40
1.0
 40
1.0
 40
1.0
 40
1.0
 10
129.2234093157
 20
169.5596975948
 30
0.0
 10
127.1481427053
 20
169.5596984451
 30
0.0
 10
123.3449717989
 20
169.5732033393
 30
0.0
 10
119.5419812415
 20
169.6200272127
 30
0.0
 10
117.8144499204
 20
169.6557119268
 30
0.0
  0
SPLINE
  5
527
100
AcDbEntity
  8
DEF_LAYER_ASSEM_MEMBER
100
AcDbSpline
 62
9
  6
CONTINUOUS
 70
0
 71
3
 72
22
 73
18
 74
0
 42
0.0000001
 43
0.0000001
 44
0.0000000001
 40
0.0
 40
0.0
 40
0.0
 40
0.0
 40
0.2481981815
 40
0.4602445846
 40
0.635047622
 40
0.7085835265
 40
0.773126411
 40
0.8289514574
 40
0.8763135941
 40
0.9154266378
 40
0.9466288727
 40
0.9703203281
 40
0.9868253657
 40
0.9924950432
 40
0.9965151304
 40
0.9989583927
 40
1.0
 40
1.0
 40
1.0
 40
1.0
 10
117.8144499204
 20
169.6557119268
 30
0.0
 10
117.5335974859
 20
169.6615133492
 30
0.0
 10
117.0128175514
 20
169.6731257041
 30
0.0
 10
116.2943125187
 20
169.691997986
 30
0.0
 10
115.7734920517
 20
169.7081383965
 30
0.0
 10
115.419599674
 20
169.7208925663
 30
0.0
 10
115.2003103085
 20
169.7296187248
 30
0.0
 10
115.0106589897
 20
169.7380066785
 30
0.0
 10
114.8497930938
 20
169.7459750299
 30
0.0
 10
114.7168320213
 20
169.7534868729
 30
0.0
 10
114.6106216633
 20
169.7605302629
 30
0.0
 10
114.5301754714
 20
169.7669800274
 30
0.0
 10
114.4783121229
 20
169.7723281824
 30
0.0
 10
114.4492311495
 20
169.7764433824
 30
0.0
 10
114.4352950324
 20
169.7791753097
 30
0.0
 10
114.4278989054
 20
169.7811530944
 30
0.0
 10
114.423409374
 20
169.7834106404
 30
0.0
 10
114.4234093162
 20
169.7845895384
 30
0.0
  0
SPLINE
  5
528
100
AcDbEntity
  8
DEF_LAYER_ASSEM_MEMBER
100
AcDbSpline
 62
9
  6
CONTINUOUS
 70
0
 71
3
 72
10
 73
6
 74
0
 42
0.0000001
 43
0.0000001
 44
0.0000000001
 40
0.0
 40
0.0
 40
0.0
 40
0.0
 40
0.5678015626
 40
0.8129654682
 40
1.0
 40
1.0
 40
1.0
 40
1.0
 10
129.2234093189
 20
171.5589304759
 30
0.0
 10
127.1545705889
 20
171.5589308075
 30
0.0
 10
124.1923796821
 20
171.5704601415
 30
0.0
 10
120.549164066
 20
171.6248625249
 30
0.0
 10
118.9748165157
 20
171.6625049076
 30
0.0
 10
118.2936787318
 20
171.6840364555
 30
0.0
  0
SPLINE
  5
529
100
AcDbEntity
  8
DEF_LAYER_ASSEM_MEMBER
100
AcDbSpline
 62
9
  6
CONTINUOUS
 70
0
 71
3
 72
18
 73
14
 74
0
 42
0.0000001
 43
0.0000001
 44
0.0000000001
 40
0.0
 40
0.0
 40
0.0
 40
0.0
 40
0.2516147701
 40
0.4632909451
 40
0.6364217517
 40
0.7730310383
 40
0.8752961919
 40
0.9142472973
 40
0.9454794741
 40
0.9693044643
 40
0.9860448009
 40
0.9960613452
 40
1.0
 40
1.0
 40
1.0
 40
1.0
 10
117.8549407585
 20
171.6987873132
 30
0.0
 10
117.7346023067
 20
171.7031005045
 30
0.0
 10
117.5130406672
 20
171.7114824626
 30
0.0
 10
117.2087503567
 20
171.7245430503
 30
0.0
 10
116.9595017937
 20
171.7367929545
 30
0.0
 10
116.7626818999
 20
171.7481118475
 30
0.0
 10
116.6299645092
 20
171.7572779221
 30
0.0
 10
116.5478302032
 20
171.764274593
 30
0.0
 10
116.5028616054
 20
171.7687595202
 30
0.0
 10
116.4692475591
 20
171.7728485894
 30
0.0
 10
116.4442184795
 20
171.7767257972
 30
0.0
 10
116.4318462538
 20
171.7798097888
 30
0.0
 10
116.4234094701
 20
171.7826492866
 30
0.0
 10
116.4234093157
 20
171.7845342156
 30
0.0
  0
SPLINE
  5
52A
100
AcDbEntity
  8
DEF_LAYER_ASSEM_MEMBER
100
AcDbSpline
 62
9
  6
CONTINUOUS
 70
0
 71
3
 72
11
 73
7
 74
0
 42
0.0000001
 43
0.0000001
 44
0.0000000001
 40
0.0
 40
0.0
 40
0.0
 40
0.0
 40
0.2500279797
 40
0.499995483
 40
0.7499656304
 40
1.0
 40
1.0
 40
1.0
 40
1.0
 10
114.4234093157
 20
169.7845895384
 30
0.0
 10
114.4234093157
 20
170.0447334052
 30
0.0
 10
114.5274381292
 20
170.5706916505
 30
0.0
 10
114.9727184549
 20
171.2352464967
 30
0.0
 10
115.6372914781
 20
171.6805102888
 30
0.0
 10
116.1632588006
 20
171.7845342155
 30
0.0
 10
116.4234093157
 20
171.7845342155
 30
0.0
  0
SPLINE
  5
52B
100
AcDbEntity
  8
DEF_LAYER_ASSEM_MEMBER
100
AcDbSpline
 62
7
  6
CONTINUOUS
 70
0
 71
3
 72
8
 73
4
 74
0
 42
0.0000001
 43
0.0000001
 44
0.0000000001
 40
0.0
 40
0.0
 40
0.0
 40
0.0
 40
1.0
 40
1.0
 40
1.0
 40
1.0
 10
160.6029425783
 20
70.5347416121
 30
0.0
 10
159.7913729397
 20
71.5677763556
 30
0.0
 10
159.0266776523
 20
72.073290265
 30
0.0
 10
158.2748690827
 20
72.4337779092
 30
0.0
  0
SPLINE
  5
52C
100
AcDbEntity
  8
DEF_LAYER_ASSEM_MEMBER
100
AcDbSpline
 62
7
  6
CONTINUOUS
 70
0
 71
3
 72
15
 73
11
 74
0
 42
0.0000001
 43
0.0000001
 44
0.0000000001
 40
0.0
 40
0.0
 40
0.0
 40
0.0
 40
0.058112969
 40
0.1210199237
 40
0.2468338331
 40
0.6242755614
 40
0.708151501
 40
0.8129964255
 40
0.9073568575
 40
1.0
 40
1.0
 40
1.0
 40
1.0
 10
111.2438760528
 20
70.5347416121
 30
0.0
 10
111.2910387741
 20
70.5947743281
 30
0.0
 10
111.3889252106
 20
70.7160821512
 30
0.0
 10
111.5872344568
 20
70.9484091721
 30
0.0
 10
112.0375273479
 20
71.4298795184
 30
0.0
 10
112.4931262947
 20
71.8012084586
 30
0.0
 10
112.9257528124
 20
72.0838626124
 30
0.0
 10
113.1408477007
 20
72.2114782278
 30
0.0
 10
113.3614854928
 20
72.3304562011
 30
0.0
 10
113.5022996399
 20
72.400381201
 30
0.0
 10
113.5719495483
 20
72.4337779092
 30
0.0
  0
SPLINE
  5
52D
100
AcDbEntity
  8
DEF_LAYER_ASSEM_MEMBER
100
AcDbSpline
 62
7
  6
CONTINUOUS
 70
0
 71
3
 72
9
 73
5
 74
0
 42
0.0000001
 43
0.0000001
 44
0.0000000001
 40
0.0
 40
0.0
 40
0.0
 40
0.0
 40
0.2207999784
 40
1.0
 40
1.0
 40
1.0
 40
1.0
 10
221.5963126768
 20
152.3233224699
 30
0.0
 10
221.6601993291
 20
152.3325532347
 30
0.0
 10
221.9490353279
 20
152.3778567265
 30
0.0
 10
222.2359229161
 20
152.4349687669
 30
0.0
 10
222.4585273332
 20
152.4833259904
 30
0.0
  0
SPLINE
  5
52E
100
AcDbEntity
  8
DEF_LAYER_ASSEM_MEMBER
100
AcDbSpline
 62
7
  6
CONTINUOUS
 70
0
 71
3
 72
9
 73
5
 74
0
 42
0.0000001
 43
0.0000001
 44
0.0000000001
 40
0.0
 40
0.0
 40
0.0
 40
0.0
 40
0.2403338288
 40
1.0
 40
1.0
 40
1.0
 40
1.0
 10
223.557949809
 20
152.7513577541
 30
0.0
 10
223.620606853
 20
152.7680337776
 30
0.0
 10
223.8811017925
 20
152.8382232575
 30
0.0
 10
224.1408536745
 20
152.9111449608
 30
0.0
 10
224.3379356273
 20
152.9673719584
 30
0.0
  0
SPLINE
  5
52F
100
AcDbEntity
  8
DEF_LAYER_ASSEM_MEMBER
100
AcDbSpline
 62
7
  6
CONTINUOUS
 70
0
 71
3
 72
9
 73
5
 74
0
 42
0.0000001
 43
0.0000001
 44
0.0000000001
 40
0.0
 40
0.0
 40
0.0
 40
0.0
 40
0.2396606381
 40
1.0
 40
1.0
 40
1.0
 40
1.0
 10
224.8995662328
 20
153.1296363812
 30
0.0
 10
225.0146251729
 20
153.1632021984
 30
0.0
 10
225.4945562756
 20
153.3038016689
 30
0.0
 10
225.974486309
 20
153.4444367062
 30
0.0
 10
226.3401768093
 20
153.5486432997
 30
0.0
  0
SPLINE
  5
530
100
AcDbEntity
  8
DEF_LAYER_ASSEM_MEMBER
100
AcDbSpline
 62
7
  6
CONTINUOUS
 70
0
 71
3
 72
9
 73
5
 74
0
 42
0.0000001
 43
0.0000001
 44
0.0000000001
 40
0.0
 40
0.0
 40
0.0
 40
0.0
 40
0.2175125406
 40
1.0
 40
1.0
 40
1.0
 40
1.0
 10
243.8210201265
 20
156.5735576065
 30
0.0
 10
243.7485742499
 20
156.5549103492
 30
0.0
 10
243.4150308167
 20
156.4710444146
 30
0.0
 10
243.0796149219
 20
156.3946710199
 30
0.0
 10
242.8164168926
 20
156.3385522958
 30
0.0
  0
SPLINE
  5
531
100
AcDbEntity
  8
DEF_LAYER_ASSEM_MEMBER
100
AcDbSpline
 62
7
  6
CONTINUOUS
 70
0
 71
3
 72
9
 73
5
 74
0
 42
0.0000001
 43
0.0000001
 44
0.0000000001
 40
0.0
 40
0.0
 40
0.0
 40
0.0
 40
0.4765322547
 40
1.0
 40
1.0
 40
1.0
 40
1.0
 10
239.5108157535
 20
155.7666070443
 30
0.0
 10
238.4666603712
 20
155.6124190776
 30
0.0
 10
236.271583179
 20
155.3155458927
 30
0.0
 10
234.0725110253
 20
155.0504009774
 30
0.0
 10
232.9202680029
 20
154.9214484997
 30
0.0
  0
LINE
  5
532
100
AcDbEntity
  8
DEF_LAYER_ASSEM_MEMBER
100
AcDbLine
 62
7
  6
CONTINUOUS
 10
244.731489472
 20
156.809057663
 11
244.6288069337
 21
156.7831889284
  0
LINE
  5
533
100
AcDbEntity
  8
DEF_LAYER_ASSEM_MEMBER
100
AcDbLine
 62
7
  6
CONTINUOUS
 10
244.6288069337
 20
156.7831889284
 11
244.3227657296
 21
156.7048582946
  0
SPLINE
  5
534
100
AcDbEntity
  8
DEF_LAYER_ASSEM_MEMBER
100
AcDbSpline
 62
7
  6
CONTINUOUS
 70
0
 71
3
 72
8
 73
4
 74
0
 42
0.0000001
 43
0.0000001
 44
0.0000000001
 40
0.0
 40
0.0
 40
0.0
 40
0.0
 40
1.0
 40
1.0
 40
1.0
 40
1.0
 10
183.9234093155
 20
146.8800982953
 30
0.0
 10
165.7107549407
 20
144.248616471
 30
0.0
 10
157.4234093155
 20
132.9170685315
 30
0.0
 10
157.4234093155
 20
120.4386393639
 30
0.0
  0
SPLINE
  5
535
100
AcDbEntity
  8
DEF_LAYER_ASSEM_MEMBER
100
AcDbSpline
 62
7
  6
CONTINUOUS
 70
0
 71
3
 72
15
 73
11
 74
0
 42
0.0000001
 43
0.0000001
 44
0.0000000001
 40
0.0
 40
0.0
 40
0.0
 40
0.0
 40
0.1457783504
 40
0.2778983047
 40
0.4003119241
 40
0.5171701996
 40
0.6324782744
 40
0.7497175732
 40
0.8715966991
 40
1.0
 40
1.0
 40
1.0
 40
1.0
 10
252.4234093155
 20
168.302125643
 30
0.0
 10
252.4234093048
 20
167.583222037
 30
0.0
 10
252.3460971259
 20
166.2104538204
 30
0.0
 10
251.956813227
 20
164.2675885966
 30
0.0
 10
251.3099032468
 20
162.5447798209
 30
0.0
 10
250.4171387503
 20
161.0308932956
 30
0.0
 10
249.2941303578
 20
159.7134104199
 30
0.0
 10
247.9581323841
 20
158.5763227154
 30
0.0
 10
246.4251924505
 20
157.600660777
 30
0.0
 10
245.3128024231
 20
157.0601380008
 30
0.0
 10
244.731489472
 20
156.809057663
 30
0.0
  0
LINE
  5
536
100
AcDbEntity
  8
DEF_LAYER_ASSEM_MEMBER
100
AcDbLine
 62
9
  6
CONTINUOUS
 10
113.5719517285
 20
72.4337789546
 11
116.4386401009
 21
72.4399103942
  0
LINE
  5
537
100
AcDbEntity
  8
DEF_LAYER_ASSEM_MEMBER
100
AcDbLine
 62
9
  6
CONTINUOUS
 10
116.4386401009
 20
72.4399103942
 11
129.2234093026
 21
72.4337789546
  0
LINE
  5
538
100
AcDbEntity
  8
DEF_LAYER_ASSEM_MEMBER
100
AcDbLine
 62
9
  6
CONTINUOUS
 10
157.4234093156
 20
73.7863223499
 11
155.3785667204
 21
73.7942409256
  0
LINE
  5
539
100
AcDbEntity
  8
DEF_LAYER_ASSEM_MEMBER
100
AcDbLine
 62
9
  6
CONTINUOUS
 10
155.3785667204
 20
73.7942409256
 11
142.6234093328
 21
73.7863223499
  0
LINE
  5
53A
100
AcDbEntity
  8
DEF_LAYER_ASSEM_MEMBER
100
AcDbLine
 62
9
  6
CONTINUOUS
 10
111.2438883621
 20
70.5347572801
 11
116.4239156676
 21
70.5352846588
  0
LINE
  5
53B
100
AcDbEntity
  8
DEF_LAYER_ASSEM_MEMBER
100
AcDbLine
 62
9
  6
CONTINUOUS
 10
116.4239156676
 20
70.5352846588
 11
129.223409513
 21
70.5347572801
  0
SPLINE
  5
53C
100
AcDbEntity
  8
DEF_LAYER_ASSEM_MEMBER
100
AcDbSpline
 62
9
  6
CONTINUOUS
 70
0
 71
3
 72
18
 73
14
 74
0
 42
0.0000001
 43
0.0000001
 44
0.0000000001
 40
0.0
 40
0.0
 40
0.0
 40
0.0
 40
0.0048819143
 40
0.0193181066
 40
0.0431449314
 40
0.0761832702
 40
0.1181917543
 40
0.1686884378
 40
0.2929797193
 40
0.4444484126
 40
0.617395414
 40
0.8053676622
 40
1.0
 40
1.0
 40
1.0
 40
1.0
 10
232.9209391782
 20
168.8021259281
 30
0.0
 10
232.9217535879
 20
168.8021259281
 30
0.0
 10
232.9204424953
 20
168.7969764201
 30
0.0
 10
232.9221146677
 20
168.7916282264
 30
0.0
 10
232.9215482693
 20
168.7786959816
 30
0.0
 10
232.9221484119
 20
168.7626572513
 30
0.0
 10
232.9222547613
 20
168.7415422822
 30
0.0
 10
232.9226507902
 20
168.7054571582
 30
0.0
 10
232.9229715921
 20
168.650981483
 30
0.0
 10
232.9233252405
 20
168.5761485602
 30
0.0
 10
232.9235702283
 20
168.490664688
 30
0.0
 10
232.923720357
 20
168.3979887585
 30
0.0
 10
232.9237546397
 20
168.3341614798
 30
0.0
 10
232.9237564705
 20
168.3016925631
 30
0.0
  0
LINE
  5
53D
100
AcDbEntity
  8
DEF_LAYER_ASSEM_MEMBER
100
AcDbLine
 62
9
  6
CONTINUOUS
 10
129.2234093033
 20
73.7863463369
 11
116.4626281
 21
73.7942580152
  0
LINE
  5
53E
100
AcDbEntity
  8
DEF_LAYER_ASSEM_MEMBER
100
AcDbLine
 62
9
  6
CONTINUOUS
 10
116.4626281
 20
73.7942580152
 11
114.4234093154
 21
73.7863463369
  0
SPLINE
  5
53F
100
AcDbEntity
  8
DEF_LAYER_ASSEM_MEMBER
100
AcDbSpline
 62
9
  6
CONTINUOUS
 70
0
 71
3
 72
11
 73
7
 74
0
 42
0.0000001
 43
0.0000001
 44
0.0000000001
 40
0.0
 40
0.0
 40
0.0
 40
0.0
 40
0.2535456405
 40
0.5050873289
 40
0.7536210833
 40
1.0
 40
1.0
 40
1.0
 40
1.0
 10
251.8484551176
 20
168.3208306634
 30
0.0
 10
251.8461509358
 20
168.3841403785
 30
0.0
 10
251.8178608108
 20
168.5106600663
 30
0.0
 10
251.7097633991
 20
168.67019781
 30
0.0
 10
251.5513133696
 20
168.7770518417
 30
0.0
 10
251.4263070818
 20
168.8021259281
 30
0.0
 10
251.3647461477
 20
168.8021259281
 30
0.0
  0
SPLINE
  5
540
100
AcDbEntity
  8
DEF_LAYER_ASSEM_MEMBER
100
AcDbSpline
 62
9
  6
CONTINUOUS
 70
0
 71
3
 72
29
 73
25
 74
0
 42
0.0000001
 43
0.0000001
 44
0.0000000001
 40
0.0
 40
0.0
 40
0.0
 40
0.0
 40
0.0624860939
 40
0.1249742856
 40
0.1874634247
 40
0.2499528089
 40
0.3124369776
 40
0.3436994049
 40
0.3749698573
 40
0.4062331112
 40
0.4375012368
 40
0.4687664072
 40
0.5000329203
 40
0.5313013385
 40
0.5625659454
 40
0.6250476429
 40
0.6563045395
 40
0.6875595699
 40
0.7188101613
 40
0.7500548671
 40
0.8125433277
 40
0.8750307446
 40
0.9375141626
 40
1.0
 40
1.0
 40
1.0
 40
1.0
 10
180.8671625313
 20
168.3021378242
 30
0.0
 10
179.302254685
 20
168.2962535688
 30
0.0
 10
176.1723461109
 20
168.2605727703
 30
0.0
 10
171.4798327404
 20
168.0920851044
 30
0.0
 10
166.7962493016
 20
167.7360485634
 30
0.0
 10
162.1434505168
 20
167.0789631863
 30
0.0
 10
158.3332004935
 20
166.1336144151
 30
0.0
 10
155.4036759898
 20
165.0171743835
 30
0.0
 10
153.2988663472
 20
163.9637251432
 30
0.0
 10
151.3306694591
 20
162.6698255091
 30
0.0
 10
149.5499657804
 20
161.1265494379
 30
0.0
 10
147.9966369463
 20
159.354712411
 30
0.0
 10
146.6884821504
 20
157.3960334894
 30
0.0
 10
145.6221003758
 20
155.2975679907
 30
0.0
 10
144.4863221424
 20
152.375679324
 30
0.0
 10
143.7202762836
 20
149.3276428127
 30
0.0
 10
143.2153592639
 20
146.2379546399
 30
0.0
 10
142.9414974398
 20
143.9048942696
 30
0.0
 10
142.7584977426
 20
141.5636520227
 30
0.0
 10
142.6243229275
 20
138.4357921578
 30
0.0
 10
142.6168080893
 20
134.5226270895
 30
0.0
 10
142.623279527
 20
129.8280826943
 30
0.0
 10
142.6245540673
 20
125.133301833
 30
0.0
 10
142.6231189053
 20
122.0035518835
 30
0.0
 10
142.6231191719
 20
120.4386393995
 30
0.0
  0
LINE
  5
541
100
AcDbEntity
  8
DEF_LAYER_ASSEM_MEMBER
100
AcDbLine
 62
9
  6
CONTINUOUS
 10
142.6234092
 20
70.534758018
 11
155.4245692713
 21
70.5352847096
  0
LINE
  5
542
100
AcDbEntity
  8
DEF_LAYER_ASSEM_MEMBER
100
AcDbLine
 62
9
  6
CONTINUOUS
 10
155.4245692713
 20
70.5352847096
 11
160.6029296893
 21
70.534758018
  0
SPLINE
  5
543
100
AcDbEntity
  8
DEF_LAYER_ASSEM_MEMBER
100
AcDbSpline
 62
9
  6
CONTINUOUS
 70
0
 71
3
 72
13
 73
9
 74
0
 42
0.0000001
 43
0.0000001
 44
0.0000000001
 40
0.0
 40
0.0
 40
0.0
 40
0.0
 40
0.2566039467
 40
0.384931743
 40
0.5127105305
 40
0.639260398
 40
0.7636099292
 40
1.0
 40
1.0
 40
1.0
 40
1.0
 10
221.4048484268
 20
168.302924578
 30
0.0
 10
221.4234789049
 20
167.4395273814
 30
0.0
 10
221.4802777983
 20
166.1446688359
 30
0.0
 10
221.6190944258
 20
164.4245884107
 30
0.0
 10
221.7574154274
 20
163.1440571575
 30
0.0
 10
221.9225088701
 20
161.8802933795
 30
0.0
 10
222.1580441549
 20
160.2572857136
 30
0.0
 10
222.3525377949
 20
159.0588319004
 30
0.0
 10
222.4830148925
 20
158.2740357015
 30
0.0
  0
SPLINE
  5
544
100
AcDbEntity
  8
DEF_LAYER_ASSEM_MEMBER
100
AcDbSpline
 62
9
  6
CONTINUOUS
 70
0
 71
3
 72
11
 73
7
 74
0
 42
0.0000001
 43
0.0000001
 44
0.0000000001
 40
0.0
 40
0.0
 40
0.0
 40
0.0
 40
0.3162663158
 40
0.5924918297
 40
0.8210382993
 40
1.0
 40
1.0
 40
1.0
 40
1.0
 10
222.4830148925
 20
158.2740357015
 30
0.0
 10
222.5608999538
 20
157.8055711113
 30
0.0
 10
222.7088574457
 20
156.928334531
 30
0.0
 10
222.9072514736
 20
155.7113929819
 30
0.0
 10
223.0491691401
 20
154.6947844504
 30
0.0
 10
223.0995024563
 20
154.0835592237
 30
0.0
 10
223.0997664819
 20
153.8148364682
 30
0.0
  0
SPLINE
  5
545
100
AcDbEntity
  8
DEF_LAYER_ASSEM_MEMBER
100
AcDbSpline
 62
9
  6
CONTINUOUS
 70
0
 71
3
 72
10
 73
6
 74
0
 42
0.0000001
 43
0.0000001
 44
0.0000000001
 40
0.0
 40
0.0
 40
0.0
 40
0.0
 40
0.5097273431
 40
0.7596648773
 40
1.0
 40
1.0
 40
1.0
 40
1.0
 10
232.9237467648
 20
168.3016926003
 30
0.0
 10
232.9387000788
 20
166.9127771526
 30
0.0
 10
232.9177030238
 20
164.8426082048
 30
0.0
 10
232.9251263754
 20
162.1176523315
 30
0.0
 10
232.9238529691
 20
160.7816663626
 30
0.0
 10
232.9235215046
 20
160.1267584562
 30
0.0
  0
LINE
  5
546
100
AcDbEntity
  8
DEF_LAYER_ASSEM_MEMBER
100
AcDbLine
 62
9
  6
CONTINUOUS
 10
232.9235215046
 20
160.1267584562
 11
232.9231762945
 21
159.2035215281
  0
LINE
  5
547
100
AcDbEntity
  8
DEF_LAYER_ASSEM_MEMBER
100
AcDbLine
 62
9
  6
CONTINUOUS
 10
232.9231762945
 20
159.2035215281
 11
232.9235338518
 21
154.9219759066
  0
SPLINE
  5
548
100
AcDbEntity
  8
DEF_LAYER_ASSEM_MEMBER
100
AcDbSpline
 62
9
  6
CONTINUOUS
 70
0
 71
3
 72
9
 73
5
 74
0
 42
0.0000001
 43
0.0000001
 44
0.0000000001
 40
0.0
 40
0.0
 40
0.0
 40
0.0
 40
0.5080113901
 40
1.0
 40
1.0
 40
1.0
 40
1.0
 10
223.0997664819
 20
153.8148364682
 30
0.0
 10
224.7653529463
 20
153.9832721559
 30
0.0
 10
228.0427486833
 20
154.3280042128
 30
0.0
 10
231.3144407937
 20
154.7230217592
 30
0.0
 10
232.9234688286
 20
154.92196816
 30
0.0
  0
SPLINE
  5
549
100
AcDbEntity
  8
DEF_LAYER_ASSEM_MEMBER
100
AcDbSpline
 62
9
  6
CONTINUOUS
 70
0
 71
3
 72
15
 73
11
 74
0
 42
0.0000001
 43
0.0000001
 44
0.0000000001
 40
0.0
 40
0.0
 40
0.0
 40
0.0
 40
0.1532236095
 40
0.2799007408
 40
0.3882274675
 40
0.4888803224
 40
0.5932407165
 40
0.7100430564
 40
0.8446379268
 40
1.0
 40
1.0
 40
1.0
 40
1.0
 10
223.0997664819
 20
153.8148364682
 30
0.0
 10
223.0998879721
 20
153.6911849152
 30
0.0
 10
223.0906936396
 20
153.464920708
 30
0.0
 10
223.0320905051
 20
153.1554939778
 30
0.0
 10
222.9232622433
 20
152.9040904154
 30
0.0
 10
222.7580809792
 20
152.7077136197
 30
0.0
 10
222.5392217187
 20
152.562833669
 30
0.0
 10
222.2708004782
 20
152.4573527286
 30
0.0
 10
221.9514621483
 20
152.3790338807
 30
0.0
 10
221.7204013201
 20
152.3412516095
 30
0.0
 10
221.5963125366
 20
152.3233224436
 30
0.0
  0
LINE
  5
54A
100
AcDbEntity
  8
DEF_LAYER_ASSEM_MEMBER
100
AcDbLine
 62
9
  6
CONTINUOUS
 10
142.6234093285
 20
72.4337789285
 11
155.4140913403
 21
72.439908014
  0
LINE
  5
54B
100
AcDbEntity
  8
DEF_LAYER_ASSEM_MEMBER
100
AcDbLine
 62
9
  6
CONTINUOUS
 10
155.4140913403
 20
72.439908014
 11
158.2748669571
 21
72.4337789284
  0
LINE
  5
54C
100
AcDbEntity
  8
DEF_LAYER_ASSEM_MEMBER
100
AcDbLine
 62
9
  6
CONTINUOUS
 10
183.9234113407
 20
168.3021259281
 11
183.9234094537
 21
149.9973622969
  0
SPLINE
  5
54D
100
AcDbEntity
  8
DEF_LAYER_ASSEM_MEMBER
100
AcDbSpline
 62
9
  6
CONTINUOUS
 70
0
 71
3
 72
23
 73
19
 74
0
 42
0.0000001
 43
0.0000001
 44
0.0000000001
 40
0.0
 40
0.0
 40
0.0
 40
0.0
 40
0.2414168125
 40
0.4513724481
 40
0.6270455173
 40
0.7017561354
 40
0.7676449246
 40
0.8247931803
 40
0.8733981645
 40
0.9136603741
 40
0.9457875285
 40
0.9700885209
 40
0.979428977
 40
0.9869623395
 40
0.992737768
 40
0.9968038985
 40
0.9992088117
 40
1.0
 40
1.0
 40
1.0
 40
1.0
 10
183.9233959976
 20
149.9973616642
 30
0.0
 10
183.9218627125
 20
149.7464979117
 30
0.0
 10
183.921374517
 20
149.2774477453
 30
0.0
 10
183.9241308194
 20
148.6258596626
 30
0.0
 10
183.9252082549
 20
148.1474975253
 30
0.0
 10
183.9244634563
 20
147.8188425754
 30
0.0
 10
183.9229493325
 20
147.6133578206
 30
0.0
 10
183.9207090304
 20
147.4350083618
 30
0.0
 10
183.9185112001
 20
147.2832957693
 30
0.0
 10
183.9169738678
 20
147.1575637302
 30
0.0
 10
183.9168533447
 20
147.0571093529
 30
0.0
 10
183.9181923176
 20
146.9887154175
 30
0.0
 10
183.9195495668
 20
146.9460377762
 30
0.0
 10
183.9208162788
 20
146.9223518949
 30
0.0
 10
183.9212478458
 20
146.9047606092
 30
0.0
 10
183.9233176234
 20
146.8910917121
 30
0.0
 10
183.9217553002
 20
146.8852393742
 30
0.0
 10
183.9242224053
 20
146.8802201364
 30
0.0
 10
183.9234093197
 20
146.8800982959
 30
0.0
  0
SPLINE
  5
54E
100
AcDbEntity
  8
DEF_LAYER_ASSEM_MEMBER
100
AcDbSpline
 62
9
  6
CONTINUOUS
 70
0
 71
3
 72
9
 73
5
 74
0
 42
0.0000001
 43
0.0000001
 44
0.0000000001
 40
0.0
 40
0.0
 40
0.0
 40
0.0
 40
0.2515661588
 40
1.0
 40
1.0
 40
1.0
 40
1.0
 10
190.4934298928
 20
150.5473577299
 30
0.0
 10
193.2306257911
 20
150.7900161678
 30
0.0
 10
204.105844742
 20
151.815891915
 30
0.0
 10
214.9658894883
 20
152.9922822545
 30
0.0
 10
223.0997664819
 20
153.8148364682
 30
0.0
  0
SPLINE
  5
54F
100
AcDbEntity
  8
DEF_LAYER_ASSEM_MEMBER
100
AcDbSpline
 62
9
  6
CONTINUOUS
 70
0
 71
3
 72
15
 73
11
 74
0
 42
0.0000001
 43
0.0000001
 44
0.0000000001
 40
0.0
 40
0.0
 40
0.0
 40
0.0
 40
0.1250280662
 40
0.2500369847
 40
0.3750211635
 40
0.5000056035
 40
0.6249879152
 40
0.7499767127
 40
0.8749830389
 40
1.0
 40
1.0
 40
1.0
 40
1.0
 10
251.848854993
 20
168.3003361654
 30
0.0
 10
251.8448010538
 20
167.6655288855
 30
0.0
 10
251.7834886792
 20
166.394980589
 30
0.0
 10
251.4576484478
 20
164.5124491984
 30
0.0
 10
250.8345303771
 20
162.7033154534
 30
0.0
 10
249.8955922042
 20
161.0343494454
 30
0.0
 10
248.6599581876
 20
159.5715287729
 30
0.0
 10
247.1888736359
 20
158.3497401653
 30
0.0
 10
245.5595807388
 20
157.3547564948
 30
0.0
 10
244.4070727859
 20
156.8170789936
 30
0.0
 10
243.8208892118
 20
156.5735344424
 30
0.0
  0
SPLINE
  5
550
100
AcDbEntity
  8
DEF_LAYER_ASSEM_MEMBER
100
AcDbSpline
 62
9
  6
CONTINUOUS
 70
0
 71
3
 72
16
 73
12
 74
0
 42
0.0000001
 43
0.0000001
 44
0.0000000001
 40
0.0
 40
0.0
 40
0.0
 40
0.0
 40
0.436925354
 40
0.6086673353
 40
0.749314962
 40
0.8588659372
 40
0.937202161
 40
0.964642328
 40
0.9842590749
 40
0.9960471969
 40
1.0
 40
1.0
 40
1.0
 40
1.0
 10
251.8484551176
 20
168.3208306634
 30
0.0
 10
251.9320422844
 20
168.3145543844
 30
0.0
 10
252.0485410314
 20
168.3061856131
 30
0.0
 10
252.1922169592
 20
168.3010485429
 30
0.0
 10
252.2731863829
 20
168.3006752792
 30
0.0
 10
252.3361779468
 20
168.3018826257
 30
0.0
 10
252.3775406941
 20
168.3022605678
 30
0.0
 10
252.4015217743
 20
168.3025508736
 30
0.0
 10
252.4129349331
 20
168.3019596249
 30
0.0
 10
252.4194976158
 20
168.3027449295
 30
0.0
 10
252.4227452894
 20
168.3017594614
 30
0.0
 10
252.4234093161
 20
168.3021257036
 30
0.0
  0
SPLINE
  5
551
100
AcDbEntity
  8
DEF_LAYER_ASSEM_MEMBER
100
AcDbSpline
 62
7
  6
CONTINUOUS
 70
0
 71
3
 72
20
 73
16
 74
0
 42
0.0000001
 43
0.0000001
 44
0.0000000001
 40
0.0
 40
0.0
 40
0.0
 40
0.0
 40
0.1250493825
 40
0.2500801596
 40
0.375135833
 40
0.4376572318
 40
0.5001236831
 40
0.5627150279
 40
0.6252537446
 40
0.6875636973
 40
0.7502393797
 40
0.8128455175
 40
0.8749465357
 40
0.9373957757
 40
1.0
 40
1.0
 40
1.0
 40
1.0
 10
59.6085895846
 20
183.446487933
 30
0.0
 10
59.8492575662
 20
183.4213047419
 30
0.0
 10
60.3300378642
 20
183.3657325599
 30
0.0
 10
61.0487610267
 20
183.2630062219
 30
0.0
 10
61.6440556548
 20
183.1540765036
 30
0.0
 10
62.1161094737
 20
183.0475712408
 30
0.0
 10
62.4674689888
 20
182.9560832026
 30
0.0
 10
62.8143327423
 20
182.8484610554
 30
0.0
 10
63.1544852575
 20
182.7219417827
 30
0.0
 10
63.4853922582
 20
182.5719439858
 30
0.0
 10
63.7990883446
 20
182.3874772227
 30
0.0
 10
64.0844478715
 20
182.1614462117
 30
0.0
 10
64.3247232335
 20
181.8866544491
 30
0.0
 10
64.4937766332
 20
181.562669104
 30
0.0
 10
64.5572740627
 20
181.3271559326
 30
0.0
 10
64.5774261899
 20
181.2076989319
 30
0.0
  0
SPLINE
  5
552
100
AcDbEntity
  8
DEF_LAYER_ASSEM_MEMBER
100
AcDbSpline
 62
7
  6
CONTINUOUS
 70
0
 71
3
 72
8
 73
4
 74
0
 42
0.0000001
 43
0.0000001
 44
0.0000000001
 40
0.0
 40
0.0
 40
0.0
 40
0.0
 40
1.0
 40
1.0
 40
1.0
 40
1.0
 10
64.5774261899
 20
181.2076989319
 30
0.0
 10
64.595565486
 20
181.1001735141
 30
0.0
 10
64.6046969716
 20
180.9909629098
 30
0.0
 10
64.6075623996
 20
180.881955851
 30
0.0
  0
SPLINE
  5
553
100
AcDbEntity
  8
DEF_LAYER_ASSEM_MEMBER
100
AcDbSpline
 62
7
  6
CONTINUOUS
 70
0
 71
3
 72
20
 73
16
 74
0
 42
0.0000001
 43
0.0000001
 44
0.0000000001
 40
0.0
 40
0.0
 40
0.0
 40
0.0
 40
0.125049453
 40
0.2500802978
 40
0.3751360658
 40
0.4376574236
 40
0.5001239367
 40
0.5627155135
 40
0.6252538396
 40
0.6875638674
 40
0.7502403467
 40
0.8128454885
 40
0.8749459787
 40
0.937396837
 40
1.0
 40
1.0
 40
1.0
 40
1.0
 10
38.2085919322
 20
183.4464879332
 30
0.0
 10
37.9678850732
 20
183.4213006741
 30
0.0
 10
37.4870271945
 20
183.365718682
 30
0.0
 10
36.768188572
 20
183.2629705987
 30
0.0
 10
36.1727997343
 20
183.1540123747
 30
0.0
 10
35.7006728972
 20
183.0474756115
 30
0.0
 10
35.3492604674
 20
182.9559564197
 30
0.0
 10
35.0023487242
 20
182.8482919702
 30
0.0
 10
34.662152381
 20
182.7217227489
 30
0.0
 10
34.3312128098
 20
182.5716510178
 30
0.0
 10
34.0175068518
 20
182.3870838076
 30
0.0
 10
33.7321719046
 20
182.1609258172
 30
0.0
 10
33.4919831735
 20
181.8859752207
 30
0.0
 10
33.3230829408
 20
181.5618425087
 30
0.0
 10
33.2596975689
 20
181.3262590008
 30
0.0
 10
33.2395997147
 20
181.2067751646
 30
0.0
  0
SPLINE
  5
554
100
AcDbEntity
  8
DEF_LAYER_ASSEM_MEMBER
100
AcDbSpline
 62
7
  6
CONTINUOUS
 70
0
 71
3
 72
8
 73
4
 74
0
 42
0.0000001
 43
0.0000001
 44
0.0000000001
 40
0.0
 40
0.0
 40
0.0
 40
0.0
 40
1.0
 40
1.0
 40
1.0
 40
1.0
 10
33.2395997147
 20
181.2067751646
 30
0.0
 10
33.2218040665
 20
181.1009781831
 30
0.0
 10
33.2127196759
 20
180.9935556777
 30
0.0
 10
33.2097369965
 20
180.8863139413
 30
0.0
  0
SPLINE
  5
555
100
AcDbEntity
  8
DEF_LAYER_ASSEM_MEMBER
100
AcDbSpline
 62
9
  6
CONTINUOUS
 70
0
 71
3
 72
18
 73
14
 74
0
 42
0.0000001
 43
0.0000001
 44
0.0000000001
 40
0.0
 40
0.0
 40
0.0
 40
0.0
 40
0.2336515815
 40
0.3396876814
 40
0.4310482853
 40
0.574188386
 40
0.6307446843
 40
0.6816588518
 40
0.7282274008
 40
0.7715902434
 40
0.8522770715
 40
0.9276847827
 40
1.0
 40
1.0
 40
1.0
 40
1.0
 10
44.2085907573
 20
180.802125928
 30
0.0
 10
44.2386058553
 20
181.054197481
 30
0.0
 10
44.2887174355
 20
181.4202215136
 30
0.0
 10
44.3887603297
 20
181.8782246928
 30
0.0
 10
44.4973681994
 20
182.2320393031
 30
0.0
 10
44.6288489542
 20
182.5227407996
 30
0.0
 10
44.7845278327
 20
182.746677073
 30
0.0
 10
44.8921120946
 20
182.8751488922
 30
0.0
 10
45.00076317
 20
182.9832059595
 30
0.0
 10
45.1428531708
 20
183.1024832628
 30
0.0
 10
45.3222844636
 20
183.2251098918
 30
0.0
 10
45.5423068514
 20
183.3407035101
 30
0.0
 10
45.6903392628
 20
183.4031554607
 30
0.0
 10
45.7637674591
 20
183.4311040922
 30
0.0
  0
SPLINE
  5
556
100
AcDbEntity
  8
DEF_LAYER_ASSEM_MEMBER
100
AcDbSpline
 62
9
  6
CONTINUOUS
 70
0
 71
3
 72
23
 73
19
 74
0
 42
0.0000001
 43
0.0000001
 44
0.0000000001
 40
0.0
 40
0.0
 40
0.0
 40
0.0
 40
0.2048069528
 40
0.406881737
 40
0.5997269541
 40
0.6881272879
 40
0.7667892299
 40
0.8325608189
 40
0.8846179514
 40
0.9243341778
 40
0.9538259111
 40
0.9749140763
 40
0.9827393148
 40
0.9889078785
 40
0.9935404096
 40
0.9967839877
 40
0.9988273476
 40
1.0
 40
1.0
 40
1.0
 40
1.0
 10
53.6090011941
 20
183.4109265828
 30
0.0
 10
54.0193002495
 20
183.4029697677
 30
0.0
 10
54.8343904022
 20
183.3853694181
 30
0.0
 10
56.0357320327
 20
183.3566552367
 30
0.0
 10
57.0038985162
 20
183.3334996592
 30
0.0
 10
57.7249484167
 20
183.3209332186
 30
0.0
 10
58.1914785782
 20
183.3171570057
 30
0.0
 10
58.5852026155
 20
183.3198442437
 30
0.0
 10
58.9007914694
 20
183.3282041056
 30
0.0
 10
59.1435022774
 20
183.3402236782
 30
0.0
 10
59.3239316672
 20
183.3538789538
 30
0.0
 10
59.4403217894
 20
183.3664603422
 30
0.0
 10
59.5098550825
 20
183.3768346499
 30
0.0
 10
59.5465474801
 20
183.3837549117
 30
0.0
 10
59.5739069448
 20
183.3903535036
 30
0.0
 10
59.592741321
 20
183.3970227987
 30
0.0
 10
59.6042461552
 20
183.402779294
 30
0.0
 10
59.6085535602
 20
183.4085815256
 30
0.0
 10
59.6085953605
 20
183.4109308233
 30
0.0
  0
SPLINE
  5
557
100
AcDbEntity
  8
DEF_LAYER_ASSEM_MEMBER
100
AcDbSpline
 62
9
  6
CONTINUOUS
 70
0
 71
3
 72
18
 73
14
 74
0
 42
0.0000001
 43
0.0000001
 44
0.0000000001
 40
0.0
 40
0.0
 40
0.0
 40
0.0
 40
0.2336526468
 40
0.3396888872
 40
0.4310493558
 40
0.5741887979
 40
0.6307448471
 40
0.681658855
 40
0.7282272558
 40
0.7715900335
 40
0.8522768389
 40
0.9276846292
 40
1.0
 40
1.0
 40
1.0
 40
1.0
 10
53.6085907574
 20
180.802125928
 30
0.0
 10
53.5785753231
 20
181.0542003057
 30
0.0
 10
53.5284632141
 20
181.4202280857
 30
0.0
 10
53.4284185336
 20
181.8782352744
 30
0.0
 10
53.3198089324
 20
182.2320511954
 30
0.0
 10
53.1883260127
 20
182.5227528736
 30
0.0
 10
53.0326449897
 20
182.7466884475
 30
0.0
 10
52.9250594493
 20
182.8751598652
 30
0.0
 10
52.8164069366
 20
182.9832163597
 30
0.0
 10
52.674315227
 20
183.1024931396
 30
0.0
 10
52.4948817552
 20
183.2251191251
 30
0.0
 10
52.2748568248
 20
183.3407119301
 30
0.0
 10
52.1268227874
 20
183.4031634166
 30
0.0
 10
52.0533937652
 20
183.4311118152
 30
0.0
  0
SPLINE
  5
558
100
AcDbEntity
  8
DEF_LAYER_ASSEM_MEMBER
100
AcDbSpline
 62
9
  6
CONTINUOUS
 70
0
 71
3
 72
10
 73
6
 74
0
 42
0.0000001
 43
0.0000001
 44
0.0000000001
 40
0.0
 40
0.0
 40
0.0
 40
0.0
 40
0.2500029733
 40
0.5000042364
 40
1.0
 40
1.0
 40
1.0
 40
1.0
 10
52.0533753344
 20
183.4311793691
 30
0.0
 10
51.7913121747
 20
183.4333347485
 30
0.0
 10
51.2671810907
 20
183.4368291748
 30
0.0
 10
50.218927035
 20
183.4434115809
 30
0.0
 10
49.4327241686
 20
183.4465194886
 30
0.0
 10
48.9085907969
 20
183.4465294221
 30
0.0
  0
SPLINE
  5
559
100
AcDbEntity
  8
DEF_LAYER_ASSEM_MEMBER
100
AcDbSpline
 62
9
  6
CONTINUOUS
 70
0
 71
3
 72
10
 73
6
 74
0
 42
0.0000001
 43
0.0000001
 44
0.0000000001
 40
0.0
 40
0.0
 40
0.0
 40
0.0
 40
0.4999957789
 40
0.749997035
 40
1.0
 40
1.0
 40
1.0
 40
1.0
 10
48.9085907229
 20
183.4464759888
 30
0.0
 10
48.3844507966
 20
183.4464859238
 30
0.0
 10
47.5982379869
 20
183.4434073468
 30
0.0
 10
46.5499706638
 20
183.4368550084
 30
0.0
 10
46.0258329717
 20
183.433373422
 30
0.0
 10
45.7637664951
 20
183.4312248713
 30
0.0
  0
SPLINE
  5
55A
100
AcDbEntity
  8
DEF_LAYER_ASSEM_MEMBER
100
AcDbSpline
 62
9
  6
CONTINUOUS
 70
0
 71
3
 72
21
 73
17
 74
0
 42
0.0000001
 43
0.0000001
 44
0.0000000001
 40
0.0
 40
0.0
 40
0.0
 40
0.0
 40
0.2048145222
 40
0.4068852543
 40
0.5997803354
 40
0.6881532729
 40
0.7667885705
 40
0.8326226771
 40
0.884720801
 40
0.9244042477
 40
0.9539119068
 40
0.9749463017
 40
0.9888350452
 40
0.9967167892
 40
0.9988012528
 40
1.0
 40
1.0
 40
1.0
 40
1.0
 10
44.2085547356
 20
183.4109328962
 30
0.0
 10
43.7982382681
 20
183.4029585791
 30
0.0
 10
42.9831368896
 20
183.3853182271
 30
0.0
 10
41.7816786482
 20
183.3566884455
 30
0.0
 10
40.8134724195
 20
183.3334032731
 30
0.0
 10
40.0924246603
 20
183.3208845372
 30
0.0
 10
39.6258753827
 20
183.31718554
 30
0.0
 10
39.2319918967
 20
183.3198024849
 30
0.0
 10
38.9162653286
 20
183.3280830497
 30
0.0
 10
38.6734856899
 20
183.3402090378
 30
0.0
 10
38.4932515571
 20
183.3537892598
 30
0.0
 10
38.3647217152
 20
183.3677375336
 30
0.0
 10
38.2802764229
 20
183.3812551771
 30
0.0
 10
38.2333469759
 20
183.393065329
 30
0.0
 10
38.2134317303
 20
183.4028798394
 30
0.0
 10
38.2087862396
 20
183.4085298634
 30
0.0
 10
38.2085861765
 20
183.4109234883
 30
0.0
  0
SPLINE
  5
55B
100
AcDbEntity
  8
DEF_LAYER_ASSEM_MEMBER
100
AcDbSpline
 62
9
  6
CONTINUOUS
 70
0
 71
3
 72
13
 73
9
 74
0
 42
0.0000001
 43
0.0000001
 44
0.0000000001
 40
0.0
 40
0.0
 40
0.0
 40
0.0
 40
0.3184188987
 40
0.60154008
 40
0.7221136655
 40
0.8268597468
 40
0.9177547912
 40
1.0
 40
1.0
 40
1.0
 40
1.0
 10
62.1685907574
 20
35.5021259281
 30
0.0
 10
62.1685907574
 20
35.5662286081
 30
0.0
 10
62.1799812499
 20
35.6875613061
 30
0.0
 10
62.2235325215
 20
35.8281108978
 30
0.0
 10
62.2759275717
 20
35.9166100209
 30
0.0
 10
62.3189846391
 20
35.9642715259
 30
0.0
 10
62.3669220441
 20
35.9947652603
 30
0.0
 10
62.4020335168
 20
36.0021259281
 30
0.0
 10
62.4185907574
 20
36.0021259281
 30
0.0
  0
SPLINE
  5
55C
100
AcDbEntity
  8
DEF_LAYER_ASSEM_MEMBER
100
AcDbSpline
 62
9
  6
CONTINUOUS
 70
0
 71
3
 72
13
 73
9
 74
0
 42
0.0000001
 43
0.0000001
 44
0.0000000001
 40
0.0
 40
0.0
 40
0.0
 40
0.0
 40
0.3184188987
 40
0.60154008
 40
0.7221136655
 40
0.8268597468
 40
0.9177547912
 40
1.0
 40
1.0
 40
1.0
 40
1.0
 10
49.1585907574
 20
35.5021259281
 30
0.0
 10
49.1585907574
 20
35.5662286081
 30
0.0
 10
49.1699812499
 20
35.6875613062
 30
0.0
 10
49.2135325215
 20
35.8281108978
 30
0.0
 10
49.2659275717
 20
35.9166100209
 30
0.0
 10
49.3089846391
 20
35.9642715259
 30
0.0
 10
49.3569220441
 20
35.9947652603
 30
0.0
 10
49.3920335168
 20
36.0021259281
 30
0.0
 10
49.4085907574
 20
36.0021259281
 30
0.0
  0
SPLINE
  5
55D
100
AcDbEntity
  8
DEF_LAYER_ASSEM_MEMBER
100
AcDbSpline
 62
9
  6
CONTINUOUS
 70
0
 71
3
 72
13
 73
9
 74
0
 42
0.0000001
 43
0.0000001
 44
0.0000000001
 40
0.0
 40
0.0
 40
0.0
 40
0.0
 40
0.3184188987
 40
0.60154008
 40
0.7221136655
 40
0.8268597468
 40
0.9177547912
 40
1.0
 40
1.0
 40
1.0
 40
1.0
 10
48.6585907574
 20
35.5021259281
 30
0.0
 10
48.6585907574
 20
35.5662286081
 30
0.0
 10
48.6472002648
 20
35.6875613061
 30
0.0
 10
48.6036489932
 20
35.8281108978
 30
0.0
 10
48.551253943
 20
35.9166100209
 30
0.0
 10
48.5081968756
 20
35.9642715259
 30
0.0
 10
48.4602594706
 20
35.9947652603
 30
0.0
 10
48.4251479979
 20
36.0021259281
 30
0.0
 10
48.4085907574
 20
36.0021259281
 30
0.0
  0
SPLINE
  5
55E
100
AcDbEntity
  8
DEF_LAYER_ASSEM_MEMBER
100
AcDbSpline
 62
9
  6
CONTINUOUS
 70
0
 71
3
 72
13
 73
9
 74
0
 42
0.0000001
 43
0.0000001
 44
0.0000000001
 40
0.0
 40
0.0
 40
0.0
 40
0.0
 40
0.3184188987
 40
0.60154008
 40
0.7221136655
 40
0.8268597468
 40
0.9177547912
 40
1.0
 40
1.0
 40
1.0
 40
1.0
 10
35.6485907574
 20
35.5021259281
 30
0.0
 10
35.6485907574
 20
35.5662286081
 30
0.0
 10
35.6372002648
 20
35.6875613062
 30
0.0
 10
35.5936489932
 20
35.8281108978
 30
0.0
 10
35.541253943
 20
35.9166100209
 30
0.0
 10
35.4981968756
 20
35.9642715259
 30
0.0
 10
35.4502594706
 20
35.9947652603
 30
0.0
 10
35.4151479979
 20
36.0021259281
 30
0.0
 10
35.3985907574
 20
36.0021259281
 30
0.0
  0
SPLINE
  5
55F
100
AcDbEntity
  8
DEF_LAYER_ASSEM_MEMBER
100
AcDbSpline
 62
9
  6
CONTINUOUS
 70
0
 71
3
 72
15
 73
11
 74
0
 42
0.0000001
 43
0.0000001
 44
0.0000000001
 40
0.0
 40
0.0
 40
0.0
 40
0.0
 40
0.1118875232
 40
0.1552569741
 40
0.2053945497
 40
0.3254952217
 40
0.4699407479
 40
0.6344714736
 40
0.8135307046
 40
1.0
 40
1.0
 40
1.0
 40
1.0
 10
48.9085907574
 20
27.8021259281
 30
0.0
 10
48.9483844156
 20
27.8022862865
 30
0.0
 10
48.993331657
 20
27.8550038825
 30
0.0
 10
49.0261044672
 20
27.9179274505
 30
0.0
 10
49.055814237
 20
27.9885763256
 30
0.0
 10
49.0876884583
 20
28.0957845397
 30
0.0
 10
49.1182011949
 20
28.245569977
 30
0.0
 10
49.1411032513
 20
28.4177041726
 30
0.0
 10
49.155381975
 20
28.6057795356
 30
0.0
 10
49.1585879307
 20
28.7358061505
 30
0.0
 10
49.1585907574
 20
28.8021259281
 30
0.0
  0
SPLINE
  5
560
100
AcDbEntity
  8
DEF_LAYER_ASSEM_MEMBER
100
AcDbSpline
 62
9
  6
CONTINUOUS
 70
0
 71
3
 72
15
 73
11
 74
0
 42
0.0000001
 43
0.0000001
 44
0.0000000001
 40
0.0
 40
0.0
 40
0.0
 40
0.0
 40
0.1864703513
 40
0.365527793
 40
0.530055249
 40
0.67449808
 40
0.7946030554
 40
0.8447427681
 40
0.8881128373
 40
1.0
 40
1.0
 40
1.0
 40
1.0
 10
48.6585907574
 20
28.8021259281
 30
0.0
 10
48.6586288034
 20
28.7358057553
 30
0.0
 10
48.6618231842
 20
28.60578063
 30
0.0
 10
48.676082277
 20
28.4177043011
 30
0.0
 10
48.6989777185
 20
28.2455723107
 30
0.0
 10
48.7294739395
 20
28.095783565
 30
0.0
 10
48.7613604705
 20
27.988577091
 30
0.0
 10
48.7910764937
 20
27.9179282019
 30
0.0
 10
48.82385031
 20
27.8550043344
 30
0.0
 10
48.868797209
 20
27.8022862861
 30
0.0
 10
48.9085907574
 20
27.8021259281
 30
0.0
  0
SPLINE
  5
561
100
AcDbEntity
  8
DEF_LAYER_ASSEM_MEMBER
100
AcDbSpline
 62
9
  6
CONTINUOUS
 70
0
 71
3
 72
14
 73
10
 74
0
 42
0.0000001
 43
0.0000001
 44
0.0000000001
 40
0.0
 40
0.0
 40
0.0
 40
0.0
 40
0.1050438144
 40
0.2132243143
 40
0.3272287789
 40
0.4485974976
 40
0.5778416648
 40
0.714209864
 40
1.0
 40
1.0
 40
1.0
 40
1.0
 10
36.3985907574
 20
27.8021259281
 30
0.0
 10
36.3503366694
 20
27.8021893185
 30
0.0
 10
36.2519572164
 20
27.8149765741
 30
0.0
 10
36.1111780968
 20
27.8716259221
 30
0.0
 10
35.9812777124
 20
27.9635497356
 30
0.0
 10
35.8670601973
 20
28.0875496951
 30
0.0
 10
35.7727455912
 20
28.2394157797
 30
0.0
 10
35.6772568947
 20
28.4749469062
 30
0.0
 10
35.6486074945
 20
28.6708420993
 30
0.0
 10
35.6485907574
 20
28.8021259281
 30
0.0
  0
SPLINE
  5
562
100
AcDbEntity
  8
DEF_LAYER_ASSEM_MEMBER
100
AcDbSpline
 62
9
  6
CONTINUOUS
 70
0
 71
3
 72
14
 73
10
 74
0
 42
0.0000001
 43
0.0000001
 44
0.0000000001
 40
0.0
 40
0.0
 40
0.0
 40
0.0
 40
0.2857897746
 40
0.4221601485
 40
0.5514068249
 40
0.6727726691
 40
0.7867751309
 40
0.8949561669
 40
1.0
 40
1.0
 40
1.0
 40
1.0
 10
62.1685907574
 20
28.8021259281
 30
0.0
 10
62.1686182968
 20
28.6708424361
 30
0.0
 10
62.1399316114
 20
28.4749426507
 30
0.0
 10
62.0444320668
 20
28.239417064
 30
0.0
 10
61.9501076293
 20
28.0875568454
 30
0.0
 10
61.8359010811
 20
27.9635495422
 30
0.0
 10
61.7060029636
 20
27.8716247968
 30
0.0
 10
61.5652242778
 20
27.8149769575
 30
0.0
 10
61.4668447918
 20
27.8021893185
 30
0.0
 10
61.4185907574
 20
27.8021259281
 30
0.0
  0
SPLINE
  5
563
100
AcDbEntity
  8
DEF_LAYER_ASSEM_MEMBER
100
AcDbSpline
 62
7
  6
CONTINUOUS
 70
0
 71
3
 72
19
 73
15
 74
0
 42
0.0000001
 43
0.0000001
 44
0.0000000001
 40
0.0
 40
0.0
 40
0.0
 40
0.0
 40
0.1725368407
 40
0.3400019955
 40
0.4975220773
 40
0.6405318377
 40
0.7053142886
 40
0.7650060223
 40
0.8192148456
 40
0.8676143149
 40
0.9099495435
 40
0.9460770847
 40
0.9760021694
 40
1.0
 40
1.0
 40
1.0
 40
1.0
 10
48.9085907574
 20
145.9634000495
 30
0.0
 10
48.4579131951
 20
145.9634000494
 30
0.0
 10
47.5697462612
 20
145.9766714517
 30
0.0
 10
46.2713244868
 20
146.0360297433
 30
0.0
 10
45.0524891591
 20
146.1328316846
 30
0.0
 10
44.1045644815
 20
146.2452996777
 30
0.0
 10
43.4143163006
 20
146.3540565795
 30
0.0
 10
42.9554980814
 20
146.4400655242
 30
0.0
 10
42.541661472
 20
146.5325134335
 30
0.0
 10
42.1758455511
 20
146.630644345
 30
0.0
 10
41.8606986573
 20
146.7336624528
 30
0.0
 10
41.5982091067
 20
146.8407688485
 30
0.0
 10
41.390037988
 20
146.951073686
 30
0.0
 10
41.2758165751
 20
147.0353963345
 30
0.0
 10
41.2308113987
 20
147.0790289675
 30
0.0
  0
SPLINE
  5
564
100
AcDbEntity
  8
DEF_LAYER_ASSEM_MEMBER
100
AcDbSpline
 62
7
  6
CONTINUOUS
 70
0
 71
3
 72
13
 73
9
 74
0
 42
0.0000001
 43
0.0000001
 44
0.0000000001
 40
0.0
 40
0.0
 40
0.0
 40
0.0
 40
0.3093498548
 40
0.600830137
 40
0.7288633608
 40
0.8399263532
 40
0.9310196545
 40
1.0
 40
1.0
 40
1.0
 40
1.0
 10
48.7715437177
 20
147.1898124556
 30
0.0
 10
48.8594609218
 20
147.1869750145
 30
0.0
 10
49.0304135143
 20
147.1868185409
 30
0.0
 10
49.2374956498
 20
147.1989015893
 30
0.0
 10
49.3873402868
 20
147.2167535575
 30
0.0
 10
49.4799764089
 20
147.2324824501
 30
0.0
 10
49.5549434172
 20
147.2505836007
 30
0.0
 10
49.5980919991
 20
147.2657968088
 30
0.0
 10
49.6156975385
 20
147.2744437909
 30
0.0
  0
SPLINE
  5
565
100
AcDbEntity
  8
DEF_LAYER_ASSEM_MEMBER
100
AcDbSpline
 62
7
  6
CONTINUOUS
 70
0
 71
3
 72
11
 73
7
 74
0
 42
0.0000001
 43
0.0000001
 44
0.0000000001
 40
0.0
 40
0.0
 40
0.0
 40
0.0
 40
0.2600815337
 40
0.5242526436
 40
0.7760883361
 40
1.0
 40
1.0
 40
1.0
 40
1.0
 10
48.1552659924
 20
147.7153741836
 30
0.0
 10
48.355145039
 20
147.7267960866
 30
0.0
 10
48.7586547255
 20
147.7398925268
 30
0.0
 10
49.3562208671
 20
147.7334941191
 30
0.0
 10
49.9251025827
 20
147.7020236954
 30
0.0
 10
50.2895219841
 20
147.6630080321
 30
0.0
 10
50.4600742529
 20
147.6380941433
 30
0.0
  0
SPLINE
  5
566
100
AcDbEntity
  8
DEF_LAYER_ASSEM_MEMBER
100
AcDbSpline
 62
7
  6
CONTINUOUS
 70
0
 71
3
 72
14
 73
10
 74
0
 42
0.0000001
 43
0.0000001
 44
0.0000000001
 40
0.0
 40
0.0
 40
0.0
 40
0.0
 40
0.3629130253
 40
0.5179644053
 40
0.6538536853
 40
0.7697834414
 40
0.8655126745
 40
0.9415483266
 40
1.0
 40
1.0
 40
1.0
 40
1.0
 10
50.4600742529
 20
147.6380941433
 30
0.0
 10
50.5683350021
 20
147.6222796585
 30
0.0
 10
50.722424838
 20
147.595991192
 30
0.0
 10
50.9143952003
 20
147.5509829737
 30
0.0
 10
51.0323316923
 20
147.5170030071
 30
0.0
 10
51.1309546557
 20
147.4813664504
 30
0.0
 10
51.2096288249
 20
147.4443280219
 30
0.0
 10
51.2679131236
 20
147.4062795291
 30
0.0
 10
51.2965156166
 20
147.3763742955
 30
0.0
 10
51.30558888
 20
147.3612678798
 30
0.0
  0
SPLINE
  5
567
100
AcDbEntity
  8
DEF_LAYER_ASSEM_MEMBER
100
AcDbSpline
 62
7
  6
CONTINUOUS
 70
0
 71
3
 72
12
 73
8
 74
0
 42
0.0000001
 43
0.0000001
 44
0.0000000001
 40
0.0
 40
0.0
 40
0.0
 40
0.0
 40
0.1588739092
 40
0.2575694027
 40
0.3718236202
 40
0.6509223131
 40
1.0
 40
1.0
 40
1.0
 40
1.0
 10
45.7521597029
 20
147.2918086087
 30
0.0
 10
45.7581170506
 20
147.2700400759
 30
0.0
 10
45.7791903082
 20
147.2380735334
 30
0.0
 10
45.817922625
 20
147.2023113999
 30
0.0
 10
45.8750219018
 20
147.1615878329
 30
0.0
 10
45.9694187558
 20
147.1136380374
 30
0.0
 10
46.0530410327
 20
147.082183829
 30
0.0
 10
46.1000366721
 20
147.0663586832
 30
0.0
  0
SPLINE
  5
568
100
AcDbEntity
  8
DEF_LAYER_ASSEM_MEMBER
100
AcDbSpline
 62
7
  6
CONTINUOUS
 70
0
 71
3
 72
10
 73
6
 74
0
 42
0.0000001
 43
0.0000001
 44
0.0000000001
 40
0.0
 40
0.0
 40
0.0
 40
0.0
 40
0.2108737685
 40
0.4494882883
 40
1.0
 40
1.0
 40
1.0
 40
1.0
 10
46.2500418434
 20
147.0212440817
 30
0.0
 10
46.3155507961
 20
147.0035390168
 30
0.0
 10
46.4563671134
 20
146.970133509
 30
0.0
 10
46.7725165887
 20
146.909760355
 30
0.0
 10
47.02440636
 20
146.8758460108
 30
0.0
 10
47.2004690975
 20
146.8562028648
 30
0.0
  0
SPLINE
  5
569
100
AcDbEntity
  8
DEF_LAYER_ASSEM_MEMBER
100
AcDbSpline
 62
7
  6
CONTINUOUS
 70
0
 71
3
 72
9
 73
5
 74
0
 42
0.0000001
 43
0.0000001
 44
0.0000000001
 40
0.0
 40
0.0
 40
0.0
 40
0.0
 40
0.4860568564
 40
1.0
 40
1.0
 40
1.0
 40
1.0
 10
47.4602797161
 20
146.8301565397
 30
0.0
 10
47.6700609513
 20
146.8113712913
 30
0.0
 10
48.1026111228
 20
146.7830545544
 30
0.0
 10
48.5358938758
 20
146.771584407
 30
0.0
 10
48.7585907574
 20
146.7697466911
 30
0.0
  0
SPLINE
  5
56A
100
AcDbEntity
  8
DEF_LAYER_ASSEM_MEMBER
100
AcDbSpline
 62
7
  6
CONTINUOUS
 70
0
 71
3
 72
9
 73
5
 74
0
 42
0.0000001
 43
0.0000001
 44
0.0000000001
 40
0.0
 40
0.0
 40
0.0
 40
0.0
 40
0.5139433743
 40
1.0
 40
1.0
 40
1.0
 40
1.0
 10
49.0585907574
 20
146.7697476788
 30
0.0
 10
49.2812880379
 20
146.771585398
 30
0.0
 10
49.714571392
 20
146.7830543865
 30
0.0
 10
50.1471221924
 20
146.8113707302
 30
0.0
 10
50.3569036097
 20
146.8301559949
 30
0.0
  0
SPLINE
  5
56B
100
AcDbEntity
  8
DEF_LAYER_ASSEM_MEMBER
100
AcDbSpline
 62
7
  6
CONTINUOUS
 70
0
 71
3
 72
10
 73
6
 74
0
 42
0.0000001
 43
0.0000001
 44
0.0000000001
 40
0.0
 40
0.0
 40
0.0
 40
0.0
 40
0.5505138624
 40
0.7891267868
 40
1.0
 40
1.0
 40
1.0
 40
1.0
 10
50.6167090601
 20
146.8562038745
 30
0.0
 10
50.7927732264
 20
146.8758471799
 30
0.0
 10
51.0446645542
 20
146.9097595389
 30
0.0
 10
51.3608151897
 20
146.9701338726
 30
0.0
 10
51.5016315304
 20
147.0035388972
 30
0.0
 10
51.5671405863
 20
147.02124399
 30
0.0
  0
SPLINE
  5
56C
100
AcDbEntity
  8
DEF_LAYER_ASSEM_MEMBER
100
AcDbSpline
 62
7
  6
CONTINUOUS
 70
0
 71
3
 72
12
 73
8
 74
0
 42
0.0000001
 43
0.0000001
 44
0.0000000001
 40
0.0
 40
0.0
 40
0.0
 40
0.0
 40
0.3490788741
 40
0.6281740315
 40
0.7424260531
 40
0.8411232553
 40
1.0
 40
1.0
 40
1.0
 40
1.0
 10
51.7171406192
 20
147.0663591066
 30
0.0
 10
51.7641372452
 20
147.0821845846
 30
0.0
 10
51.8477612302
 20
147.1136376602
 30
0.0
 10
51.9421595269
 20
147.1615875257
 30
0.0
 10
51.9992589337
 20
147.2023121599
 30
0.0
 10
52.0379928743
 20
147.238073788
 30
0.0
 10
52.0590710643
 20
147.2700393044
 30
0.0
 10
52.0650286231
 20
147.2918086087
 30
0.0
  0
SPLINE
  5
56D
100
AcDbEntity
  8
DEF_LAYER_ASSEM_MEMBER
100
AcDbSpline
 62
7
  6
CONTINUOUS
 70
0
 71
3
 72
11
 73
7
 74
0
 42
0.0000001
 43
0.0000001
 44
0.0000000001
 40
0.0
 40
0.0
 40
0.0
 40
0.0
 40
0.289878825
 40
0.5472512052
 40
0.7802458421
 40
1.0
 40
1.0
 40
1.0
 40
1.0
 10
40.9355121904
 20
147.3652856467
 30
0.0
 10
40.9156825079
 20
147.3845105744
 30
0.0
 10
40.8803130246
 20
147.4230939572
 30
0.0
 10
40.8393305044
 20
147.4856035705
 30
0.0
 10
40.8142937386
 20
147.5490487623
 30
0.0
 10
40.8086013834
 20
147.5923604127
 30
0.0
 10
40.8086013834
 20
147.6132981612
 30
0.0
  0
SPLINE
  5
56E
100
AcDbEntity
  8
DEF_LAYER_ASSEM_MEMBER
100
AcDbSpline
 62
7
  6
CONTINUOUS
 70
0
 71
3
 72
19
 73
15
 74
0
 42
0.0000001
 43
0.0000001
 44
0.0000000001
 40
0.0
 40
0.0
 40
0.0
 40
0.0
 40
0.0239978306
 40
0.0539229153
 40
0.0900504565
 40
0.1323856851
 40
0.1807851544
 40
0.2349939776
 40
0.2946857114
 40
0.3594681623
 40
0.5024779227
 40
0.6599980045
 40
0.8274631592
 40
1.0
 40
1.0
 40
1.0
 40
1.0
 10
56.586370116
 20
147.0790289675
 30
0.0
 10
56.5413649396
 20
147.0353963345
 30
0.0
 10
56.4271435267
 20
146.951073686
 30
0.0
 10
56.2189724081
 20
146.8407688485
 30
0.0
 10
55.9564828574
 20
146.7336624528
 30
0.0
 10
55.6413359636
 20
146.630644345
 30
0.0
 10
55.2755200428
 20
146.5325134335
 30
0.0
 10
54.8616834334
 20
146.4400655242
 30
0.0
 10
54.4028652142
 20
146.3540565795
 30
0.0
 10
53.7126170334
 20
146.2452996778
 30
0.0
 10
52.7646923558
 20
146.1328316846
 30
0.0
 10
51.5458570281
 20
146.0360297433
 30
0.0
 10
50.2474352536
 20
145.9766714518
 30
0.0
 10
49.3592683197
 20
145.9634000494
 30
0.0
 10
48.9085907574
 20
145.9634000495
 30
0.0
  0
SPLINE
  5
56F
100
AcDbEntity
  8
DEF_LAYER_ASSEM_MEMBER
100
AcDbSpline
 62
7
  6
CONTINUOUS
 70
0
 71
3
 72
14
 73
10
 74
0
 42
0.0000001
 43
0.0000001
 44
0.0000000001
 40
0.0
 40
0.0
 40
0.0
 40
0.0
 40
0.3555562483
 40
0.505170149
 40
0.6360882121
 40
0.7490443206
 40
0.8454197896
 40
0.9276928231
 40
1.0
 40
1.0
 40
1.0
 40
1.0
 10
53.2944404416
 20
147.7274860545
 30
0.0
 10
53.3767889574
 20
147.700899749
 30
0.0
 10
53.4927068085
 20
147.6590653515
 30
0.0
 10
53.6328104445
 20
147.5929548648
 30
0.0
 10
53.7160483293
 20
147.5453413253
 30
0.0
 10
53.7834746533
 20
147.4969404648
 30
0.0
 10
53.8349806867
 20
147.4476463576
 30
0.0
 10
53.8704170775
 20
147.3973030828
 30
0.0
 10
53.8833223264
 20
147.3612417572
 30
0.0
 10
53.8863312086
 20
147.343903062
 30
0.0
  0
SPLINE
  5
570
100
AcDbEntity
  8
DEF_LAYER_ASSEM_MEMBER
100
AcDbSpline
 62
7
  6
CONTINUOUS
 70
0
 71
3
 72
11
 73
7
 74
0
 42
0.0000001
 43
0.0000001
 44
0.0000000001
 40
0.0
 40
0.0
 40
0.0
 40
0.0
 40
0.2894011072
 40
0.5546456681
 40
0.792421351
 40
1.0
 40
1.0
 40
1.0
 40
1.0
 10
51.5273647935
 20
148.0534034139
 30
0.0
 10
51.6849448846
 20
148.0364861913
 30
0.0
 10
51.986548145
 20
148.0000937859
 30
0.0
 10
52.4156107538
 20
147.9345125364
 30
0.0
 10
52.7978473729
 20
147.8609732242
 30
0.0
 10
53.0349985678
 20
147.8033406365
 30
0.0
 10
53.1444404416
 20
147.7726011744
 30
0.0
  0
SPLINE
  5
571
100
AcDbEntity
  8
DEF_LAYER_ASSEM_MEMBER
100
AcDbSpline
 62
7
  6
CONTINUOUS
 70
0
 71
3
 72
11
 73
7
 74
0
 42
0.0000001
 43
0.0000001
 44
0.0000000001
 40
0.0
 40
0.0
 40
0.0
 40
0.0
 40
0.2075786037
 40
0.4453542463
 40
0.7105988615
 40
1.0
 40
1.0
 40
1.0
 40
1.0
 10
44.6727410731
 20
147.7726011744
 30
0.0
 10
44.782182923
 20
147.8033406298
 30
0.0
 10
45.0193340705
 20
147.8609732142
 30
0.0
 10
45.4015706737
 20
147.9345125191
 30
0.0
 10
45.8306333063
 20
148.0000937763
 30
0.0
 10
46.1322366131
 20
148.0364861895
 30
0.0
 10
46.2898167212
 20
148.0534034139
 30
0.0
  0
SPLINE
  5
572
100
AcDbEntity
  8
DEF_LAYER_ASSEM_MEMBER
100
AcDbSpline
 62
7
  6
CONTINUOUS
 70
0
 71
3
 72
14
 73
10
 74
0
 42
0.0000001
 43
0.0000001
 44
0.0000000001
 40
0.0
 40
0.0
 40
0.0
 40
0.0
 40
0.0723071643
 40
0.1545801678
 40
0.2509556136
 40
0.363911713
 40
0.4948297891
 40
0.6444437265
 40
1.0
 40
1.0
 40
1.0
 40
1.0
 10
43.9308503061
 20
147.343903062
 30
0.0
 10
43.9338591879
 20
147.3612417542
 30
0.0
 10
43.9467644235
 20
147.3973030726
 30
0.0
 10
43.9822007973
 20
147.4476463419
 30
0.0
 10
44.033706827
 20
147.4969404317
 30
0.0
 10
44.1011331426
 20
147.545341295
 30
0.0
 10
44.1843710334
 20
147.592954846
 30
0.0
 10
44.3244746869
 20
147.65906534
 30
0.0
 10
44.4403925511
 20
147.7008997469
 30
0.0
 10
44.5227410731
 20
147.7274860545
 30
0.0
  0
SPLINE
  5
573
100
AcDbEntity
  8
DEF_LAYER_ASSEM_MEMBER
100
AcDbSpline
 62
7
  6
CONTINUOUS
 70
0
 71
3
 72
11
 73
7
 74
0
 42
0.0000001
 43
0.0000001
 44
0.0000000001
 40
0.0
 40
0.0
 40
0.0
 40
0.0
 40
0.2197541579
 40
0.4527487948
 40
0.710121175
 40
1.0
 40
1.0
 40
1.0
 40
1.0
 10
57.0085801313
 20
147.6132981612
 30
0.0
 10
57.0085801313
 20
147.5923604127
 30
0.0
 10
57.0028877761
 20
147.5490487623
 30
0.0
 10
56.9778510103
 20
147.4856035705
 30
0.0
 10
56.9368684901
 20
147.4230939572
 30
0.0
 10
56.9014990068
 20
147.3845105744
 30
0.0
 10
56.8816693244
 20
147.3652856467
 30
0.0
  0
SPLINE
  5
574
100
AcDbEntity
  8
DEF_LAYER_ASSEM_MEMBER
100
AcDbSpline
 62
7
  6
CONTINUOUS
 70
0
 71
3
 72
10
 73
6
 74
0
 42
0.0000001
 43
0.0000001
 44
0.0000000001
 40
0.0
 40
0.0
 40
0.0
 40
0.0
 40
0.2025031847
 40
0.5549147039
 40
1.0
 40
1.0
 40
1.0
 40
1.0
 10
43.1794634242
 20
147.3004910176
 30
0.0
 10
43.1814068097
 20
147.281157198
 30
0.0
 10
43.1959285292
 20
147.2288894453
 30
0.0
 10
43.2537692704
 20
147.1498502989
 30
0.0
 10
43.3137506901
 20
147.1015505219
 30
0.0
 10
43.3487967996
 20
147.0771421818
 30
0.0
  0
SPLINE
  5
575
100
AcDbEntity
  8
DEF_LAYER_ASSEM_MEMBER
100
AcDbSpline
 62
7
  6
CONTINUOUS
 70
0
 71
3
 72
10
 73
6
 74
0
 42
0.0000001
 43
0.0000001
 44
0.0000000001
 40
0.0
 40
0.0
 40
0.0
 40
0.0
 40
0.2078673372
 40
0.4438097874
 40
1.0
 40
1.0
 40
1.0
 40
1.0
 10
43.4005606086
 20
147.0435959299
 30
0.0
 10
43.4325284108
 20
147.024236738
 30
0.0
 10
43.502850083
 20
146.9862936947
 30
0.0
 10
43.6668550721
 20
146.9124001959
 30
0.0
 10
43.8015957257
 20
146.8653617408
 30
0.0
 10
43.8970209453
 20
146.8354679481
 30
0.0
  0
SPLINE
  5
576
100
AcDbEntity
  8
DEF_LAYER_ASSEM_MEMBER
100
AcDbSpline
 62
7
  6
CONTINUOUS
 70
0
 71
3
 72
9
 73
5
 74
0
 42
0.0000001
 43
0.0000001
 44
0.0000000001
 40
0.0
 40
0.0
 40
0.0
 40
0.0
 40
0.4658846716
 40
1.0
 40
1.0
 40
1.0
 40
1.0
 10
43.9970209453
 20
146.8053912015
 30
0.0
 10
44.1178623228
 20
146.7704681207
 30
0.0
 10
44.3799493441
 20
146.7048421857
 30
0.0
 10
44.6448431778
 20
146.6521895734
 30
0.0
 10
44.7867752917
 20
146.6266676518
 30
0.0
  0
SPLINE
  5
577
100
AcDbEntity
  8
DEF_LAYER_ASSEM_MEMBER
100
AcDbSpline
 62
7
  6
CONTINUOUS
 70
0
 71
3
 72
9
 73
5
 74
0
 42
0.0000001
 43
0.0000001
 44
0.0000000001
 40
0.0
 40
0.0
 40
0.0
 40
0.0
 40
0.2340347778
 40
1.0
 40
1.0
 40
1.0
 40
1.0
 10
44.9281966479
 20
146.602110091
 30
0.0
 10
45.0080899849
 20
146.588712759
 30
0.0
 10
45.3500075329
 20
146.5347177938
 30
0.0
 10
45.6937246729
 20
146.4924846736
 30
0.0
 10
45.9574245504
 20
146.464970688
 30
0.0
  0
SPLINE
  5
578
100
AcDbEntity
  8
DEF_LAYER_ASSEM_MEMBER
100
AcDbSpline
 62
7
  6
CONTINUOUS
 70
0
 71
3
 72
9
 73
5
 74
0
 42
0.0000001
 43
0.0000001
 44
0.0000000001
 40
0.0
 40
0.0
 40
0.0
 40
0.0
 40
0.2410679582
 40
1.0
 40
1.0
 40
1.0
 40
1.0
 10
46.1306296311
 20
146.4476058702
 30
0.0
 10
46.2267506623
 20
146.438353755
 30
0.0
 10
46.6257277935
 20
146.4025604353
 30
0.0
 10
47.0255594856
 20
146.3765150776
 30
0.0
 10
47.3291909091
 20
146.3613964375
 30
0.0
  0
SPLINE
  5
579
100
AcDbEntity
  8
DEF_LAYER_ASSEM_MEMBER
100
AcDbSpline
 62
7
  6
CONTINUOUS
 70
0
 71
3
 72
17
 73
13
 74
0
 42
0.0000001
 43
0.0000001
 44
0.0000000001
 40
0.0
 40
0.0
 40
0.0
 40
0.0
 40
0.024310453
 40
0.0507729469
 40
0.0810578042
 40
0.1162707799
 40
0.2037127363
 40
0.3156336178
 40
0.4522606747
 40
0.6128187102
 40
0.7959922201
 40
1.0
 40
1.0
 40
1.0
 40
1.0
 10
46.4985907574
 20
147.3178558353
 30
0.0
 10
46.4985907578
 20
147.325519929
 30
0.0
 10
46.5012349409
 20
147.3416128047
 30
0.0
 10
46.5126025433
 20
147.364800573
 30
0.0
 10
46.5309616745
 20
147.3874733912
 30
0.0
 10
46.5672556315
 20
147.4194562213
 30
0.0
 10
46.6314304449
 20
147.4572424874
 30
0.0
 10
46.7291764522
 20
147.4983565387
 30
0.0
 10
46.8521830764
 20
147.5376139359
 30
0.0
 10
46.9991224102
 20
147.5745080142
 30
0.0
 10
47.1684647182
 20
147.6085619952
 30
0.0
 10
47.2889821422
 20
147.6280892246
 30
0.0
 10
47.3526151398
 20
147.637432829
 30
0.0
  0
SPLINE
  5
57A
100
AcDbEntity
  8
DEF_LAYER_ASSEM_MEMBER
100
AcDbSpline
 62
7
  6
CONTINUOUS
 70
0
 71
3
 72
9
 73
5
 74
0
 42
0.0000001
 43
0.0000001
 44
0.0000000001
 40
0.0
 40
0.0
 40
0.0
 40
0.0
 40
0.2580766426
 40
1.0
 40
1.0
 40
1.0
 40
1.0
 10
50.4879906056
 20
146.3613964375
 30
0.0
 10
50.5912409591
 20
146.3665375553
 30
0.0
 10
50.9912059319
 20
146.3885766332
 30
0.0
 10
51.3907254378
 20
146.4191311408
 30
0.0
 10
51.6865518836
 20
146.4476058702
 30
0.0
  0
SPLINE
  5
57B
100
AcDbEntity
  8
DEF_LAYER_ASSEM_MEMBER
100
AcDbSpline
 62
7
  6
CONTINUOUS
 70
0
 71
3
 72
9
 73
5
 74
0
 42
0.0000001
 43
0.0000001
 44
0.0000000001
 40
0.0
 40
0.0
 40
0.0
 40
0.0
 40
0.2651496225
 40
1.0
 40
1.0
 40
1.0
 40
1.0
 10
51.8597569643
 20
146.464970688
 30
0.0
 10
51.9510397037
 20
146.4744949699
 30
0.0
 10
52.2950594694
 20
146.5126799515
 30
0.0
 10
52.6381280779
 20
146.5600438584
 30
0.0
 10
52.8889848668
 20
146.602110091
 30
0.0
  0
SPLINE
  5
57C
100
AcDbEntity
  8
DEF_LAYER_ASSEM_MEMBER
100
AcDbSpline
 62
7
  6
CONTINUOUS
 70
0
 71
3
 72
14
 73
10
 74
0
 42
0.0000001
 43
0.0000001
 44
0.0000000001
 40
0.0
 40
0.0
 40
0.0
 40
0.0
 40
0.0573152771
 40
0.1267935325
 40
0.2154559822
 40
0.3263730099
 40
0.4605723064
 40
0.6181902929
 40
1.0
 40
1.0
 40
1.0
 40
1.0
 10
48.1585907567
 20
147.3178558353
 30
0.0
 10
48.158590793
 20
147.3138991379
 30
0.0
 10
48.161118996
 20
147.3051066216
 30
0.0
 10
48.1708298382
 20
147.2935314818
 30
0.0
 10
48.1858498181
 20
147.2824428368
 30
0.0
 10
48.2062919171
 20
147.2716844329
 30
0.0
 10
48.2320905961
 20
147.2612389833
 30
0.0
 10
48.2763702304
 20
147.2469420597
 30
0.0
 10
48.3127006116
 20
147.2384708933
 30
0.0
 10
48.3385310158
 20
147.2332245
 30
0.0
  0
SPLINE
  5
57D
100
AcDbEntity
  8
DEF_LAYER_ASSEM_MEMBER
100
AcDbSpline
 62
7
  6
CONTINUOUS
 70
0
 71
3
 72
9
 73
5
 74
0
 42
0.0000001
 43
0.0000001
 44
0.0000000001
 40
0.0
 40
0.0
 40
0.0
 40
0.0
 40
0.5341154568
 40
1.0
 40
1.0
 40
1.0
 40
1.0
 10
53.0304062231
 20
146.6266676518
 30
0.0
 10
53.172338371
 20
146.6521895796
 30
0.0
 10
53.4372322046
 20
146.7048421929
 30
0.0
 10
53.6993192252
 20
146.7704681303
 30
0.0
 10
53.8201605694
 20
146.8053912015
 30
0.0
  0
SPLINE
  5
57E
100
AcDbEntity
  8
DEF_LAYER_ASSEM_MEMBER
100
AcDbSpline
 62
7
  6
CONTINUOUS
 70
0
 71
3
 72
12
 73
8
 74
0
 42
0.0000001
 43
0.0000001
 44
0.0000000001
 40
0.0
 40
0.0
 40
0.0
 40
0.0
 40
0.3078121008
 40
0.5091295275
 40
0.6882943889
 40
0.8498264114
 40
1.0
 40
1.0
 40
1.0
 40
1.0
 10
54.4683847151
 20
147.0771421818
 30
0.0
 10
54.4926745097
 20
147.0940591399
 30
0.0
 10
54.5315150357
 20
147.1241603276
 30
0.0
 10
54.5780181199
 20
147.1714964559
 30
0.0
 10
54.6089101187
 20
147.2137712236
 30
0.0
 10
54.6294962283
 20
147.2565860071
 30
0.0
 10
54.6362737745
 20
147.2861222027
 30
0.0
 10
54.6377180906
 20
147.3004910176
 30
0.0
  0
SPLINE
  5
57F
100
AcDbEntity
  8
DEF_LAYER_ASSEM_MEMBER
100
AcDbSpline
 62
7
  6
CONTINUOUS
 70
0
 71
3
 72
10
 73
6
 74
0
 42
0.0000001
 43
0.0000001
 44
0.0000000001
 40
0.0
 40
0.0
 40
0.0
 40
0.0
 40
0.5561903199
 40
0.792132725
 40
1.0
 40
1.0
 40
1.0
 40
1.0
 10
53.9201605694
 20
146.8354679481
 30
0.0
 10
54.0155858075
 20
146.8653617466
 30
0.0
 10
54.1503264689
 20
146.9124002119
 30
0.0
 10
54.3143314628
 20
146.9862937012
 30
0.0
 10
54.3846531135
 20
147.0242367438
 30
0.0
 10
54.4166209061
 20
147.0435959299
 30
0.0
  0
SPLINE
  5
580
100
AcDbEntity
  8
DEF_LAYER_ASSEM_MEMBER
100
AcDbSpline
 62
7
  6
CONTINUOUS
 70
0
 71
3
 72
11
 73
7
 74
0
 42
0.0000001
 43
0.0000001
 44
0.0000000001
 40
0.0
 40
0.0
 40
0.0
 40
0.0
 40
0.3100267465
 40
0.5736290467
 40
0.7990120474
 40
1.0
 40
1.0
 40
1.0
 40
1.0
 10
56.1782723799
 20
147.6381286622
 30
0.0
 10
56.2116834119
 20
147.6152607957
 30
0.0
 10
56.2714310476
 20
147.5696732446
 30
0.0
 10
56.3440761505
 20
147.4939890832
 30
0.0
 10
56.3916398339
 20
147.4163943687
 30
0.0
 10
56.4059144035
 20
147.3613913296
 30
0.0
 10
56.4079240611
 20
147.3352206531
 30
0.0
  0
SPLINE
  5
581
100
AcDbEntity
  8
DEF_LAYER_ASSEM_MEMBER
100
AcDbSpline
 62
7
  6
CONTINUOUS
 70
0
 71
3
 72
10
 73
6
 74
0
 42
0.0000001
 43
0.0000001
 44
0.0000000001
 40
0.0
 40
0.0
 40
0.0
 40
0.0
 40
0.5582110522
 40
0.7936439035
 40
1.0
 40
1.0
 40
1.0
 40
1.0
 10
55.4532039098
 20
147.953940243
 30
0.0
 10
55.583221906
 20
147.9136023546
 30
0.0
 10
55.7665046048
 20
147.8500868501
 30
0.0
 10
55.988886457
 20
147.7496632892
 30
0.0
 10
56.0836446846
 20
147.6980420337
 30
0.0
 10
56.1265085708
 20
147.6716749141
 30
0.0
  0
SPLINE
  5
582
100
AcDbEntity
  8
DEF_LAYER_ASSEM_MEMBER
100
AcDbSpline
 62
7
  6
CONTINUOUS
 70
0
 71
3
 72
9
 73
5
 74
0
 42
0.0000001
 43
0.0000001
 44
0.0000000001
 40
0.0
 40
0.0
 40
0.0
 40
0.0
 40
0.5353549727
 40
1.0
 40
1.0
 40
1.0
 40
1.0
 10
54.2821308689
 20
148.2264037225
 30
0.0
 10
54.4751214723
 20
148.191985432
 30
0.0
 10
54.8344561266
 20
148.1209234234
 30
0.0
 10
55.1898685373
 20
148.0316642853
 30
0.0
 10
55.3532039098
 20
147.9840169896
 30
0.0
  0
SPLINE
  5
583
100
AcDbEntity
  8
DEF_LAYER_ASSEM_MEMBER
100
AcDbSpline
 62
7
  6
CONTINUOUS
 70
0
 71
3
 72
9
 73
5
 74
0
 42
0.0000001
 43
0.0000001
 44
0.0000000001
 40
0.0
 40
0.0
 40
0.0
 40
0.0
 40
0.5215103823
 40
1.0
 40
1.0
 40
1.0
 40
1.0
 10
52.7448599496
 20
148.436951165
 30
0.0
 10
52.9883881582
 20
148.4117783535
 30
0.0
 10
53.4547530295
 20
148.3574040874
 30
0.0
 10
53.9192236078
 20
148.2884096966
 30
0.0
 10
54.1407095127
 20
148.2509612833
 30
0.0
  0
SPLINE
  5
584
100
AcDbEntity
  8
DEF_LAYER_ASSEM_MEMBER
100
AcDbSpline
 62
7
  6
CONTINUOUS
 70
0
 71
3
 72
9
 73
5
 74
0
 42
0.0000001
 43
0.0000001
 44
0.0000000001
 40
0.0
 40
0.0
 40
0.0
 40
0.0
 40
0.2583539345
 40
1.0
 40
1.0
 40
1.0
 40
1.0
 10
50.9461536246
 20
148.5712341102
 30
0.0
 10
51.0863391203
 20
148.5643622804
 30
0.0
 10
51.6287950251
 20
148.5347929395
 30
0.0
 10
52.1706365146
 20
148.4932917811
 30
0.0
 10
52.5716548688
 20
148.4543159828
 30
0.0
  0
SPLINE
  5
585
100
AcDbEntity
  8
DEF_LAYER_ASSEM_MEMBER
100
AcDbSpline
 62
7
  6
CONTINUOUS
 70
0
 71
3
 72
9
 73
5
 74
0
 42
0.0000001
 43
0.0000001
 44
0.0000000001
 40
0.0
 40
0.0
 40
0.0
 40
0.0
 40
0.2407272268
 40
1.0
 40
1.0
 40
1.0
 40
1.0
 10
45.2455266459
 20
148.4543159828
 30
0.0
 10
45.3756915363
 20
148.4669669761
 30
0.0
 10
45.9167592854
 20
148.5158666484
 30
0.0
 10
46.4590376578
 20
148.5510385347
 30
0.0
 10
46.8710278902
 20
148.5712341102
 30
0.0
  0
SPLINE
  5
586
100
AcDbEntity
  8
DEF_LAYER_ASSEM_MEMBER
100
AcDbSpline
 62
7
  6
CONTINUOUS
 70
0
 71
3
 72
9
 73
5
 74
0
 42
0.0000001
 43
0.0000001
 44
0.0000000001
 40
0.0
 40
0.0
 40
0.0
 40
0.0
 40
0.4784893569
 40
1.0
 40
1.0
 40
1.0
 40
1.0
 10
43.676472002
 20
148.2509612833
 30
0.0
 10
43.8979577862
 20
148.2884096762
 30
0.0
 10
44.3624283636
 20
148.3574040719
 30
0.0
 10
44.8287932347
 20
148.4117783409
 30
0.0
 10
45.0723215651
 20
148.436951165
 30
0.0
  0
SPLINE
  5
587
100
AcDbEntity
  8
DEF_LAYER_ASSEM_MEMBER
100
AcDbSpline
 62
7
  6
CONTINUOUS
 70
0
 71
3
 72
9
 73
5
 74
0
 42
0.0000001
 43
0.0000001
 44
0.0000000001
 40
0.0
 40
0.0
 40
0.0
 40
0.0
 40
0.464644696
 40
1.0
 40
1.0
 40
1.0
 40
1.0
 10
42.4639776049
 20
147.9840169896
 30
0.0
 10
42.627312861
 20
148.0316642513
 30
0.0
 10
42.982725269
 20
148.1209233984
 30
0.0
 10
43.342059923
 20
148.1919854107
 30
0.0
 10
43.5350506458
 20
148.2264037225
 30
0.0
  0
SPLINE
  5
588
100
AcDbEntity
  8
DEF_LAYER_ASSEM_MEMBER
100
AcDbSpline
 62
7
  6
CONTINUOUS
 70
0
 71
3
 72
10
 73
6
 74
0
 42
0.0000001
 43
0.0000001
 44
0.0000000001
 40
0.0
 40
0.0
 40
0.0
 40
0.0
 40
0.2063558752
 40
0.4417885679
 40
1.0
 40
1.0
 40
1.0
 40
1.0
 10
41.6906729439
 20
147.6716749141
 30
0.0
 10
41.7335367843
 20
147.6980420055
 30
0.0
 10
41.8282949074
 20
147.7496632593
 30
0.0
 10
42.0506767839
 20
147.8500867723
 30
0.0
 10
42.23395952
 20
147.9136023271
 30
0.0
 10
42.3639776049
 20
147.953940243
 30
0.0
  0
SPLINE
  5
589
100
AcDbEntity
  8
DEF_LAYER_ASSEM_MEMBER
100
AcDbSpline
 62
7
  6
CONTINUOUS
 70
0
 71
3
 72
11
 73
7
 74
0
 42
0.0000001
 43
0.0000001
 44
0.0000000001
 40
0.0
 40
0.0
 40
0.0
 40
0.0
 40
0.2009877455
 40
0.4263705799
 40
0.6899731283
 40
1.0
 40
1.0
 40
1.0
 40
1.0
 10
41.4092574537
 20
147.3352206531
 30
0.0
 10
41.4112671092
 20
147.3613913032
 30
0.0
 10
41.4255415707
 20
147.4163943199
 30
0.0
 10
41.4731053133
 20
147.4939890001
 30
0.0
 10
41.5457504476
 20
147.5696731558
 30
0.0
 10
41.6054980885
 20
147.6152607859
 30
0.0
 10
41.6389091349
 20
147.6381286622
 30
0.0
  0
SPLINE
  5
58A
100
AcDbEntity
  8
DEF_LAYER_ASSEM_MEMBER
100
AcDbSpline
 62
7
  6
CONTINUOUS
 70
0
 71
3
 72
10
 73
6
 74
0
 42
0.0000001
 43
0.0000001
 44
0.0000000001
 40
0.0
 40
0.0
 40
0.0
 40
0.0
 40
0.2078676515
 40
0.4438103307
 40
1.0
 40
1.0
 40
1.0
 40
1.0
 10
54.4166209061
 20
147.5921157408
 30
0.0
 10
54.3846530557
 20
147.6114749619
 30
0.0
 10
54.3143312744
 20
147.6494180085
 30
0.0
 10
54.1503263095
 20
147.7233115553
 30
0.0
 10
54.0155856955
 20
147.7703499591
 30
0.0
 10
53.9201605694
 20
147.8002437225
 30
0.0
  0
SPLINE
  5
58B
100
AcDbEntity
  8
DEF_LAYER_ASSEM_MEMBER
100
AcDbSpline
 62
7
  6
CONTINUOUS
 70
0
 71
3
 72
9
 73
5
 74
0
 42
0.0000001
 43
0.0000001
 44
0.0000000001
 40
0.0
 40
0.0
 40
0.0
 40
0.0
 40
0.4658851434
 40
1.0
 40
1.0
 40
1.0
 40
1.0
 10
53.8201605694
 20
147.8303204692
 30
0.0
 10
53.6993190696
 20
147.8652435854
 30
0.0
 10
53.4372320456
 20
147.9308695113
 30
0.0
 10
53.1723382115
 20
147.9835221198
 30
0.0
 10
53.0304062231
 20
148.0090440188
 30
0.0
  0
SPLINE
  5
58C
100
AcDbEntity
  8
DEF_LAYER_ASSEM_MEMBER
100
AcDbSpline
 62
7
  6
CONTINUOUS
 70
0
 71
3
 72
9
 73
5
 74
0
 42
0.0000001
 43
0.0000001
 44
0.0000000001
 40
0.0
 40
0.0
 40
0.0
 40
0.0
 40
0.2340349884
 40
1.0
 40
1.0
 40
1.0
 40
1.0
 10
52.8889848668
 20
148.0336015796
 30
0.0
 10
52.809091458
 20
148.0469989237
 30
0.0
 10
52.4671739059
 20
148.1009938633
 30
0.0
 10
52.1234567692
 20
148.1432270047
 30
0.0
 10
51.8597569643
 20
148.1707409827
 30
0.0
  0
SPLINE
  5
58D
100
AcDbEntity
  8
DEF_LAYER_ASSEM_MEMBER
100
AcDbSpline
 62
7
  6
CONTINUOUS
 70
0
 71
3
 72
9
 73
5
 74
0
 42
0.0000001
 43
0.0000001
 44
0.0000000001
 40
0.0
 40
0.0
 40
0.0
 40
0.0
 40
0.2410681409
 40
1.0
 40
1.0
 40
1.0
 40
1.0
 10
51.6865518836
 20
148.1881058005
 30
0.0
 10
51.5904307796
 20
148.1973579226
 30
0.0
 10
51.1914536468
 20
148.2331512235
 30
0.0
 10
50.791621956
 20
148.2591965967
 30
0.0
 10
50.4879906056
 20
148.2743152332
 30
0.0
  0
SPLINE
  5
58E
100
AcDbEntity
  8
DEF_LAYER_ASSEM_MEMBER
100
AcDbSpline
 62
7
  6
CONTINUOUS
 70
0
 71
3
 72
9
 73
5
 74
0
 42
0.0000001
 43
0.0000001
 44
0.0000000001
 40
0.0
 40
0.0
 40
0.0
 40
0.0
 40
0.2580767189
 40
1.0
 40
1.0
 40
1.0
 40
1.0
 10
47.3291909091
 20
148.2743152332
 30
0.0
 10
47.2259405251
 20
148.2691741138
 30
0.0
 10
46.8259755528
 20
148.2471350284
 30
0.0
 10
46.4264560465
 20
148.2165805269
 30
0.0
 10
46.1306296311
 20
148.1881058005
 30
0.0
  0
SPLINE
  5
58F
100
AcDbEntity
  8
DEF_LAYER_ASSEM_MEMBER
100
AcDbSpline
 62
7
  6
CONTINUOUS
 70
0
 71
3
 72
9
 73
5
 74
0
 42
0.0000001
 43
0.0000001
 44
0.0000000001
 40
0.0
 40
0.0
 40
0.0
 40
0.0
 40
0.2651496723
 40
1.0
 40
1.0
 40
1.0
 40
1.0
 10
45.9574245504
 20
148.1707409827
 30
0.0
 10
45.8661417939
 20
148.161216699
 30
0.0
 10
45.5221220288
 20
148.1230317117
 30
0.0
 10
45.1790534198
 20
148.0756678094
 30
0.0
 10
44.9281966479
 20
148.0336015796
 30
0.0
  0
SPLINE
  5
590
100
AcDbEntity
  8
DEF_LAYER_ASSEM_MEMBER
100
AcDbSpline
 62
7
  6
CONTINUOUS
 70
0
 71
3
 72
9
 73
5
 74
0
 42
0.0000001
 43
0.0000001
 44
0.0000000001
 40
0.0
 40
0.0
 40
0.0
 40
0.0
 40
0.5341155245
 40
1.0
 40
1.0
 40
1.0
 40
1.0
 10
44.7867752917
 20
148.0090440188
 30
0.0
 10
44.6448431257
 20
147.9835220879
 30
0.0
 10
44.3799492922
 20
147.930869474
 30
0.0
 10
44.1178622719
 20
147.8652435353
 30
0.0
 10
43.9970209453
 20
147.8303204692
 30
0.0
  0
SPLINE
  5
591
100
AcDbEntity
  8
DEF_LAYER_ASSEM_MEMBER
100
AcDbSpline
 62
7
  6
CONTINUOUS
 70
0
 71
3
 72
10
 73
6
 74
0
 42
0.0000001
 43
0.0000001
 44
0.0000000001
 40
0.0
 40
0.0
 40
0.0
 40
0.0
 40
0.5561904084
 40
0.7921327763
 40
1.0
 40
1.0
 40
1.0
 40
1.0
 10
43.8970209453
 20
147.8002437225
 30
0.0
 10
43.801595692
 20
147.7703499193
 30
0.0
 10
43.6668550241
 20
147.7233114456
 30
0.0
 10
43.5028500262
 20
147.6494179642
 30
0.0
 10
43.4325283933
 20
147.6114749222
 30
0.0
 10
43.4005606086
 20
147.5921157408
 30
0.0
  0
SPLINE
  5
592
100
AcDbEntity
  8
DEF_LAYER_ASSEM_MEMBER
100
AcDbSpline
 62
7
  6
CONTINUOUS
 70
0
 71
3
 72
12
 73
8
 74
0
 42
0.0000001
 43
0.0000001
 44
0.0000000001
 40
0.0
 40
0.0
 40
0.0
 40
0.0
 40
0.3078121547
 40
0.5091296614
 40
0.688294537
 40
0.8498264656
 40
1.0
 40
1.0
 40
1.0
 40
1.0
 10
43.3487967996
 20
147.5585694889
 30
0.0
 10
43.3245070005
 20
147.5416525276
 30
0.0
 10
43.2856664709
 20
147.5115513216
 30
0.0
 10
43.2391633831
 20
147.4642151789
 30
0.0
 10
43.2082713609
 20
147.4219404273
 30
0.0
 10
43.1876852674
 20
147.379125647
 30
0.0
 10
43.1809077397
 20
147.3495894629
 30
0.0
 10
43.1794634242
 20
147.3352206531
 30
0.0
  0
SPLINE
  5
593
100
AcDbEntity
  8
DEF_LAYER_ASSEM_MEMBER
100
AcDbSpline
 62
7
  6
CONTINUOUS
 70
0
 71
3
 72
13
 73
9
 74
0
 42
0.0000001
 43
0.0000001
 44
0.0000000001
 40
0.0
 40
0.0
 40
0.0
 40
0.0
 40
0.0689803689
 40
0.1600736226
 40
0.2711364563
 40
0.3991694718
 40
0.6906484746
 40
1.0
 40
1.0
 40
1.0
 40
1.0
 10
49.6156975385
 20
147.3612678798
 30
0.0
 10
49.5980918604
 20
147.36991493
 30
0.0
 10
49.5549429381
 20
147.3851281953
 30
0.0
 10
49.4799754143
 20
147.4032294643
 30
0.0
 10
49.3873386855
 20
147.4189583001
 30
0.0
 10
49.2374933796
 20
147.4368104419
 30
0.0
 10
49.0304095928
 20
147.4488918909
 30
0.0
 10
48.8594556066
 20
147.4487386338
 30
0.0
 10
48.7715372646
 20
147.4459011559
 30
0.0
  0
SPLINE
  5
594
100
AcDbEntity
  8
DEF_LAYER_ASSEM_MEMBER
100
AcDbSpline
 62
7
  6
CONTINUOUS
 70
0
 71
3
 72
14
 73
10
 74
0
 42
0.0000001
 43
0.0000001
 44
0.0000000001
 40
0.0
 40
0.0
 40
0.0
 40
0.0
 40
0.3817911006
 40
0.5394016939
 40
0.6736058782
 40
0.7845323891
 40
0.8732017175
 40
0.9426827054
 40
1.0
 40
1.0
 40
1.0
 40
1.0
 10
48.338523617
 20
147.402489396
 30
0.0
 10
48.3126952827
 20
147.3972434231
 30
0.0
 10
48.2763681507
 20
147.3887710533
 30
0.0
 10
48.2320921166
 20
147.3744725948
 30
0.0
 10
48.2062938989
 20
147.3640271455
 30
0.0
 10
48.185850813
 20
147.3532690928
 30
0.0
 10
48.1708296937
 20
147.3421807114
 30
0.0
 10
48.1611186052
 20
147.3306052098
 30
0.0
 10
48.1585907204
 20
147.3218125478
 30
0.0
 10
48.1585907567
 20
147.3178558353
 30
0.0
  0
SPLINE
  5
595
100
AcDbEntity
  8
DEF_LAYER_ASSEM_MEMBER
100
AcDbSpline
 62
7
  6
CONTINUOUS
 70
0
 71
3
 72
24
 73
20
 74
0
 42
0.0000001
 43
0.0000001
 44
0.0000000001
 40
0.0
 40
0.0
 40
0.0
 40
0.0
 40
0.0085384813
 40
0.0176336109
 40
0.0277471755
 40
0.0392092957
 40
0.0522401678
 40
0.0669801556
 40
0.1018599204
 40
0.1441595765
 40
0.1938314697
 40
0.2506483003
 40
0.3142543403
 40
0.3841968276
 40
0.4599509916
 40
0.5409218164
 40
0.6264647904
 40
0.8084515454
 40
1.0
 40
1.0
 40
1.0
 40
1.0
 10
40.8086013834
 20
147.6132981612
 30
0.0
 10
40.8086013834
 20
147.6351329847
 30
0.0
 10
40.8148215169
 20
147.6804214659
 30
0.0
 10
40.8420964827
 20
147.7465835
 30
0.0
 10
40.8866521593
 20
147.8116799886
 30
0.0
 10
40.9480318199
 20
147.875837746
 30
0.0
 10
41.0260736807
 20
147.9392093036
 30
0.0
 10
41.1599024029
 20
148.0276399382
 30
0.0
 10
41.3706388465
 20
148.1333729109
 30
0.0
 10
41.6735929975
 20
148.250089964
 30
0.0
 10
42.0375584203
 20
148.3618489471
 30
0.0
 10
42.4596201385
 20
148.4676232518
 30
0.0
 10
42.9364108679
 20
148.5664268827
 30
0.0
 10
43.4639465534
 20
148.6573698385
 30
0.0
 10
44.0377902037
 20
148.7396076213
 30
0.0
 10
44.6530852217
 20
148.812430464
 30
0.0
 10
45.5402365089
 20
148.897839992
 30
0.0
 10
46.7119314838
 20
148.975262264
 30
0.0
 10
47.6668464415
 20
149.0058423837
 30
0.0
 10
48.1566149071
 20
149.013770046
 30
0.0
  0
SPLINE
  5
596
100
AcDbEntity
  8
DEF_LAYER_ASSEM_MEMBER
100
AcDbSpline
 62
7
  6
CONTINUOUS
 70
0
 71
3
 72
18
 73
14
 74
0
 42
0.0000001
 43
0.0000001
 44
0.0000000001
 40
0.0
 40
0.0
 40
0.0
 40
0.0
 40
0.0194573192
 40
0.0461452662
 40
0.080782151
 40
0.1233889455
 40
0.1736296987
 40
0.2309673301
 40
0.3640245419
 40
0.5157720386
 40
0.6781711432
 40
0.8425097907
 40
1.0
 40
1.0
 40
1.0
 40
1.0
 10
51.30558888
 20
147.2744437909
 30
0.0
 10
51.2940919358
 20
147.2553020983
 30
0.0
 10
51.2545078967
 20
147.2179327702
 30
0.0
 10
51.173673542
 20
147.1722805789
 30
0.0
 10
51.0625461347
 20
147.1280366539
 30
0.0
 10
50.9222574054
 20
147.086227238
 30
0.0
 10
50.7542713547
 20
147.0472658825
 30
0.0
 10
50.4825506286
 20
146.9976078222
 30
0.0
 10
50.0926155049
 20
146.9491290007
 30
0.0
 10
49.5805957372
 20
146.9120490419
 30
0.0
 10
49.0315535017
 20
146.8961496806
 30
0.0
 10
48.4757590067
 20
146.9023539926
 30
0.0
 10
48.1067919662
 20
146.9217189839
 30
0.0
 10
47.926598047
 20
146.935680287
 30
0.0
  0
SPLINE
  5
597
100
AcDbEntity
  8
DEF_LAYER_ASSEM_MEMBER
100
AcDbSpline
 62
7
  6
CONTINUOUS
 70
0
 71
3
 72
17
 73
13
 74
0
 42
0.0000001
 43
0.0000001
 44
0.0000000001
 40
0.0
 40
0.0
 40
0.0
 40
0.0
 40
0.203869572
 40
0.3879155599
 40
0.5496496711
 40
0.6873911213
 40
0.8000272295
 40
0.8873876448
 40
0.92214813
 40
0.9516515653
 40
0.9770109285
 40
1.0
 40
1.0
 40
1.0
 40
1.0
 10
47.4935853451
 20
146.9790923314
 30
0.0
 10
47.4202294185
 20
146.9883315907
 30
0.0
 10
47.2808932293
 20
147.007948855
 30
0.0
 10
47.0845840369
 20
147.0428768203
 30
0.0
 10
46.913452679
 20
147.0814262871
 30
0.0
 10
46.769726179
 20
147.1229746104
 30
0.0
 10
46.65525723
 20
147.1668735884
 30
0.0
 10
46.5797970468
 20
147.2074986318
 30
0.0
 10
46.5368956282
 20
147.2421778364
 30
0.0
 10
46.5152485291
 20
147.266702008
 30
0.0
 10
46.5017630533
 20
147.2918811559
 30
0.0
 10
46.4985907568
 20
147.3095186023
 30
0.0
 10
46.4985907574
 20
147.3178558353
 30
0.0
  0
SPLINE
  5
598
100
AcDbEntity
  8
DEF_LAYER_ASSEM_MEMBER
100
AcDbSpline
 62
7
  6
CONTINUOUS
 70
0
 71
3
 72
12
 73
8
 74
0
 42
0.0000001
 43
0.0000001
 44
0.0000000001
 40
0.0
 40
0.0
 40
0.0
 40
0.0
 40
0.1588789962
 40
0.2575780589
 40
0.3718323003
 40
0.6509259105
 40
1.0
 40
1.0
 40
1.0
 40
1.0
 10
52.0650286231
 20
147.343903062
 30
0.0
 10
52.0590710485
 20
147.3656724239
 30
0.0
 10
52.0379928587
 20
147.3976381568
 30
0.0
 10
51.9992584756
 20
147.4333997747
 30
0.0
 10
51.9421590142
 20
147.4741235267
 30
0.0
 10
51.8477632184
 20
147.5220739566
 30
0.0
 10
51.7641415749
 20
147.5535280383
 30
0.0
 10
51.7171461345
 20
147.569353117
 30
0.0
  0
SPLINE
  5
599
100
AcDbEntity
  8
DEF_LAYER_ASSEM_MEMBER
100
AcDbSpline
 62
7
  6
CONTINUOUS
 70
0
 71
3
 72
10
 73
6
 74
0
 42
0.0000001
 43
0.0000001
 44
0.0000000001
 40
0.0
 40
0.0
 40
0.0
 40
0.0
 40
0.210878223
 40
0.4494960051
 40
1.0
 40
1.0
 40
1.0
 40
1.0
 10
51.5671461345
 20
147.614468237
 30
0.0
 10
51.5016357123
 20
147.632173699
 30
0.0
 10
51.3608163384
 20
147.6655780385
 30
0.0
 10
51.0446662033
 20
147.7259495127
 30
0.0
 10
50.7927780503
 20
147.7598674534
 30
0.0
 10
50.6167175503
 20
147.7795103498
 30
0.0
  0
SPLINE
  5
59A
100
AcDbEntity
  8
DEF_LAYER_ASSEM_MEMBER
100
AcDbSpline
 62
7
  6
CONTINUOUS
 70
0
 71
3
 72
9
 73
5
 74
0
 42
0.0000001
 43
0.0000001
 44
0.0000000001
 40
0.0
 40
0.0
 40
0.0
 40
0.0
 40
0.486061439
 40
1.0
 40
1.0
 40
1.0
 40
1.0
 10
50.3569120055
 20
147.8055582009
 30
0.0
 10
50.1471271806
 20
147.8243437708
 30
0.0
 10
49.7145732155
 20
147.8526532118
 30
0.0
 10
49.2812873643
 20
147.8641285445
 30
0.0
 10
49.0585907574
 20
147.8659662581
 30
0.0
  0
SPLINE
  5
59B
100
AcDbEntity
  8
DEF_LAYER_ASSEM_MEMBER
100
AcDbSpline
 62
7
  6
CONTINUOUS
 70
0
 71
3
 72
9
 73
5
 74
0
 42
0.0000001
 43
0.0000001
 44
0.0000000001
 40
0.0
 40
0.0
 40
0.0
 40
0.0
 40
0.5139421415
 40
1.0
 40
1.0
 40
1.0
 40
1.0
 10
48.7585907574
 20
147.8659664107
 30
0.0
 10
48.5358936449
 20
147.8641286928
 30
0.0
 10
48.1026097333
 20
147.8526549126
 30
0.0
 10
47.670058064
 20
147.8243416612
 30
0.0
 10
47.4602757697
 20
147.805556318
 30
0.0
  0
SPLINE
  5
59C
100
AcDbEntity
  8
DEF_LAYER_ASSEM_MEMBER
100
AcDbSpline
 62
7
  6
CONTINUOUS
 70
0
 71
3
 72
10
 73
6
 74
0
 42
0.0000001
 43
0.0000001
 44
0.0000000001
 40
0.0
 40
0.0
 40
0.0
 40
0.0
 40
0.5505101176
 40
0.7891241769
 40
1.0
 40
1.0
 40
1.0
 40
1.0
 10
47.2004708608
 20
147.7795082756
 30
0.0
 10
47.0244072959
 20
147.7598650373
 30
0.0
 10
46.7725161278
 20
147.7259513271
 30
0.0
 10
46.4563643502
 20
147.6655774702
 30
0.0
 10
46.3155459844
 20
147.6321735571
 30
0.0
 10
46.2500358959
 20
147.6144681853
 30
0.0
  0
SPLINE
  5
59D
100
AcDbEntity
  8
DEF_LAYER_ASSEM_MEMBER
100
AcDbSpline
 62
7
  6
CONTINUOUS
 70
0
 71
3
 72
12
 73
8
 74
0
 42
0.0000001
 43
0.0000001
 44
0.0000000001
 40
0.0
 40
0.0
 40
0.0
 40
0.0
 40
0.3490794785
 40
0.6281756295
 40
0.7424275028
 40
0.8411240548
 40
1.0
 40
1.0
 40
1.0
 40
1.0
 10
46.1000407736
 20
147.5693525763
 30
0.0
 10
46.0530441373
 20
147.5535270948
 30
0.0
 10
45.9694201255
 20
147.5220738497
 30
0.0
 10
45.8750217264
 20
147.4741240697
 30
0.0
 10
45.8179223986
 20
147.4333994751
 30
0.0
 10
45.7791887991
 20
147.3976378417
 30
0.0
 10
45.7581113993
 20
147.3656722238
 30
0.0
 10
45.7521538796
 20
147.343903062
 30
0.0
  0
SPLINE
  5
59E
100
AcDbEntity
  8
DEF_LAYER_ASSEM_MEMBER
100
AcDbSpline
 62
7
  6
CONTINUOUS
 70
0
 71
3
 72
11
 73
7
 74
0
 42
0.0000001
 43
0.0000001
 44
0.0000000001
 40
0.0
 40
0.0
 40
0.0
 40
0.0
 40
0.3100268342
 40
0.573629308
 40
0.7990121922
 40
1.0
 40
1.0
 40
1.0
 40
1.0
 10
41.6389091349
 20
146.9975830085
 30
0.0
 10
41.6054980928
 20
147.0204508818
 30
0.0
 10
41.5457504534
 20
147.0660384883
 30
0.0
 10
41.4731053285
 20
147.1417226456
 30
0.0
 10
41.4255416038
 20
147.2193173361
 30
0.0
 10
41.4112671098
 20
147.2743203595
 30
0.0
 10
41.4092574537
 20
147.3004910176
 30
0.0
  0
SPLINE
  5
59F
100
AcDbEntity
  8
DEF_LAYER_ASSEM_MEMBER
100
AcDbSpline
 62
7
  6
CONTINUOUS
 70
0
 71
3
 72
10
 73
6
 74
0
 42
0.0000001
 43
0.0000001
 44
0.0000000001
 40
0.0
 40
0.0
 40
0.0
 40
0.0
 40
0.5582113084
 40
0.7936440527
 40
1.0
 40
1.0
 40
1.0
 40
1.0
 10
42.3639776049
 20
146.6817714277
 30
0.0
 10
42.2339595489
 20
146.7221093346
 30
0.0
 10
42.0506768249
 20
146.785624873
 30
0.0
 10
41.8282949564
 20
146.8860484017
 30
0.0
 10
41.7335367992
 20
146.937669656
 30
0.0
 10
41.6906729439
 20
146.9640367566
 30
0.0
  0
SPLINE
  5
5A0
100
AcDbEntity
  8
DEF_LAYER_ASSEM_MEMBER
100
AcDbSpline
 62
7
  6
CONTINUOUS
 70
0
 71
3
 72
9
 73
5
 74
0
 42
0.0000001
 43
0.0000001
 44
0.0000000001
 40
0.0
 40
0.0
 40
0.0
 40
0.0
 40
0.53535518
 40
1.0
 40
1.0
 40
1.0
 40
1.0
 10
43.5350506458
 20
146.4093079481
 30
0.0
 10
43.3420599677
 20
146.443726252
 30
0.0
 10
42.9827253136
 20
146.5147882629
 30
0.0
 10
42.6273129045
 20
146.6040474066
 30
0.0
 10
42.4639776049
 20
146.6516946811
 30
0.0
  0
SPLINE
  5
5A1
100
AcDbEntity
  8
DEF_LAYER_ASSEM_MEMBER
100
AcDbSpline
 62
7
  6
CONTINUOUS
 70
0
 71
3
 72
9
 73
5
 74
0
 42
0.0000001
 43
0.0000001
 44
0.0000000001
 40
0.0
 40
0.0
 40
0.0
 40
0.0
 40
0.5215105199
 40
1.0
 40
1.0
 40
1.0
 40
1.0
 10
45.0723215651
 20
146.1987605056
 30
0.0
 10
44.8287932922
 20
146.2239333239
 30
0.0
 10
44.3624284211
 20
146.2783075915
 30
0.0
 10
43.8979578432
 20
146.3473019848
 30
0.0
 10
43.676472002
 20
146.3847503874
 30
0.0
  0
SPLINE
  5
5A2
100
AcDbEntity
  8
DEF_LAYER_ASSEM_MEMBER
100
AcDbSpline
 62
7
  6
CONTINUOUS
 70
0
 71
3
 72
9
 73
5
 74
0
 42
0.0000001
 43
0.0000001
 44
0.0000000001
 40
0.0
 40
0.0
 40
0.0
 40
0.0
 40
0.258353991
 40
1.0
 40
1.0
 40
1.0
 40
1.0
 10
46.8710278902
 20
146.0644775605
 30
0.0
 10
46.7308423638
 20
146.0713493918
 30
0.0
 10
46.1883864594
 20
146.1009187405
 30
0.0
 10
45.6465449696
 20
146.1424198925
 30
0.0
 10
45.2455266459
 20
146.1813956879
 30
0.0
  0
SPLINE
  5
5A3
100
AcDbEntity
  8
DEF_LAYER_ASSEM_MEMBER
100
AcDbSpline
 62
7
  6
CONTINUOUS
 70
0
 71
3
 72
9
 73
5
 74
0
 42
0.0000001
 43
0.0000001
 44
0.0000000001
 40
0.0
 40
0.0
 40
0.0
 40
0.0
 40
0.2407272426
 40
1.0
 40
1.0
 40
1.0
 40
1.0
 10
52.5716548688
 20
146.1813956879
 30
0.0
 10
52.4414899698
 20
146.1687446937
 30
0.0
 10
51.9004222206
 20
146.1198450238
 30
0.0
 10
51.3581438483
 20
146.0846731356
 30
0.0
 10
50.9461536246
 20
146.0644775605
 30
0.0
  0
SPLINE
  5
5A4
100
AcDbEntity
  8
DEF_LAYER_ASSEM_MEMBER
100
AcDbSpline
 62
7
  6
CONTINUOUS
 70
0
 71
3
 72
9
 73
5
 74
0
 42
0.0000001
 43
0.0000001
 44
0.0000000001
 40
0.0
 40
0.0
 40
0.0
 40
0.0
 40
0.4784893916
 40
1.0
 40
1.0
 40
1.0
 40
1.0
 10
54.1407095127
 20
146.3847503874
 30
0.0
 10
53.9192237124
 20
146.3473019918
 30
0.0
 10
53.4547531349
 20
146.2783075967
 30
0.0
 10
52.9883882638
 20
146.2239333281
 30
0.0
 10
52.7448599496
 20
146.1987605056
 30
0.0
  0
SPLINE
  5
5A5
100
AcDbEntity
  8
DEF_LAYER_ASSEM_MEMBER
100
AcDbSpline
 62
7
  6
CONTINUOUS
 70
0
 71
3
 72
9
 73
5
 74
0
 42
0.0000001
 43
0.0000001
 44
0.0000000001
 40
0.0
 40
0.0
 40
0.0
 40
0.0
 40
0.4646447389
 40
1.0
 40
1.0
 40
1.0
 40
1.0
 10
55.3532039098
 20
146.6516946811
 30
0.0
 10
55.1898686387
 20
146.604047415
 30
0.0
 10
54.8344562303
 20
146.514788269
 30
0.0
 10
54.4751215763
 20
146.4437262572
 30
0.0
 10
54.2821308689
 20
146.4093079481
 30
0.0
  0
SPLINE
  5
5A6
100
AcDbEntity
  8
DEF_LAYER_ASSEM_MEMBER
100
AcDbSpline
 62
7
  6
CONTINUOUS
 70
0
 71
3
 72
11
 73
7
 74
0
 42
0.0000001
 43
0.0000001
 44
0.0000000001
 40
0.0
 40
0.0
 40
0.0
 40
0.0
 40
0.2009878
 40
0.4263706781
 40
0.6899731611
 40
1.0
 40
1.0
 40
1.0
 40
1.0
 10
56.4079240611
 20
147.3004910176
 30
0.0
 10
56.405914405
 20
147.2743203605
 30
0.0
 10
56.391639915
 20
147.2193173379
 30
0.0
 10
56.3440761881
 20
147.1417226487
 30
0.0
 10
56.271431062
 20
147.0660384916
 30
0.0
 10
56.2116834224
 20
147.0204508822
 30
0.0
 10
56.1782723799
 20
146.9975830085
 30
0.0
  0
SPLINE
  5
5A7
100
AcDbEntity
  8
DEF_LAYER_ASSEM_MEMBER
100
AcDbSpline
 62
7
  6
CONTINUOUS
 70
0
 71
3
 72
10
 73
6
 74
0
 42
0.0000001
 43
0.0000001
 44
0.0000000001
 40
0.0
 40
0.0
 40
0.0
 40
0.0
 40
0.2063559082
 40
0.4417886244
 40
1.0
 40
1.0
 40
1.0
 40
1.0
 10
56.1265085708
 20
146.9640367566
 30
0.0
 10
56.0836447236
 20
146.937669661
 30
0.0
 10
55.9888865849
 20
146.886048407
 30
0.0
 10
55.7665047121
 20
146.7856248868
 30
0.0
 10
55.5832219815
 20
146.7221093395
 30
0.0
 10
55.4532039098
 20
146.6817714277
 30
0.0
  0
SPLINE
  5
5A8
100
AcDbEntity
  8
DEF_LAYER_ASSEM_MEMBER
100
AcDbSpline
 62
7
  6
CONTINUOUS
 70
0
 71
3
 72
27
 73
23
 74
0
 42
0.0000001
 43
0.0000001
 44
0.0000000001
 40
0.0
 40
0.0
 40
0.0
 40
0.0
 40
0.0120485312
 40
0.0225652715
 40
0.0320558125
 40
0.0412122869
 40
0.0508011622
 40
0.0614939501
 40
0.0737703841
 40
0.0879382342
 40
0.1041833298
 40
0.1226065892
 40
0.1661487232
 40
0.218630928
 40
0.2797792828
 40
0.3491193961
 40
0.42603236
 40
0.509788924
 40
0.5995654237
 40
0.694462294
 40
0.7935127617
 40
1.0
 40
1.0
 40
1.0
 40
1.0
 10
41.2308113987
 20
147.0790289675
 30
0.0
 10
41.2087967556
 20
147.1003722199
 30
0.0
 10
41.1701482742
 20
147.143265943
 30
0.0
 10
41.1280062243
 20
147.2138939526
 30
0.0
 10
41.1070810341
 20
147.2861371787
 30
0.0
 10
41.1085638472
 20
147.3591045544
 30
0.0
 10
41.132342434
 20
147.4311537081
 30
0.0
 10
41.1771852693
 20
147.5015897764
 30
0.0
 10
41.242221553
 20
147.5707224914
 30
0.0
 10
41.3272126888
 20
147.6388141897
 30
0.0
 10
41.4320237723
 20
147.7059308804
 30
0.0
 10
41.6079950305
 20
147.7992964252
 30
0.0
 10
41.8781429917
 20
147.9098178719
 30
0.0
 10
42.2597300297
 20
148.0305582863
 30
0.0
 10
42.7115147178
 20
148.1442584667
 30
0.0
 10
43.2288402017
 20
148.2496480903
 30
0.0
 10
43.8064036537
 20
148.3454877778
 30
0.0
 10
44.4381278633
 20
148.4306851919
 30
0.0
 10
45.1173481165
 20
148.5042780113
 30
0.0
 10
45.836862496
 20
148.565457826
 30
0.0
 10
46.8539062062
 20
148.6304511145
 30
0.0
 10
47.6312530369
 20
148.6571660863
 30
0.0
 10
48.1566686769
 20
148.6659997496
 30
0.0
  0
SPLINE
  5
5A9
100
AcDbEntity
  8
DEF_LAYER_ASSEM_MEMBER
100
AcDbSpline
 62
7
  6
CONTINUOUS
 70
0
 71
3
 72
25
 73
21
 74
0
 42
0.0000001
 43
0.0000001
 44
0.0000000001
 40
0.0
 40
0.0
 40
0.0
 40
0.0
 40
0.1876268691
 40
0.3682542837
 40
0.4538474664
 40
0.5352237629
 40
0.6116431062
 40
0.6824234523
 40
0.7469477239
 40
0.8046798929
 40
0.8551882494
 40
0.898167877
 40
0.9167950823
 40
0.9335198158
 40
0.9483814008
 40
0.9614531526
 40
0.9728679447
 40
0.982845356
 40
0.9917255447
 40
1.0
 40
1.0
 40
1.0
 40
1.0
 10
48.9085907574
 20
149.0198484003
 30
0.0
 10
49.4354276098
 20
149.0198483992
 30
0.0
 10
50.4695264546
 20
149.002474364
 30
0.0
 10
51.7425015998
 20
148.9367984231
 30
0.0
 10
52.7153442705
 20
148.8573793186
 30
0.0
 10
53.3951878624
 20
148.7870583738
 30
0.0
 10
54.0318901458
 20
148.7056340911
 30
0.0
 10
54.6193648553
 20
148.6139335276
 30
0.0
 10
55.1520030652
 20
148.5128864772
 30
0.0
 10
55.6248010982
 20
148.403543025
 30
0.0
 10
56.0333143889
 20
148.2870304104
 30
0.0
 10
56.3300061892
 20
148.1805622119
 30
0.0
 10
56.5309292524
 20
148.090828403
 30
0.0
 10
56.6560661547
 20
148.0256391507
 30
0.0
 10
56.7627596279
 20
147.959478988
 30
0.0
 10
56.8508243054
 20
147.8923993143
 30
0.0
 10
56.9201288373
 20
147.8243999798
 30
0.0
 10
56.9705209411
 20
147.7553157405
 30
0.0
 10
57.0014833993
 20
147.6849293861
 30
0.0
 10
57.0085801313
 20
147.6365319763
 30
0.0
 10
57.0085801313
 20
147.6132981612
 30
0.0
  0
SPLINE
  5
5AA
100
AcDbEntity
  8
DEF_LAYER_ASSEM_MEMBER
100
AcDbSpline
 62
7
  6
CONTINUOUS
 70
0
 71
3
 72
28
 73
24
 74
0
 42
0.0000001
 43
0.0000001
 44
0.0000000001
 40
0.0
 40
0.0
 40
0.0
 40
0.0
 40
0.2016520376
 40
0.2995571415
 40
0.3940139386
 40
0.4839325223
 40
0.5682940658
 40
0.6461587491
 40
0.7166780518
 40
0.7791218487
 40
0.832907416
 40
0.8564274596
 40
0.8776597334
 40
0.8966017841
 40
0.9132894665
 40
0.9278026103
 40
0.9402967655
 40
0.9510492967
 40
0.9605128949
 40
0.9693616228
 40
0.9784142873
 40
0.988438783
 40
1.0
 40
1.0
 40
1.0
 40
1.0
 10
48.9085907574
 20
148.6723116211
 30
0.0
 10
49.4723143509
 20
148.6723116214
 30
0.0
 10
50.3098653492
 20
148.6567612604
 30
0.0
 10
51.410111556
 20
148.6035909598
 30
0.0
 10
52.19740828
 20
148.5489703591
 30
0.0
 10
52.9455592233
 20
148.4799083308
 30
0.0
 10
53.6456637063
 20
148.3972662394
 30
0.0
 10
54.2894171762
 20
148.3020847256
 30
0.0
 10
54.8692474162
 20
148.1955850767
 30
0.0
 10
55.3783265332
 20
148.0791038135
 30
0.0
 10
55.7540400826
 20
147.9707858288
 30
0.0
 10
56.0136239258
 20
147.8783535829
 30
0.0
 10
56.1783618402
 20
147.8105541572
 30
0.0
 10
56.3215869961
 20
147.7413305239
 30
0.0
 10
56.4429678752
 20
147.6708782732
 30
0.0
 10
56.5422737574
 20
147.5993081843
 30
0.0
 10
56.6193366829
 20
147.5265794611
 30
0.0
 10
56.6739818595
 20
147.4524472063
 30
0.0
 10
56.7054040372
 20
147.3763864268
 30
0.0
 10
56.711941421
 20
147.2988290744
 30
0.0
 10
56.6930164606
 20
147.2218198833
 30
0.0
 10
56.6500609459
 20
147.1467683365
 30
0.0
 10
56.6095746869
 20
147.1015258579
 30
0.0
 10
56.586370116
 20
147.0790289675
 30
0.0
  0
SPLINE
  5
5AB
100
AcDbEntity
  8
DEF_LAYER_ASSEM_MEMBER
100
AcDbSpline
 62
7
  6
CONTINUOUS
 70
0
 71
3
 72
14
 73
10
 74
0
 42
0.0000001
 43
0.0000001
 44
0.0000000001
 40
0.0
 40
0.0
 40
0.0
 40
0.0
 40
0.3556020086
 40
0.5051644926
 40
0.6360772026
 40
0.749032704
 40
0.8454098641
 40
0.9276782571
 40
1.0
 40
1.0
 40
1.0
 40
1.0
 10
44.5227410731
 20
146.9082256162
 30
0.0
 10
44.4403815032
 20
146.9348154905
 30
0.0
 10
44.3244581134
 20
146.9766358526
 30
0.0
 10
44.1843660052
 20
147.0427658489
 30
0.0
 10
44.1011379651
 20
147.0903700224
 30
0.0
 10
44.0337165141
 20
147.1387751816
 30
0.0
 10
43.9821945834
 20
147.1880512541
 30
0.0
 10
43.9467544826
 20
147.2383989488
 30
0.0
 10
43.9338598111
 20
147.2744663247
 30
0.0
 10
43.9308503061
 20
147.2918086087
 30
0.0
  0
SPLINE
  5
5AC
100
AcDbEntity
  8
DEF_LAYER_ASSEM_MEMBER
100
AcDbSpline
 62
7
  6
CONTINUOUS
 70
0
 71
3
 72
11
 73
7
 74
0
 42
0.0000001
 43
0.0000001
 44
0.0000000001
 40
0.0
 40
0.0
 40
0.0
 40
0.0
 40
0.2894336109
 40
0.5546426928
 40
0.7924055041
 40
1.0
 40
1.0
 40
1.0
 40
1.0
 10
46.2898167212
 20
146.5823082568
 30
0.0
 10
46.1322189104
 20
146.5992273817
 30
0.0
 10
45.8306162084
 20
146.6356126161
 30
0.0
 10
45.4015645983
 20
146.7012074684
 30
0.0
 10
45.0193424593
 20
146.7747283174
 30
0.0
 10
44.7821913166
 20
146.8323686833
 30
0.0
 10
44.6727410731
 20
146.8631104962
 30
0.0
  0
SPLINE
  5
5AD
100
AcDbEntity
  8
DEF_LAYER_ASSEM_MEMBER
100
AcDbSpline
 62
7
  6
CONTINUOUS
 70
0
 71
3
 72
9
 73
5
 74
0
 42
0.0000001
 43
0.0000001
 44
0.0000000001
 40
0.0
 40
0.0
 40
0.0
 40
0.0
 40
0.5150791249
 40
1.0
 40
1.0
 40
1.0
 40
1.0
 10
48.7585907574
 20
146.4534802771
 30
0.0
 10
48.3788327574
 20
146.4554674523
 30
0.0
 10
47.6415560056
 20
146.4738168331
 30
0.0
 10
46.9056028686
 20
146.5230132966
 30
0.0
 10
46.5496243423
 20
146.5562610302
 30
0.0
  0
SPLINE
  5
5AE
100
AcDbEntity
  8
DEF_LAYER_ASSEM_MEMBER
100
AcDbSpline
 62
7
  6
CONTINUOUS
 70
0
 71
3
 72
9
 73
5
 74
0
 42
0.0000001
 43
0.0000001
 44
0.0000000001
 40
0.0
 40
0.0
 40
0.0
 40
0.0
 40
0.4849205914
 40
1.0
 40
1.0
 40
1.0
 40
1.0
 10
51.2675571724
 20
146.5562610302
 30
0.0
 10
50.9115788544
 20
146.523013316
 30
0.0
 10
50.1756257185
 20
146.4738168418
 30
0.0
 10
49.4383489665
 20
146.4554674534
 30
0.0
 10
49.0585907574
 20
146.4534802771
 30
0.0
  0
SPLINE
  5
5AF
100
AcDbEntity
  8
DEF_LAYER_ASSEM_MEMBER
100
AcDbSpline
 62
7
  6
CONTINUOUS
 70
0
 71
3
 72
11
 73
7
 74
0
 42
0.0000001
 43
0.0000001
 44
0.0000000001
 40
0.0
 40
0.0
 40
0.0
 40
0.0
 40
0.2075942271
 40
0.445357188
 40
0.7105663974
 40
1.0
 40
1.0
 40
1.0
 40
1.0
 10
53.1444404416
 20
146.8631104962
 30
0.0
 10
53.0349903398
 20
146.8323687231
 30
0.0
 10
52.7978392646
 20
146.7747283575
 30
0.0
 10
52.4156171217
 20
146.7012075022
 30
0.0
 10
51.9865653668
 20
146.6356126227
 30
0.0
 10
51.6849625998
 20
146.5992273812
 30
0.0
 10
51.5273647935
 20
146.5823082568
 30
0.0
  0
SPLINE
  5
5B0
100
AcDbEntity
  8
DEF_LAYER_ASSEM_MEMBER
100
AcDbSpline
 62
7
  6
CONTINUOUS
 70
0
 71
3
 72
14
 73
10
 74
0
 42
0.0000001
 43
0.0000001
 44
0.0000000001
 40
0.0
 40
0.0
 40
0.0
 40
0.0
 40
0.0723216849
 40
0.1545900236
 40
0.2509672835
 40
0.3639229411
 40
0.4948357948
 40
0.6443982449
 40
1.0
 40
1.0
 40
1.0
 40
1.0
 10
53.8863312086
 20
147.2918086087
 30
0.0
 10
53.883321706
 20
147.2744663385
 30
0.0
 10
53.8704270881
 20
147.2383989737
 30
0.0
 10
53.8349869652
 20
147.1880512887
 30
0.0
 10
53.7834649833
 20
147.1387752038
 30
0.0
 10
53.7160434742
 20
147.0903699568
 30
0.0
 10
53.6328153594
 20
147.042765779
 30
0.0
 10
53.4927232832
 20
146.976635798
 30
0.0
 10
53.3767999533
 20
146.9348154718
 30
0.0
 10
53.2944404416
 20
146.9082256162
 30
0.0
  0
SPLINE
  5
5B1
100
AcDbEntity
  8
DEF_LAYER_ASSEM_MEMBER
100
AcDbSpline
 62
7
  6
CONTINUOUS
 70
0
 71
3
 72
10
 73
6
 74
0
 42
0.0000001
 43
0.0000001
 44
0.0000000001
 40
0.0
 40
0.0
 40
0.0
 40
0.0
 40
0.2025034783
 40
0.5549150749
 40
1.0
 40
1.0
 40
1.0
 40
1.0
 10
54.6377180906
 20
147.3352206531
 30
0.0
 10
54.6357747023
 20
147.3545545004
 30
0.0
 10
54.6212528539
 20
147.4068222502
 30
0.0
 10
54.5634122847
 20
147.4858614884
 30
0.0
 10
54.5034307947
 20
147.5341611696
 30
0.0
 10
54.4683847151
 20
147.5585694889
 30
0.0
  0
SPLINE
  5
5B2
100
AcDbEntity
  8
DEF_LAYER_ASSEM_MEMBER
100
AcDbSpline
 62
7
  6
CONTINUOUS
 70
0
 71
3
 72
13
 73
9
 74
0
 42
0.0000001
 43
0.0000001
 44
0.0000000001
 40
0.0
 40
0.0
 40
0.0
 40
0.0
 40
0.2859704559
 40
0.5570081862
 40
0.6824914961
 40
0.799098264
 40
0.9053638256
 40
1.0
 40
1.0
 40
1.0
 40
1.0
 10
48.9085907574
 20
149.0717024298
 30
0.0
 10
49.6851574263
 20
149.0717024298
 30
0.0
 10
51.1978961401
 20
149.0417373009
 30
0.0
 10
53.0484518223
 20
148.9282895435
 30
0.0
 10
54.435196521
 20
148.7905246308
 30
0.0
 10
55.3736706678
 20
148.6703891626
 30
0.0
 10
56.2249600932
 20
148.5325668703
 30
0.0
 10
56.7597637837
 20
148.4235561568
 30
0.0
 10
57.0100350042
 20
148.3651803977
 30
0.0
  0
SPLINE
  5
5B3
100
AcDbEntity
  8
DEF_LAYER_ASSEM_MEMBER
100
AcDbSpline
 62
7
  6
CONTINUOUS
 70
0
 71
3
 72
17
 73
13
 74
0
 42
0.0000001
 43
0.0000001
 44
0.0000000001
 40
0.0
 40
0.0
 40
0.0
 40
0.0
 40
0.1996489307
 40
0.3775982862
 40
0.5331909863
 40
0.6661500034
 40
0.7767922906
 40
0.8664493567
 40
0.9044041712
 40
0.9386076652
 40
0.9700454218
 40
1.0
 40
1.0
 40
1.0
 40
1.0
 10
57.0100350042
 20
148.3651803977
 30
0.0
 10
57.1627715271
 20
148.3295546056
 30
0.0
 10
57.4505245907
 20
148.2571698687
 30
0.0
 10
57.8518942579
 20
148.1367986632
 30
0.0
 10
58.1965397993
 20
148.0115345871
 30
0.0
 10
58.4826960579
 20
147.8821352428
 30
0.0
 10
58.7089378101
 20
147.749392038
 30
0.0
 10
58.8549219235
 20
147.6298808136
 30
0.0
 10
58.9360950343
 20
147.531524734
 30
0.0
 10
58.9776160885
 20
147.4610474339
 30
0.0
 10
59.0028765049
 20
147.3897798733
 30
0.0
 10
59.0085859201
 20
147.3413869751
 30
0.0
 10
59.0085859201
 20
147.3178558353
 30
0.0
  0
SPLINE
  5
5B4
100
AcDbEntity
  8
DEF_LAYER_ASSEM_MEMBER
100
AcDbSpline
 62
7
  6
CONTINUOUS
 70
0
 71
3
 72
13
 73
9
 74
0
 42
0.0000001
 43
0.0000001
 44
0.0000000001
 40
0.0
 40
0.0
 40
0.0
 40
0.0
 40
0.2871941799
 40
0.5571953182
 40
0.6820181967
 40
0.798221993
 40
0.9045776782
 40
1.0
 40
1.0
 40
1.0
 40
1.0
 10
48.1574200628
 20
149.0668433307
 30
0.0
 10
47.4494923851
 20
149.0576768928
 30
0.0
 10
46.0762105804
 20
149.0148505098
 30
0.0
 10
44.3985139512
 20
148.8963840931
 30
0.0
 10
43.1457749256
 20
148.7622380271
 30
0.0
 10
42.2969294171
 20
148.6480655494
 30
0.0
 10
41.5235868972
 20
148.519117248
 30
0.0
 10
41.0362310591
 20
148.4186143659
 30
0.0
 10
40.8071465105
 20
148.3651803977
 30
0.0
  0
SPLINE
  5
5B5
100
AcDbEntity
  8
DEF_LAYER_ASSEM_MEMBER
100
AcDbSpline
 62
7
  6
CONTINUOUS
 70
0
 71
3
 72
17
 73
13
 74
0
 42
0.0000001
 43
0.0000001
 44
0.0000000001
 40
0.0
 40
0.0
 40
0.0
 40
0.0
 40
0.1996489307
 40
0.3775982862
 40
0.5331909863
 40
0.6661500034
 40
0.7767922906
 40
0.8664493567
 40
0.9044041712
 40
0.9386076652
 40
0.9700454218
 40
1.0
 40
1.0
 40
1.0
 40
1.0
 10
40.8071465105
 20
148.3651803977
 30
0.0
 10
40.6544099876
 20
148.3295546056
 30
0.0
 10
40.366656924
 20
148.2571698687
 30
0.0
 10
39.9652872568
 20
148.1367986632
 30
0.0
 10
39.6206417154
 20
148.0115345871
 30
0.0
 10
39.3344854568
 20
147.8821352428
 30
0.0
 10
39.1082437046
 20
147.749392038
 30
0.0
 10
38.9622595913
 20
147.6298808136
 30
0.0
 10
38.8810864804
 20
147.531524734
 30
0.0
 10
38.8395654262
 20
147.4610474339
 30
0.0
 10
38.8143050098
 20
147.3897798733
 30
0.0
 10
38.8085955947
 20
147.3413869751
 30
0.0
 10
38.8085955947
 20
147.3178558353
 30
0.0
  0
SPLINE
  5
5B6
100
AcDbEntity
  8
DEF_LAYER_ASSEM_MEMBER
100
AcDbSpline
 62
7
  6
CONTINUOUS
 70
0
 71
3
 72
24
 73
20
 74
0
 42
0.0000001
 43
0.0000001
 44
0.0000000001
 40
0.0
 40
0.0
 40
0.0
 40
0.0
 40
0.177587968
 40
0.3487198267
 40
0.4299407609
 40
0.5072974896
 40
0.5801334228
 40
0.6478600603
 40
0.7099825576
 40
0.7661212195
 40
0.8160624516
 40
0.8598859165
 40
0.8981058561
 40
0.9154921253
 40
0.932153114
 40
0.9485574969
 40
0.9650210171
 40
0.9819490589
 40
1.0
 40
1.0
 40
1.0
 40
1.0
 10
48.9085907573
 20
145.4503918658
 30
0.0
 10
49.6083024547
 20
145.4503918658
 30
0.0
 10
50.9823923048
 20
145.473397511
 30
0.0
 10
52.674571672
 20
145.5603722153
 30
0.0
 10
53.9694685647
 20
145.6656101895
 30
0.0
 10
54.8765448505
 20
145.7589698208
 30
0.0
 10
55.7283979079
 20
145.8672962885
 30
0.0
 10
56.5176740779
 20
145.9897014459
 30
0.0
 10
57.2379832459
 20
146.1253023513
 30
0.0
 10
57.8841612994
 20
146.2734047727
 30
0.0
 10
58.4529825262
 20
146.4336347105
 30
0.0
 10
58.9436415661
 20
146.6072430818
 30
0.0
 10
59.3001854246
 20
146.7718604358
 30
0.0
 10
59.5451347904
 20
146.9176204242
 30
0.0
 10
59.7059180186
 20
147.0351025717
 30
0.0
 10
59.8497794764
 20
147.1677646756
 30
0.0
 10
59.9731153739
 20
147.3215260165
 30
0.0
 10
60.0690984171
 20
147.5016482769
 30
0.0
 10
60.1038394056
 20
147.6368467242
 30
0.0
 10
60.1127010144
 20
147.7074147434
 30
0.0
  0
SPLINE
  5
5B7
100
AcDbEntity
  8
DEF_LAYER_ASSEM_MEMBER
100
AcDbSpline
 62
7
  6
CONTINUOUS
 70
0
 71
3
 72
24
 73
20
 74
0
 42
0.0000001
 43
0.0000001
 44
0.0000000001
 40
0.0
 40
0.0
 40
0.0
 40
0.0
 40
0.0180522519
 40
0.0349796184
 40
0.0514418652
 40
0.0678467866
 40
0.0845087575
 40
0.1018947705
 40
0.1401146077
 40
0.1839383119
 40
0.2338795895
 40
0.2900183446
 40
0.3521408083
 40
0.4198674071
 40
0.4927033137
 40
0.5700599462
 40
0.6512807521
 40
0.8224123755
 40
1.0
 40
1.0
 40
1.0
 40
1.0
 10
37.7044805003
 20
147.7074147434
 30
0.0
 10
37.7133427532
 20
147.6368415947
 30
0.0
 10
37.7480815994
 20
147.5016393163
 30
0.0
 10
37.8440708014
 20
147.3215235321
 30
0.0
 10
37.967398126
 20
147.1677623505
 30
0.0
 10
38.1112686056
 20
147.0351084875
 30
0.0
 10
38.2720481765
 20
146.9176136273
 30
0.0
 10
38.517001488
 20
146.771854167
 30
0.0
 10
38.8735471161
 20
146.6072427213
 30
0.0
 10
39.3642059948
 20
146.433631783
 30
0.0
 10
39.9330290429
 20
146.273402358
 30
0.0
 10
40.5792077054
 20
146.1253006933
 30
0.0
 10
41.2995170055
 20
145.9896997553
 30
0.0
 10
42.088792888
 20
145.8672949051
 30
0.0
 10
42.9406454224
 20
145.758968903
 30
0.0
 10
43.8477207971
 20
145.665609478
 30
0.0
 10
45.1426159863
 20
145.560371772
 30
0.0
 10
46.8347927013
 20
145.4733974712
 30
0.0
 10
48.2088803647
 20
145.4503918658
 30
0.0
 10
48.9085907573
 20
145.4503918658
 30
0.0
  0
SPLINE
  5
5B8
100
AcDbEntity
  8
DEF_LAYER_ASSEM_MEMBER
100
AcDbSpline
 62
9
  6
CONTINUOUS
 70
0
 71
3
 72
25
 73
21
 74
0
 42
0.0000001
 43
0.0000001
 44
0.0000000001
 40
0.0
 40
0.0
 40
0.0
 40
0.0
 40
0.189508086
 40
0.3717543695
 40
0.4579760434
 40
0.5398254315
 40
0.616538932
 40
0.6874107188
 40
0.7518092636
 40
0.8091915741
 40
0.8591221592
 40
0.9013085964
 40
0.9194706338
 40
0.9356934302
 40
0.9500303301
 40
0.9625771043
 40
0.973501445
 40
0.9830768538
 40
0.9917194936
 40
1.0
 40
1.0
 40
1.0
 40
1.0
 10
48.9085907574
 20
149.6958756377
 30
0.0
 10
49.6474786342
 20
149.6958756377
 30
0.0
 10
51.0970540863
 20
149.6711897222
 30
0.0
 10
52.8807047113
 20
149.5778792327
 30
0.0
 10
54.2420037913
 20
149.4649970723
 30
0.0
 10
55.1912644453
 20
149.3651502283
 30
0.0
 10
56.0784373154
 20
149.2496228046
 30
0.0
 10
56.8948006462
 20
149.1195987635
 30
0.0
 10
57.6323494178
 20
148.9764449472
 30
0.0
 10
58.2839912665
 20
148.8217161012
 30
0.0
 10
58.8434420305
 20
148.6570332386
 30
0.0
 10
59.2468869464
 20
148.506480242
 30
0.0
 10
59.5172952033
 20
148.3795520562
 30
0.0
 10
59.6837217851
 20
148.2876097284
 30
0.0
 10
59.8238267553
 20
148.1943374871
 30
0.0
 10
59.9373830778
 20
148.0997696803
 30
0.0
 10
60.0242000899
 20
148.0038211891
 30
0.0
 10
60.0839349475
 20
147.906142055
 30
0.0
 10
60.1154748453
 20
147.8065145366
 30
0.0
 10
60.1167126797
 20
147.7394490502
 30
0.0
 10
60.112692786
 20
147.7074147746
 30
0.0
  0
SPLINE
  5
5B9
100
AcDbEntity
  8
DEF_LAYER_ASSEM_MEMBER
100
AcDbSpline
 62
9
  6
CONTINUOUS
 70
0
 71
3
 72
25
 73
21
 74
0
 42
0.0000001
 43
0.0000001
 44
0.0000000001
 40
0.0
 40
0.0
 40
0.0
 40
0.0
 40
0.0084753805
 40
0.017279992
 40
0.026957991
 40
0.0379159681
 40
0.0504279356
 40
0.064667827
 40
0.0807378496
 40
0.0986974661
 40
0.1403606988
 40
0.189654075
 40
0.2463411809
 40
0.3100469979
 40
0.380290776
 40
0.4565056141
 40
0.5380559621
 40
0.6242479402
 40
0.8075306304
 40
1.0
 40
1.0
 40
1.0
 40
1.0
 10
37.7044887288
 20
147.7074147746
 30
0.0
 10
37.7006386215
 20
147.7380960326
 30
0.0
 10
37.7014135654
 20
147.8020939304
 30
0.0
 10
37.7296977293
 20
147.8973922387
 30
0.0
 10
37.7839230242
 20
147.9910371563
 30
0.0
 10
37.863104724
 20
148.0831310351
 30
0.0
 10
37.9668947787
 20
148.1739731933
 30
0.0
 10
38.0951223912
 20
148.2636357901
 30
0.0
 10
38.2475825034
 20
148.3521121709
 30
0.0
 10
38.4953857059
 20
148.4743742783
 30
0.0
 10
38.8658333197
 20
148.6198965354
 30
0.0
 10
39.3805118806
 20
148.7798272631
 30
0.0
 10
39.9811246866
 20
148.9309950547
 30
0.0
 10
40.6623825417
 20
149.0719449121
 30
0.0
 10
41.4182987893
 20
149.2012747255
 30
0.0
 10
42.242080257
 20
149.3177467698
 30
0.0
 10
43.1263035639
 20
149.42025713
 30
0.0
 10
44.4015275182
 20
149.5394205388
 30
0.0
 10
46.0840170497
 20
149.6449513804
 30
0.0
 10
47.4546757349
 20
149.6832897891
 30
0.0
 10
48.1568400693
 20
149.6914883912
 30
0.0
  0
SPLINE
  5
5BA
100
AcDbEntity
  8
DEF_LAYER_ASSEM_MEMBER
100
AcDbSpline
 62
7
  6
CONTINUOUS
 70
0
 71
3
 72
25
 73
21
 74
0
 42
0.0000001
 43
0.0000001
 44
0.0000000001
 40
0.0
 40
0.0
 40
0.0
 40
0.0
 40
0.0082745066
 40
0.0171548573
 40
0.0271316835
 40
0.0385469434
 40
0.0516190396
 40
0.0664795281
 40
0.0832051913
 40
0.1018323734
 40
0.1448118347
 40
0.195319833
 40
0.2530528024
 40
0.317576485
 40
0.3883563699
 40
0.4647764865
 40
0.5461528454
 40
0.6317442134
 40
0.8123771438
 40
1.0
 40
1.0
 40
1.0
 40
1.0
 10
59.0085859201
 20
147.3178558353
 30
0.0
 10
59.0085859201
 20
147.2888850833
 30
0.0
 10
58.9997320215
 20
147.228536878
 30
0.0
 10
58.9611185668
 20
147.140776837
 30
0.0
 10
58.8982990248
 20
147.0546236463
 30
0.0
 10
58.8118712508
 20
146.9698423532
 30
0.0
 10
58.7020620181
 20
146.8862037299
 30
0.0
 10
58.5690320201
 20
146.8036935085
 30
0.0
 10
58.4129904558
 20
146.722421568
 30
0.0
 10
58.1624575067
 20
146.6105241092
 30
0.0
 10
57.792508319
 20
146.4777715456
 30
0.0
 10
57.2831281248
 20
146.3324849196
 30
0.0
 10
56.6935882339
 20
146.1961503131
 30
0.0
 10
56.0294360255
 20
146.070149021
 30
0.0
 10
55.2969067328
 20
145.955803908
 30
0.0
 10
54.5029917212
 20
145.8542797221
 30
0.0
 10
53.6552888097
 20
145.7665938811
 30
0.0
 10
52.4422246305
 20
145.6675606692
 30
0.0
 10
50.8549346326
 20
145.5856750591
 30
0.0
 10
49.565497023
 20
145.5640092409
 30
0.0
 10
48.9085907574
 20
145.5640092409
 30
0.0
  0
SPLINE
  5
5BB
100
AcDbEntity
  8
DEF_LAYER_ASSEM_MEMBER
100
AcDbSpline
 62
9
  6
CONTINUOUS
 70
0
 71
3
 72
25
 73
21
 74
0
 42
0.0000001
 43
0.0000001
 44
0.0000000001
 40
0.0
 40
0.0
 40
0.0
 40
0.0
 40
0.1876223498
 40
0.3682557537
 40
0.4538470813
 40
0.5352233895
 40
0.6116435738
 40
0.6824236565
 40
0.7469474338
 40
0.8046803312
 40
0.8551881171
 40
0.8981673466
 40
0.9167951355
 40
0.9335201635
 40
0.9483811473
 40
0.9614529885
 40
0.9728682591
 40
0.982845273
 40
0.9917253859
 40
1.0
 40
1.0
 40
1.0
 40
1.0
 10
48.9085907574
 20
154.4358101942
 30
0.0
 10
48.1606301714
 20
154.4358101942
 30
0.0
 10
46.6924587232
 20
154.4111412477
 30
0.0
 10
44.8851485371
 20
154.317905454
 30
0.0
 10
43.5039353187
 20
154.2051442533
 30
0.0
 10
42.5387291261
 20
154.1053036927
 30
0.0
 10
41.6347655516
 20
153.989707176
 30
0.0
 10
40.8006959865
 20
153.8595129221
 30
0.0
 10
40.0444819743
 20
153.7160465543
 30
0.0
 10
39.3732249216
 20
153.5608129326
 30
0.0
 10
38.7932384433
 20
153.3953899514
 30
0.0
 10
38.3720124295
 20
153.244227422
 30
0.0
 10
38.0867474626
 20
153.1168315343
 30
0.0
 10
37.9090802863
 20
153.024282913
 30
0.0
 10
37.7576066933
 20
152.9303450977
 30
0.0
 10
37.6325779796
 20
152.8351080121
 30
0.0
 10
37.5341730969
 20
152.7385742242
 30
0.0
 10
37.4626354182
 20
152.6404843324
 30
0.0
 10
37.4186884891
 20
152.540552751
 30
0.0
 10
37.4085907574
 20
152.4718430803
 30
0.0
 10
37.4085907574
 20
152.438856151
 30
0.0
  0
SPLINE
  5
5BC
100
AcDbEntity
  8
DEF_LAYER_ASSEM_MEMBER
100
AcDbSpline
 62
9
  6
CONTINUOUS
 70
0
 71
3
 72
13
 73
9
 74
0
 42
0.0000001
 43
0.0000001
 44
0.0000000001
 40
0.0
 40
0.0
 40
0.0
 40
0.0
 40
0.2832311632
 40
0.5526957752
 40
0.6781713513
 40
0.7954393279
 40
0.9031243432
 40
1.0
 40
1.0
 40
1.0
 40
1.0
 10
48.9085907574
 20
149.1777236814
 30
0.0
 10
49.7031508775
 20
149.1777236814
 30
0.0
 10
51.2538014568
 20
149.1480686615
 30
0.0
 10
53.1536376281
 20
149.0358322733
 30
0.0
 10
54.5842284279
 20
148.8996848117
 30
0.0
 10
55.5601913273
 20
148.7805052081
 30
0.0
 10
56.4527192507
 20
148.6434636447
 30
0.0
 10
57.0165184429
 20
148.535361668
 30
0.0
 10
57.2820661222
 20
148.4775431619
 30
0.0
  0
SPLINE
  5
5BD
100
AcDbEntity
  8
DEF_LAYER_ASSEM_MEMBER
100
AcDbSpline
 62
9
  6
CONTINUOUS
 70
0
 71
3
 72
34
 73
30
 74
0
 42
0.0000001
 43
0.0000001
 44
0.0000000001
 40
0.0
 40
0.0
 40
0.0
 40
0.0
 40
0.0331509225
 40
0.0633598989
 40
0.0905257739
 40
0.1145792389
 40
0.1354956541
 40
0.1533148692
 40
0.168181202
 40
0.1804226356
 40
0.1906911432
 40
0.1954416606
 40
0.2001549268
 40
0.2101465942
 40
0.2219250187
 40
0.236229552
 40
0.2534385965
 40
0.2737267605
 40
0.2971493008
 40
0.3236940232
 40
0.353297906
 40
0.3858671089
 40
0.4212768851
 40
0.5000175609
 40
0.588152039
 40
0.6840704213
 40
0.7859815452
 40
0.8919630128
 40
1.0
 40
1.0
 40
1.0
 40
1.0
 10
57.2820661222
 20
148.4775431619
 30
0.0
 10
57.4317149862
 20
148.4449596583
 30
0.0
 10
57.7168783833
 20
148.3786249445
 30
0.0
 10
58.1207373761
 20
148.2695738246
 30
0.0
 10
58.4795353387
 20
148.1560330963
 30
0.0
 10
58.7916311878
 20
148.0385879281
 30
0.0
 10
59.0556986653
 20
147.9178038837
 30
0.0
 10
59.2708404151
 20
147.7942173481
 30
0.0
 10
59.4365452933
 20
147.6678679
 30
0.0
 10
59.552841115
 20
147.5383263912
 30
0.0
 10
59.6080263957
 20
147.4220688309
 30
0.0
 10
59.6211056079
 20
147.3312355605
 30
0.0
 10
59.6156104171
 20
147.2409035029
 30
0.0
 10
59.5701750443
 20
147.1241130537
 30
0.0
 10
59.4638940863
 20
146.9935861234
 30
0.0
 10
59.308142788
 20
146.8666767141
 30
0.0
 10
59.1029124179
 20
146.7425431739
 30
0.0
 10
58.8486260443
 20
146.6211657873
 30
0.0
 10
58.546093579
 20
146.5029971425
 30
0.0
 10
58.196565017
 20
146.3886305201
 30
0.0
 10
57.8016193759
 20
146.2786258331
 30
0.0
 10
57.363117754
 20
146.1735721011
 30
0.0
 10
56.6993227103
 20
146.0359074422
 30
0.0
 10
55.7769919138
 20
145.883004785
 30
0.0
 10
54.5720696816
 20
145.7321960884
 30
0.0
 10
53.2562426187
 20
145.6115316472
 30
0.0
 10
51.8552475159
 20
145.5234927582
 30
0.0
 10
50.396508679
 20
145.4699348149
 30
0.0
 10
49.4077144063
 20
145.4579879893
 30
0.0
 10
48.9085907574
 20
145.4579879893
 30
0.0
  0
SPLINE
  5
5BE
100
AcDbEntity
  8
DEF_LAYER_ASSEM_MEMBER
100
AcDbSpline
 62
9
  6
CONTINUOUS
 70
0
 71
3
 72
34
 73
30
 74
0
 42
0.0000001
 43
0.0000001
 44
0.0000000001
 40
0.0
 40
0.0
 40
0.0
 40
0.0
 40
0.1080369872
 40
0.2140184548
 40
0.3159295786
 40
0.4118479609
 40
0.4999824389
 40
0.5787231146
 40
0.6141328908
 40
0.6467020937
 40
0.6763059765
 40
0.7028506989
 40
0.7262732391
 40
0.746561403
 40
0.7637704475
 40
0.7780749807
 40
0.7898534052
 40
0.7998450726
 40
0.8045583388
 40
0.8093088562
 40
0.8195773639
 40
0.8318187974
 40
0.8466851303
 40
0.8645043455
 40
0.8854207607
 40
0.9094742258
 40
0.936640101
 40
0.9668490774
 40
1.0
 40
1.0
 40
1.0
 40
1.0
 10
48.9085907574
 20
145.4579879893
 30
0.0
 10
48.4094671078
 20
145.4579879893
 30
0.0
 10
47.4206728343
 20
145.4699348149
 30
0.0
 10
45.9619339962
 20
145.5234927584
 30
0.0
 10
44.5609388928
 20
145.6115316475
 30
0.0
 10
43.2451118291
 20
145.7321960888
 30
0.0
 10
42.0401895964
 20
145.8830047856
 30
0.0
 10
41.1178587997
 20
146.0359074431
 30
0.0
 10
40.454063756
 20
146.1735721021
 30
0.0
 10
40.0155621341
 20
146.2786258343
 30
0.0
 10
39.6206164932
 20
146.3886305214
 30
0.0
 10
39.2710879315
 20
146.5029971439
 30
0.0
 10
38.9685554666
 20
146.621165789
 30
0.0
 10
38.7142690934
 20
146.7425431757
 30
0.0
 10
38.5090387239
 20
146.8666767161
 30
0.0
 10
38.3532874262
 20
146.9935861256
 30
0.0
 10
38.247006469
 20
147.1241130562
 30
0.0
 10
38.201571097
 20
147.2409035054
 30
0.0
 10
38.196075907
 20
147.3312355631
 30
0.0
 10
38.2091551199
 20
147.4220688336
 30
0.0
 10
38.2643404016
 20
147.5383263941
 30
0.0
 10
38.3806362245
 20
147.6678679028
 30
0.0
 10
38.5463411039
 20
147.794217351
 30
0.0
 10
38.7614828551
 20
147.9178038866
 30
0.0
 10
39.025550334
 20
148.0385879311
 30
0.0
 10
39.3376461846
 20
148.1560330992
 30
0.0
 10
39.6964441488
 20
148.2695738276
 30
0.0
 10
40.1003031432
 20
148.3786249475
 30
0.0
 10
40.3854665414
 20
148.4449596613
 30
0.0
 10
40.5351154059
 20
148.4775431648
 30
0.0
  0
SPLINE
  5
5BF
100
AcDbEntity
  8
DEF_LAYER_ASSEM_MEMBER
100
AcDbSpline
 62
9
  6
CONTINUOUS
 70
0
 71
3
 72
13
 73
9
 74
0
 42
0.0000001
 43
0.0000001
 44
0.0000000001
 40
0.0
 40
0.0
 40
0.0
 40
0.0
 40
0.097605639
 40
0.2053792623
 40
0.3222841541
 40
0.4471590332
 40
0.7156751171
 40
1.0
 40
1.0
 40
1.0
 40
1.0
 10
40.5351154059
 20
148.4775431648
 30
0.0
 10
40.7787629493
 20
148.5305932873
 30
0.0
 10
41.2940273885
 20
148.6304537847
 30
0.0
 10
42.1074231309
 20
148.7588735808
 30
0.0
 10
42.9933224189
 20
148.8722920333
 30
0.0
 10
44.2903332778
 20
149.0049831846
 30
0.0
 10
46.0182850564
 20
149.122104866
 30
0.0
 10
47.430361377
 20
149.1642529533
 30
0.0
 10
48.1566804302
 20
149.1731303689
 30
0.0
  0
SPLINE
  5
5C0
100
AcDbEntity
  8
DEF_LAYER_ASSEM_MEMBER
100
AcDbSpline
 62
9
  6
CONTINUOUS
 70
0
 71
3
 72
25
 73
21
 74
0
 42
0.0000001
 43
0.0000001
 44
0.0000000001
 40
0.0
 40
0.0
 40
0.0
 40
0.0
 40
0.1876223498
 40
0.3682557537
 40
0.4538470813
 40
0.5352233895
 40
0.6116435738
 40
0.6824236565
 40
0.7469474338
 40
0.8046803312
 40
0.8551881171
 40
0.8981673466
 40
0.9167951355
 40
0.9335201635
 40
0.9483811473
 40
0.9614529885
 40
0.9728682591
 40
0.982845273
 40
0.9917253859
 40
1.0
 40
1.0
 40
1.0
 40
1.0
 10
48.9085907574
 20
154.4358101942
 30
0.0
 10
49.6565513433
 20
154.4358101942
 30
0.0
 10
51.1247227915
 20
154.4111412477
 30
0.0
 10
52.9320329776
 20
154.317905454
 30
0.0
 10
54.313246196
 20
154.2051442533
 30
0.0
 10
55.2784523887
 20
154.1053036927
 30
0.0
 10
56.1824159631
 20
153.989707176
 30
0.0
 10
57.0164855282
 20
153.8595129221
 30
0.0
 10
57.7726995404
 20
153.7160465543
 30
0.0
 10
58.4439565931
 20
153.5608129326
 30
0.0
 10
59.0239430714
 20
153.3953899514
 30
0.0
 10
59.4451690852
 20
153.2442274221
 30
0.0
 10
59.7304340521
 20
153.1168315343
 30
0.0
 10
59.9081012284
 20
153.024282913
 30
0.0
 10
60.0595748214
 20
152.9303450977
 30
0.0
 10
60.1846035351
 20
152.8351080121
 30
0.0
 10
60.2830084178
 20
152.7385742242
 30
0.0
 10
60.3545460965
 20
152.6404843324
 30
0.0
 10
60.3984930256
 20
152.540552751
 30
0.0
 10
60.4085907574
 20
152.4718430803
 30
0.0
 10
60.4085907574
 20
152.438856151
 30
0.0
  0
SPLINE
  5
5C1
100
AcDbEntity
  8
DEF_LAYER_ASSEM_MEMBER
100
AcDbSpline
 62
7
  6
CONTINUOUS
 70
0
 71
3
 72
25
 73
21
 74
0
 42
0.0000001
 43
0.0000001
 44
0.0000000001
 40
0.0
 40
0.0
 40
0.0
 40
0.0
 40
0.0082745066
 40
0.0171548573
 40
0.0271316835
 40
0.0385469434
 40
0.0516190396
 40
0.0664795281
 40
0.0832051913
 40
0.1018323734
 40
0.1448118347
 40
0.195319833
 40
0.2530528024
 40
0.317576485
 40
0.3883563699
 40
0.4647764865
 40
0.5461528454
 40
0.6317442134
 40
0.8123771438
 40
1.0
 40
1.0
 40
1.0
 40
1.0
 10
38.8085955947
 20
147.3178558353
 30
0.0
 10
38.8085955947
 20
147.2888850833
 30
0.0
 10
38.8174494932
 20
147.228536878
 30
0.0
 10
38.8560629479
 20
147.140776837
 30
0.0
 10
38.9188824899
 20
147.0546236463
 30
0.0
 10
39.0053102639
 20
146.9698423532
 30
0.0
 10
39.1151194966
 20
146.8862037299
 30
0.0
 10
39.2481494946
 20
146.8036935085
 30
0.0
 10
39.404191059
 20
146.722421568
 30
0.0
 10
39.654724008
 20
146.6105241092
 30
0.0
 10
40.0246731957
 20
146.4777715456
 30
0.0
 10
40.5340533899
 20
146.3324849196
 30
0.0
 10
41.1235932808
 20
146.1961503131
 30
0.0
 10
41.7877454892
 20
146.070149021
 30
0.0
 10
42.5202747819
 20
145.955803908
 30
0.0
 10
43.3141897935
 20
145.8542797221
 30
0.0
 10
44.161892705
 20
145.7665938811
 30
0.0
 10
45.3749568842
 20
145.6675606692
 30
0.0
 10
46.9622468821
 20
145.5856750591
 30
0.0
 10
48.2516844917
 20
145.5640092409
 30
0.0
 10
48.9085907574
 20
145.5640092409
 30
0.0
  0
LINE
  5
5C2
100
AcDbEntity
  8
DEF_LAYER_ASSEM_MEMBER
100
AcDbLine
 62
9
  6
CONTINUOUS
 10
68.4080359841
 20
169.5597052797
 11
63.5440587604
 21
169.6655521004
  0
LINE
  5
5C3
100
AcDbEntity
  8
DEF_LAYER_ASSEM_MEMBER
100
AcDbLine
 62
9
  6
CONTINUOUS
 10
53.9019253691
 20
169.7861791994
 11
53.7479601612
 21
169.7871440166
  0
LINE
  5
5C4
100
AcDbEntity
  8
DEF_LAYER_ASSEM_MEMBER
100
AcDbLine
 62
9
  6
CONTINUOUS
 10
51.9625901278
 20
169.7961249919
 11
51.9060443625
 21
169.7963430518
  0
LINE
  5
5C5
100
AcDbEntity
  8
DEF_LAYER_ASSEM_MEMBER
100
AcDbLine
 62
9
  6
CONTINUOUS
 10
34.2763555755
 20
169.6656123781
 11
33.9779131859
 21
169.6599886115
  0
LINE
  5
5C6
100
AcDbEntity
  8
DEF_LAYER_ASSEM_MEMBER
100
AcDbLine
 62
9
  6
CONTINUOUS
 10
33.9779131859
 20
169.6599886115
 11
29.4091455288
 21
169.5597052796
  0
SPLINE
  5
5C7
100
AcDbEntity
  8
DEF_LAYER_ASSEM_MEMBER
100
AcDbSpline
 62
7
  6
CONTINUOUS
 70
0
 71
3
 72
8
 73
4
 74
0
 42
0.0000001
 43
0.0000001
 44
0.0000000001
 40
0.0
 40
0.0
 40
0.0
 40
0.0
 40
1.0
 40
1.0
 40
1.0
 40
1.0
 10
28.5571309901
 20
72.4337779092
 30
0.0
 10
28.2722881998
 20
72.2971975208
 30
0.0
 10
27.9855955522
 20
72.1397989609
 30
0.0
 10
27.695204567
 20
71.940779556
 30
0.0
  0
SPLINE
  5
5C8
100
AcDbEntity
  8
DEF_LAYER_ASSEM_MEMBER
100
AcDbSpline
 62
7
  6
CONTINUOUS
 70
0
 71
3
 72
8
 73
4
 74
0
 42
0.0000001
 43
0.0000001
 44
0.0000000001
 40
0.0
 40
0.0
 40
0.0
 40
0.0
 40
1.0
 40
1.0
 40
1.0
 40
1.0
 10
26.9452387526
 20
71.3299880427
 30
0.0
 10
26.7100953596
 20
71.1052365421
 30
0.0
 10
26.4716709419
 20
70.8435606072
 30
0.0
 10
26.2290574946
 20
70.5347416121
 30
0.0
  0
SPLINE
  5
5C9
100
AcDbEntity
  8
DEF_LAYER_ASSEM_MEMBER
100
AcDbSpline
 62
7
  6
CONTINUOUS
 70
0
 71
3
 72
8
 73
4
 74
0
 42
0.0000001
 43
0.0000001
 44
0.0000000001
 40
0.0
 40
0.0
 40
0.0
 40
0.0
 40
1.0
 40
1.0
 40
1.0
 40
1.0
 10
69.2600505246
 20
72.4337779092
 30
0.0
 10
69.5448933149
 20
72.2971975208
 30
0.0
 10
69.8315859625
 20
72.1397989609
 30
0.0
 10
70.1219769477
 20
71.940779556
 30
0.0
  0
SPLINE
  5
5CA
100
AcDbEntity
  8
DEF_LAYER_ASSEM_MEMBER
100
AcDbSpline
 62
7
  6
CONTINUOUS
 70
0
 71
3
 72
8
 73
4
 74
0
 42
0.0000001
 43
0.0000001
 44
0.0000000001
 40
0.0
 40
0.0
 40
0.0
 40
0.0
 40
1.0
 40
1.0
 40
1.0
 40
1.0
 10
70.8719427621
 20
71.3299880427
 30
0.0
 10
71.1070861551
 20
71.1052365421
 30
0.0
 10
71.3455105728
 20
70.8435606072
 30
0.0
 10
71.5881240201
 20
70.5347416121
 30
0.0
  0
SPLINE
  5
5CB
100
AcDbEntity
  8
DEF_LAYER_ASSEM_MEMBER
100
AcDbSpline
 62
7
  6
CONTINUOUS
 70
0
 71
3
 72
9
 73
5
 74
0
 42
0.0000001
 43
0.0000001
 44
0.0000000001
 40
0.0
 40
0.0
 40
0.0
 40
0.0
 40
0.2661859568
 40
1.0
 40
1.0
 40
1.0
 40
1.0
 10
41.7301451008
 20
156.2663598027
 30
0.0
 10
41.5652513043
 20
156.242838787
 30
0.0
 10
40.9461157015
 20
156.1521873786
 30
0.0
 10
40.3282326984
 20
156.0527623981
 30
0.0
 10
39.8760445282
 20
155.9729598234
 30
0.0
  0
SPLINE
  5
5CC
100
AcDbEntity
  8
DEF_LAYER_ASSEM_MEMBER
100
AcDbSpline
 62
7
  6
CONTINUOUS
 70
0
 71
3
 72
9
 73
5
 74
0
 42
0.0000001
 43
0.0000001
 44
0.0000000001
 40
0.0
 40
0.0
 40
0.0
 40
0.0
 40
0.5712652447
 40
1.0
 40
1.0
 40
1.0
 40
1.0
 10
39.3642111832
 20
155.8790897539
 30
0.0
 10
38.9774216938
 20
155.8052080976
 30
0.0
 10
38.3027506016
 20
155.6639619091
 30
0.0
 10
37.6369955756
 20
155.4792565826
 30
0.0
 10
37.3594071248
 20
155.3778420449
 30
0.0
  0
SPLINE
  5
5CD
100
AcDbEntity
  8
DEF_LAYER_ASSEM_MEMBER
100
AcDbSpline
 62
7
  6
CONTINUOUS
 70
0
 71
3
 72
11
 73
7
 74
0
 42
0.0000001
 43
0.0000001
 44
0.0000000001
 40
0.0
 40
0.0
 40
0.0
 40
0.0
 40
0.3620847112
 40
0.6450942006
 40
0.8531168887
 40
1.0
 40
1.0
 40
1.0
 40
1.0
 10
37.3594071248
 20
155.3778420449
 30
0.0
 10
37.2624486874
 20
155.342419119
 30
0.0
 10
37.0914496466
 20
155.274285842
 30
0.0
 10
36.8753643689
 20
155.1607103391
 30
0.0
 10
36.7294447038
 20
155.0512965553
 30
0.0
 10
36.6707469692
 20
154.9624065477
 30
0.0
 10
36.6620326006
 20
154.9214484997
 30
0.0
  0
SPLINE
  5
5CE
100
AcDbEntity
  8
DEF_LAYER_ASSEM_MEMBER
100
AcDbSpline
 62
7
  6
CONTINUOUS
 70
0
 71
3
 72
9
 73
5
 74
0
 42
0.0000001
 43
0.0000001
 44
0.0000000001
 40
0.0
 40
0.0
 40
0.0
 40
0.0
 40
0.5092517024
 40
1.0
 40
1.0
 40
1.0
 40
1.0
 10
48.9085907574
 20
156.809057663
 30
0.0
 10
48.1094896148
 20
156.8090577034
 30
0.0
 10
46.5401965398
 20
156.7711379634
 30
0.0
 10
44.9741422013
 20
156.6568837199
 30
0.0
 10
44.208597482
 20
156.5735576065
 30
0.0
  0
SPLINE
  5
5CF
100
AcDbEntity
  8
DEF_LAYER_ASSEM_MEMBER
100
AcDbSpline
 62
7
  6
CONTINUOUS
 70
0
 71
3
 72
9
 73
5
 74
0
 42
0.0000001
 43
0.0000001
 44
0.0000000001
 40
0.0
 40
0.0
 40
0.0
 40
0.0
 40
0.4907482976
 40
1.0
 40
1.0
 40
1.0
 40
1.0
 10
53.6085840364
 20
156.5735576033
 30
0.0
 10
52.8430393166
 20
156.6568837168
 30
0.0
 10
51.2769849771
 20
156.7711379655
 30
0.0
 10
49.7076919006
 20
156.8090577034
 30
0.0
 10
48.9085907574
 20
156.809057663
 30
0.0
  0
SPLINE
  5
5D0
100
AcDbEntity
  8
DEF_LAYER_ASSEM_MEMBER
100
AcDbSpline
 62
7
  6
CONTINUOUS
 70
0
 71
3
 72
11
 73
7
 74
0
 42
0.0000001
 43
0.0000001
 44
0.0000000001
 40
0.0
 40
0.0
 40
0.0
 40
0.0
 40
0.146882738
 40
0.3549045162
 40
0.6379140317
 40
1.0
 40
1.0
 40
1.0
 40
1.0
 10
61.1551498061
 20
154.9214440832
 30
0.0
 10
61.1464365731
 20
154.9624024849
 30
0.0
 10
61.0877402533
 20
155.0512940388
 30
0.0
 10
60.9418202455
 20
155.1607085318
 30
0.0
 10
60.7257339162
 20
155.2742848948
 30
0.0
 10
60.5547336597
 20
155.3424187215
 30
0.0
 10
60.4577743925
 20
155.3778419733
 30
0.0
  0
SPLINE
  5
5D1
100
AcDbEntity
  8
DEF_LAYER_ASSEM_MEMBER
100
AcDbSpline
 62
7
  6
CONTINUOUS
 70
0
 71
3
 72
9
 73
5
 74
0
 42
0.0000001
 43
0.0000001
 44
0.0000000001
 40
0.0
 40
0.0
 40
0.0
 40
0.0
 40
0.4286258672
 40
1.0
 40
1.0
 40
1.0
 40
1.0
 10
60.4577743925
 20
155.3778419733
 30
0.0
 10
60.1794127251
 20
155.4795390645
 30
0.0
 10
59.5115946722
 20
155.6646864816
 30
0.0
 10
58.8348456538
 20
155.8062245867
 30
0.0
 10
58.4467918071
 20
155.8802692977
 30
0.0
  0
SPLINE
  5
5D2
100
AcDbEntity
  8
DEF_LAYER_ASSEM_MEMBER
100
AcDbSpline
 62
7
  6
CONTINUOUS
 70
0
 71
3
 72
9
 73
5
 74
0
 42
0.0000001
 43
0.0000001
 44
0.0000000001
 40
0.0
 40
0.0
 40
0.0
 40
0.0
 40
0.23319352
 40
1.0
 40
1.0
 40
1.0
 40
1.0
 10
57.9411369861
 20
155.9729598196
 30
0.0
 10
57.7974391496
 20
155.9983197443
 30
0.0
 10
57.1806644297
 20
156.1039013364
 30
0.0
 10
56.5620494682
 20
156.1986023162
 30
0.0
 10
56.0870364342
 20
156.2663598009
 30
0.0
  0
SPLINE
  5
5D3
100
AcDbEntity
  8
DEF_LAYER_ASSEM_MEMBER
100
AcDbSpline
 62
7
  6
CONTINUOUS
 70
0
 71
3
 72
11
 73
7
 74
0
 42
0.0000001
 43
0.0000001
 44
0.0000000001
 40
0.0
 40
0.0
 40
0.0
 40
0.0
 40
0.3591882932
 40
0.6423048212
 40
0.8515215743
 40
1.0
 40
1.0
 40
1.0
 40
1.0
 10
37.375939107
 20
154.1360572753
 30
0.0
 10
37.2690177732
 20
154.2051109195
 30
0.0
 10
37.0817215297
 20
154.3348770604
 30
0.0
 10
36.8527298305
 20
154.5330698424
 30
0.0
 10
36.7060779741
 20
154.7072861323
 30
0.0
 10
36.6586709841
 20
154.8316506806
 30
0.0
 10
36.6586142
 20
154.8842652686
 30
0.0
  0
SPLINE
  5
5D4
100
AcDbEntity
  8
DEF_LAYER_ASSEM_MEMBER
100
AcDbSpline
 62
9
  6
CONTINUOUS
 70
0
 71
3
 72
11
 73
7
 74
0
 42
0.0000001
 43
0.0000001
 44
0.0000000001
 40
0.0
 40
0.0
 40
0.0
 40
0.0
 40
0.2492390378
 40
0.4807897449
 40
0.7222993956
 40
1.0
 40
1.0
 40
1.0
 40
1.0
 10
61.1971161869
 20
153.8148364682
 30
0.0
 10
61.1707054516
 20
153.9035434621
 30
0.0
 10
61.1421491342
 20
154.083013641
 30
0.0
 10
61.17306615
 20
154.3502034344
 30
0.0
 10
61.2036452896
 20
154.627827338
 30
0.0
 10
61.1788103303
 20
154.8216039943
 30
0.0
 10
61.1551106627
 20
154.92196816
 30
0.0
  0
SPLINE
  5
5D5
100
AcDbEntity
  8
DEF_LAYER_ASSEM_MEMBER
100
AcDbSpline
 62
9
  6
CONTINUOUS
 70
0
 71
3
 72
11
 73
7
 74
0
 42
0.0000001
 43
0.0000001
 44
0.0000000001
 40
0.0
 40
0.0
 40
0.0
 40
0.0
 40
0.2492390378
 40
0.4807897449
 40
0.7222993956
 40
1.0
 40
1.0
 40
1.0
 40
1.0
 10
36.6200653278
 20
153.8148364682
 30
0.0
 10
36.6464760631
 20
153.9035434621
 30
0.0
 10
36.6750323805
 20
154.083013641
 30
0.0
 10
36.6441153647
 20
154.3502034344
 30
0.0
 10
36.6135362251
 20
154.627827338
 30
0.0
 10
36.6383711844
 20
154.8216039943
 30
0.0
 10
36.662070852
 20
154.92196816
 30
0.0
  0
LINE
  5
5D6
100
AcDbEntity
  8
DEF_LAYER_ASSEM_MEMBER
100
AcDbLine
 62
9
  6
CONTINUOUS
 10
44.2085907404
 20
73.7863223499
 11
31.4532934338
 21
73.7942788386
  0
LINE
  5
5D7
100
AcDbEntity
  8
DEF_LAYER_ASSEM_MEMBER
100
AcDbLine
 62
9
  6
CONTINUOUS
 10
31.4532934338
 20
73.7942788386
 11
29.4085907573
 21
73.7863223499
  0
LINE
  5
5D8
100
AcDbEntity
  8
DEF_LAYER_ASSEM_MEMBER
100
AcDbLine
 62
9
  6
CONTINUOUS
 10
26.2290703836
 20
70.534758018
 11
31.409084386
 21
70.5352963313
  0
LINE
  5
5D9
100
AcDbEntity
  8
DEF_LAYER_ASSEM_MEMBER
100
AcDbLine
 62
9
  6
CONTINUOUS
 10
31.409084386
 20
70.5352963313
 11
44.2085909544
 21
70.534758018
  0
SPLINE
  5
5DA
100
AcDbEntity
  8
DEF_LAYER_ASSEM_MEMBER
100
AcDbSpline
 62
7
  6
CONTINUOUS
 70
0
 71
3
 72
11
 73
7
 74
0
 42
0.0000001
 43
0.0000001
 44
0.0000000001
 40
0.0
 40
0.0
 40
0.0
 40
0.0
 40
0.2467352625
 40
0.4962738758
 40
0.7476765956
 40
1.0
 40
1.0
 40
1.0
 40
1.0
 10
53.6088426299
 20
168.3208829309
 30
0.0
 10
53.2222685004
 20
168.3198101993
 30
0.0
 10
52.4447281617
 20
168.3175823056
 30
0.0
 10
51.2732956311
 20
168.316464107
 30
0.0
 10
50.0931196829
 20
168.3107503211
 30
0.0
 10
49.3039290146
 20
168.3033256026
 30
0.0
 10
48.9085999251
 20
168.3021257036
 30
0.0
  0
LINE
  5
5DB
100
AcDbEntity
  8
DEF_LAYER_ASSEM_MEMBER
100
AcDbLine
 62
9
  6
CONTINUOUS
 10
28.5571331158
 20
72.4337789285
 11
31.4190313324
 21
72.4397661445
  0
LINE
  5
5DC
100
AcDbEntity
  8
DEF_LAYER_ASSEM_MEMBER
100
AcDbLine
 62
9
  6
CONTINUOUS
 10
31.4190313324
 20
72.4397661445
 11
44.2085907478
 21
72.4337789285
  0
SPLINE
  5
5DD
100
AcDbEntity
  8
DEF_LAYER_ASSEM_MEMBER
100
AcDbSpline
 62
9
  6
CONTINUOUS
 70
0
 71
3
 72
11
 73
7
 74
0
 42
0.0000001
 43
0.0000001
 44
0.0000000001
 40
0.0
 40
0.0
 40
0.0
 40
0.0
 40
0.2588122071
 40
0.5111147617
 40
0.7572796984
 40
1.0
 40
1.0
 40
1.0
 40
1.0
 10
30.6800948527
 20
158.1309861637
 30
0.0
 10
30.9056669987
 20
157.3424064708
 30
0.0
 10
31.4244021631
 20
155.8044139483
 30
0.0
 10
32.4495750465
 20
153.6274655254
 30
0.0
 10
33.7402199571
 20
151.6547162151
 30
0.0
 10
34.7988441977
 20
150.5098902814
 30
0.0
 10
35.3724292957
 20
149.9973622969
 30
0.0
  0
SPLINE
  5
5DE
100
AcDbEntity
  8
DEF_LAYER_ASSEM_MEMBER
100
AcDbSpline
 62
9
  6
CONTINUOUS
 70
0
 71
3
 72
11
 73
7
 74
0
 42
0.0000001
 43
0.0000001
 44
0.0000000001
 40
0.0
 40
0.0
 40
0.0
 40
0.0
 40
0.2588122071
 40
0.5111147617
 40
0.7572796984
 40
1.0
 40
1.0
 40
1.0
 40
1.0
 10
67.1370866634
 20
158.1309861685
 30
0.0
 10
66.9115145174
 20
157.3424064751
 30
0.0
 10
66.392779353
 20
155.8044139517
 30
0.0
 10
65.3676064694
 20
153.6274655275
 30
0.0
 10
64.0769615584
 20
151.654716216
 30
0.0
 10
63.0183373173
 20
150.5098902817
 30
0.0
 10
62.444752219
 20
149.9973622969
 30
0.0
  0
SPLINE
  5
5DF
100
AcDbEntity
  8
DEF_LAYER_ASSEM_MEMBER
100
AcDbSpline
 62
9
  6
CONTINUOUS
 70
0
 71
3
 72
10
 73
6
 74
0
 42
0.0000001
 43
0.0000001
 44
0.0000000001
 40
0.0
 40
0.0
 40
0.0
 40
0.0
 40
0.2467260269
 40
0.621789386
 40
1.0
 40
1.0
 40
1.0
 40
1.0
 10
44.2108534184
 20
168.3208306634
 30
0.0
 10
44.5971474363
 20
168.313608336
 30
0.0
 10
45.5707644742
 20
168.2990392784
 30
0.0
 10
47.1367574202
 20
168.3027310011
 30
0.0
 10
48.3163396255
 20
168.3021047924
 30
0.0
 10
48.9085999251
 20
168.3021257036
 30
0.0
  0
SPLINE
  5
5E0
100
AcDbEntity
  8
DEF_LAYER_ASSEM_MEMBER
100
AcDbSpline
 62
9
  6
CONTINUOUS
 70
0
 71
3
 72
12
 73
8
 74
0
 42
0.0000001
 43
0.0000001
 44
0.0000000001
 40
0.0
 40
0.0
 40
0.0
 40
0.0
 40
0.360734884
 40
0.6683067214
 40
0.7894904747
 40
0.8847570712
 40
1.0
 40
1.0
 40
1.0
 40
1.0
 10
44.2108534184
 20
168.3208306634
 30
0.0
 10
44.2113961428
 20
168.3827308894
 30
0.0
 10
44.2178993769
 20
168.4975597861
 30
0.0
 10
44.2386985381
 20
168.6313047948
 30
0.0
 10
44.2656083087
 20
168.7183710526
 30
0.0
 10
44.2874829292
 20
168.7684428919
 30
0.0
 10
44.3163853724
 20
168.8021259281
 30
0.0
 10
44.3361612185
 20
168.8021259281
 30
0.0
  0
SPLINE
  5
5E1
100
AcDbEntity
  8
DEF_LAYER_ASSEM_MEMBER
100
AcDbSpline
 62
9
  6
CONTINUOUS
 70
0
 71
3
 72
8
 73
4
 74
0
 42
0.0000001
 43
0.0000001
 44
0.0000000001
 40
0.0
 40
0.0
 40
0.0
 40
0.0
 40
1.0
 40
1.0
 40
1.0
 40
1.0
 10
29.5822481455
 20
165.0132805013
 30
0.0
 10
29.6852534772
 20
164.1096752975
 30
0.0
 10
29.8383327399
 20
163.2094855909
 30
0.0
 10
30.0544770998
 20
162.3260864294
 30
0.0
  0
SPLINE
  5
5E2
100
AcDbEntity
  8
DEF_LAYER_ASSEM_MEMBER
100
AcDbSpline
 62
9
  6
CONTINUOUS
 70
0
 71
3
 72
12
 73
8
 74
0
 42
0.0000001
 43
0.0000001
 44
0.0000000001
 40
0.0
 40
0.0
 40
0.0
 40
0.0
 40
0.2525647868
 40
0.5041665445
 40
0.6293279612
 40
0.7538156859
 40
1.0
 40
1.0
 40
1.0
 40
1.0
 10
30.1340377962
 20
162.0126399697
 30
0.0
 10
30.3656770182
 20
161.1322530227
 30
0.0
 10
30.9591078326
 20
159.4041988323
 30
0.0
 10
32.1214915121
 20
157.4316907424
 30
0.0
 10
33.3130150432
 20
156.067301171
 30
0.0
 10
34.6539744098
 20
154.8798230403
 30
0.0
 10
35.8147039474
 20
154.1873784329
 30
0.0
 10
36.6200653278
 20
153.8148364682
 30
0.0
  0
SPLINE
  5
5E3
100
AcDbEntity
  8
DEF_LAYER_ASSEM_MEMBER
100
AcDbSpline
 62
9
  6
CONTINUOUS
 70
0
 71
3
 72
11
 73
7
 74
0
 42
0.0000001
 43
0.0000001
 44
0.0000000001
 40
0.0
 40
0.0
 40
0.0
 40
0.0
 40
0.2578736908
 40
0.5134459152
 40
0.762649414
 40
1.0
 40
1.0
 40
1.0
 40
1.0
 10
53.6099725009
 20
168.3003361652
 30
0.0
 10
53.6159386913
 20
167.7755848936
 30
0.0
 10
53.6196607579
 20
166.7306594215
 30
0.0
 10
53.6069236974
 20
165.1786849184
 30
0.0
 10
53.6008454037
 20
163.66841128
 30
0.0
 10
53.6084866927
 20
162.6782683291
 30
0.0
 10
53.6104213253
 20
162.1952525079
 30
0.0
  0
SPLINE
  5
5E4
100
AcDbEntity
  8
DEF_LAYER_ASSEM_MEMBER
100
AcDbSpline
 62
9
  6
CONTINUOUS
 70
0
 71
3
 72
11
 73
7
 74
0
 42
0.0000001
 43
0.0000001
 44
0.0000000001
 40
0.0
 40
0.0
 40
0.0
 40
0.0
 40
0.3303372801
 40
0.6068396023
 40
0.8272782175
 40
1.0
 40
1.0
 40
1.0
 40
1.0
 10
53.6104213253
 20
162.1952525079
 30
0.0
 10
53.6129006903
 20
161.5762344252
 30
0.0
 10
53.6130154547
 20
160.4390620189
 30
0.0
 10
53.6021212779
 20
158.8888227406
 30
0.0
 10
53.6095906061
 20
157.6339619374
 30
0.0
 10
53.6123416313
 20
156.8971777236
 30
0.0
 10
53.608554422
 20
156.5735344318
 30
0.0
  0
SPLINE
  5
5E5
100
AcDbEntity
  8
DEF_LAYER_ASSEM_MEMBER
100
AcDbSpline
 62
9
  6
CONTINUOUS
 70
0
 71
3
 72
11
 73
7
 74
0
 42
0.0000001
 43
0.0000001
 44
0.0000000001
 40
0.0
 40
0.0
 40
0.0
 40
0.0
 40
0.2578736905
 40
0.5134459147
 40
0.7626494136
 40
1.0
 40
1.0
 40
1.0
 40
1.0
 10
44.2072090164
 20
168.3003361654
 30
0.0
 10
44.2012428244
 20
167.7755849011
 30
0.0
 10
44.1975207568
 20
166.7306594433
 30
0.0
 10
44.2102578167
 20
165.1786849609
 30
0.0
 10
44.2163361113
 20
163.6684113412
 30
0.0
 10
44.2086948224
 20
162.6782684019
 30
0.0
 10
44.2067601898
 20
162.1952525859
 30
0.0
  0
SPLINE
  5
5E6
100
AcDbEntity
  8
DEF_LAYER_ASSEM_MEMBER
100
AcDbSpline
 62
9
  6
CONTINUOUS
 70
0
 71
3
 72
11
 73
7
 74
0
 42
0.0000001
 43
0.0000001
 44
0.0000000001
 40
0.0
 40
0.0
 40
0.0
 40
0.0
 40
0.3303372801
 40
0.6068396025
 40
0.8272782177
 40
1.0
 40
1.0
 40
1.0
 40
1.0
 10
44.2067601898
 20
162.1952525859
 30
0.0
 10
44.2042808246
 20
161.5762344958
 30
0.0
 10
44.2041660595
 20
160.4390620755
 30
0.0
 10
44.2150602366
 20
158.8888227782
 30
0.0
 10
44.2075909088
 20
157.6339619599
 30
0.0
 10
44.204839884
 20
156.8971777377
 30
0.0
 10
44.208627091
 20
156.5735344424
 30
0.0
  0
SPLINE
  5
5E7
100
AcDbEntity
  8
DEF_LAYER_ASSEM_MEMBER
100
AcDbSpline
 62
9
  6
CONTINUOUS
 70
0
 71
3
 72
15
 73
11
 74
0
 42
0.0000001
 43
0.0000001
 44
0.0000000001
 40
0.0
 40
0.0
 40
0.0
 40
0.0
 40
0.1250425236
 40
0.2500514465
 40
0.375050362
 40
0.5000516379
 40
0.625082933
 40
0.7499842634
 40
0.8749862779
 40
1.0
 40
1.0
 40
1.0
 40
1.0
 10
29.4082196208
 20
168.1920819537
 30
0.0
 10
29.4108115017
 20
167.513954684
 30
0.0
 10
29.4535214228
 20
166.1574478219
 30
0.0
 10
29.6716495197
 20
164.1327827507
 30
0.0
 10
30.0855071807
 20
162.1373621308
 30
0.0
 10
30.7547216662
 20
160.2087063364
 30
0.0
 10
31.7477208468
 20
158.4197567404
 30
0.0
 10
33.0996524109
 20
156.8770009739
 30
0.0
 10
34.770464969
 20
155.6887946357
 30
0.0
 10
36.02111841
 20
155.1429463463
 30
0.0
 10
36.6620736012
 20
154.9219759066
 30
0.0
  0
SPLINE
  5
5E8
100
AcDbEntity
  8
DEF_LAYER_ASSEM_MEMBER
100
AcDbSpline
 62
9
  6
CONTINUOUS
 70
0
 71
3
 72
12
 73
8
 74
0
 42
0.0000001
 43
0.0000001
 44
0.0000000001
 40
0.0
 40
0.0
 40
0.0
 40
0.0
 40
0.3607424462
 40
0.6683123698
 40
0.789493599
 40
0.884757964
 40
1.0
 40
1.0
 40
1.0
 40
1.0
 10
53.6088426299
 20
168.3208829309
 30
0.0
 10
53.6082915245
 20
168.3827777545
 30
0.0
 10
53.601778784
 20
168.4975941449
 30
0.0
 10
53.5809858125
 20
168.6313258275
 30
0.0
 10
53.5540804073
 20
168.7183819776
 30
0.0
 10
53.5322086268
 20
168.768447916
 30
0.0
 10
53.5033089783
 20
168.8021259281
 30
0.0
 10
53.4835354021
 20
168.8021259281
 30
0.0
  0
SPLINE
  5
5E9
100
AcDbEntity
  8
DEF_LAYER_ASSEM_MEMBER
100
AcDbSpline
 62
9
  6
CONTINUOUS
 70
0
 71
3
 72
15
 73
11
 74
0
 42
0.0000001
 43
0.0000001
 44
0.0000000001
 40
0.0
 40
0.0
 40
0.0
 40
0.0
 40
0.1250425275
 40
0.2500514429
 40
0.3750503638
 40
0.5000516382
 40
0.6250829313
 40
0.7499842619
 40
0.874986276
 40
1.0
 40
1.0
 40
1.0
 40
1.0
 10
68.4089620093
 20
168.1920819533
 30
0.0
 10
68.4063708004
 20
167.5139546595
 30
0.0
 10
68.3636606662
 20
166.157447769
 30
0.0
 10
68.1455315788
 20
164.1327828367
 30
0.0
 10
67.731674553
 20
162.1373621059
 30
0.0
 10
67.0624597138
 20
160.2087064055
 30
0.0
 10
66.0694607186
 20
158.4197567385
 30
0.0
 10
64.7175290534
 20
156.8770010708
 30
0.0
 10
63.0467166188
 20
155.6887945486
 30
0.0
 10
61.7960631148
 20
155.1429463498
 30
0.0
 10
61.1551079136
 20
154.9219759066
 30
0.0
  0
SPLINE
  5
5EA
100
AcDbEntity
  8
DEF_LAYER_ASSEM_MEMBER
100
AcDbSpline
 62
9
  6
CONTINUOUS
 70
0
 71
3
 72
8
 73
4
 74
0
 42
0.0000001
 43
0.0000001
 44
0.0000000001
 40
0.0
 40
0.0
 40
0.0
 40
0.0
 40
1.0
 40
1.0
 40
1.0
 40
1.0
 10
68.239231758
 20
165.0512519065
 30
0.0
 10
68.136543229
 20
164.137818378
 30
0.0
 10
67.98286955
 20
163.2277560191
 30
0.0
 10
67.7648348312
 20
162.3348021533
 30
0.0
  0
SPLINE
  5
5EB
100
AcDbEntity
  8
DEF_LAYER_ASSEM_MEMBER
100
AcDbSpline
 62
9
  6
CONTINUOUS
 70
0
 71
3
 72
12
 73
8
 74
0
 42
0.0000001
 43
0.0000001
 44
0.0000000001
 40
0.0
 40
0.0
 40
0.0
 40
0.0
 40
0.2525652499
 40
0.5041666236
 40
0.6293277194
 40
0.7538152974
 40
1.0
 40
1.0
 40
1.0
 40
1.0
 10
67.6824074618
 20
162.0098426585
 30
0.0
 10
67.4506908035
 20
161.1297252945
 30
0.0
 10
66.8571339183
 20
159.4022280975
 30
0.0
 10
65.6947609863
 20
157.4304298293
 30
0.0
 10
64.5033973091
 20
156.0665490232
 30
0.0
 10
63.1626974906
 20
154.8795018996
 30
0.0
 10
62.00226416
 20
154.1872797155
 30
0.0
 10
61.1971161869
 20
153.8148364682
 30
0.0
  0
SPLINE
  5
5EC
100
AcDbEntity
  8
DEF_LAYER_ASSEM_MEMBER
100
AcDbSpline
 62
7
  6
CONTINUOUS
 70
0
 71
3
 72
11
 73
7
 74
0
 42
0.0000001
 43
0.0000001
 44
0.0000000001
 40
0.0
 40
0.0
 40
0.0
 40
0.0
 40
0.1484796374
 40
0.3576967389
 40
0.6408127491
 40
1.0
 40
1.0
 40
1.0
 40
1.0
 10
61.1585673171
 20
154.8842655469
 30
0.0
 10
61.1585105313
 20
154.8316520402
 30
0.0
 10
61.1111056005
 20
154.7072903582
 30
0.0
 10
60.9644591029
 20
154.5330775194
 30
0.0
 10
60.7354756106
 20
154.3348892129
 30
0.0
 10
60.5481859603
 20
154.2051259963
 30
0.0
 10
60.4412683802
 20
154.136073957
 30
0.0
  0
LINE
  5
5ED
100
AcDbEntity
  8
DEF_LAYER_ASSEM_MEMBER
100
AcDbLine
 62
9
  6
CONTINUOUS
 10
71.5881111311
 20
70.534758018
 11
66.4080971287
 21
70.5352963313
  0
LINE
  5
5EE
100
AcDbEntity
  8
DEF_LAYER_ASSEM_MEMBER
100
AcDbLine
 62
9
  6
CONTINUOUS
 10
66.4080971287
 20
70.5352963313
 11
53.6085905603
 21
70.534758018
  0
LINE
  5
5EF
100
AcDbEntity
  8
DEF_LAYER_ASSEM_MEMBER
100
AcDbLine
 62
9
  6
CONTINUOUS
 10
69.2600483989
 20
72.4337789285
 11
66.3981501823
 21
72.4397661445
  0
LINE
  5
5F0
100
AcDbEntity
  8
DEF_LAYER_ASSEM_MEMBER
100
AcDbLine
 62
9
  6
CONTINUOUS
 10
66.3981501823
 20
72.4397661445
 11
53.6085907669
 21
72.4337789285
  0
SPLINE
  5
5F1
100
AcDbEntity
  8
DEF_LAYER_ASSEM_MEMBER
100
AcDbSpline
 62
9
  6
CONTINUOUS
 70
0
 71
3
 72
12
 73
8
 74
0
 42
0.0000001
 43
0.0000001
 44
0.0000000001
 40
0.0
 40
0.0
 40
0.0
 40
0.0
 40
0.0990272697
 40
0.2113614839
 40
0.4676405901
 40
0.7410816658
 40
1.0
 40
1.0
 40
1.0
 40
1.0
 10
35.3724283177
 20
149.9973621487
 30
0.0
 10
35.3842615623
 20
150.1296644448
 30
0.0
 10
35.4310685442
 20
150.4101182884
 30
0.0
 10
35.5921670273
 20
151.0168488452
 30
0.0
 10
35.8903070543
 20
151.8260426208
 30
0.0
 10
36.2810108784
 20
152.8085434597
 30
0.0
 10
36.5209626398
 20
153.4819755526
 30
0.0
 10
36.6200653278
 20
153.8148364682
 30
0.0
  0
SPLINE
  5
5F2
100
AcDbEntity
  8
DEF_LAYER_ASSEM_MEMBER
100
AcDbSpline
 62
9
  6
CONTINUOUS
 70
0
 71
3
 72
12
 73
8
 74
0
 42
0.0000001
 43
0.0000001
 44
0.0000000001
 40
0.0
 40
0.0
 40
0.0
 40
0.0
 40
0.0990272697
 40
0.2113614839
 40
0.4676405901
 40
0.7410816658
 40
1.0
 40
1.0
 40
1.0
 40
1.0
 10
62.444753197
 20
149.9973621487
 30
0.0
 10
62.4329199524
 20
150.1296644448
 30
0.0
 10
62.3861129705
 20
150.4101182884
 30
0.0
 10
62.2250144875
 20
151.0168488452
 30
0.0
 10
61.9268744604
 20
151.8260426208
 30
0.0
 10
61.5361706363
 20
152.8085434597
 30
0.0
 10
61.2962188749
 20
153.4819755526
 30
0.0
 10
61.1971161869
 20
153.8148364682
 30
0.0
  0
LINE
  5
5F3
100
AcDbEntity
  8
DEF_LAYER_ASSEM_MEMBER
100
AcDbLine
 62
9
  6
CONTINUOUS
 10
53.6085907743
 20
73.7863223499
 11
66.3638880809
 21
73.7942788386
  0
LINE
  5
5F4
100
AcDbEntity
  8
DEF_LAYER_ASSEM_MEMBER
100
AcDbLine
 62
9
  6
CONTINUOUS
 10
66.3638880809
 20
73.7942788386
 11
68.4085907574
 21
73.7863223499
  0
ENDSEC
  0
SECTION
  2
OBJECTS
  0
DICTIONARY
  5
C
100
AcDbDictionary
280
0
281
1
  3
ACAD_GROUP
350
D
  3
ACAD_MLINESTYLE
350
17
  3
ACAD_LAYOUT
350
1A
  3
ACAD_PLOTSETTINGS
350
19
  3
ACAD_PLOTSTYLENAME
350
E
  0
DICTIONARY
  5
D
102
{ACAD_REACTORS
330
C
102
}
100
AcDbDictionary
280
0
281
1
  0
ACDBDICTIONARYWDFLT
  5
E
102
{ACAD_REACTORS
330
C
102
}
100
AcDbDictionary
281
1
  3
Normal
350
F
100
AcDbDictionaryWithDefault
340
F
  0
DICTIONARY
  5
17
102
{ACAD_REACTORS
330
C
102
}
100
AcDbDictionary
280
0
281
1
  3
Standard
350
18
  0
DICTIONARY
  5
19
102
{ACAD_REACTORS
330
C
102
}
100
AcDbDictionary
281
1
  0
DICTIONARY
  5
1A
102
{ACAD_REACTORS
330
C
102
}
100
AcDbDictionary
281
1
  3
Model
350
5F5
  3
Layout1
350
5F6
  0
ACDBPLACEHOLDER
  5
F
102
{ACAD_REACTORS
330
E
102
}
  0
MLINESTYLE
  5
18
102
{ACAD_REACTORS
330
17
102
}
100
AcDbMlineStyle
  2
STANDARD
 70
0
  3

 62
256
 51
90.0
 52
90.0
 71
2
 49
0.5
 62
256
  6
BYLAYER
 49
-0.5
 62
256
  6
BYLAYER
  0
LAYOUT
  5
5F5
102
{ACAD_REACTORS
330
1A
102
}
100
AcDbPlotSettings
  1

  2
none_device
  4
ISO_A4_(297.00_x_210.00_MM)
  6

 40
0.0
 41
0.0
 42
0.0
 43
0.0
 44
297.0
 45
210.0
 46
0.0
 47
0.0
 48
0.0
 49
0.0
140
0.0
141
0.0
142
1.0
143
1.0
 70
1024
 72
1
 73
0
 74
0
  7

 75
0
147
1.0
148
0.0
149
0.0
100
AcDbLayout
  1
Model
 70
0
 71
0
 10
0.0
 20
0.0
 11
297.0
 21
210.0
 12
0.0
 22
0.0
 32
0.0
 14
0.0
 24
0.0
 34
0.0
 15
0.0
 25
0.0
 35
0.0
146
0.0
 13
0.0
 23
0.0
 33
0.0
 16
1.0
 26
0.0
 36
0.0
 17
0.0
 27
1.0
 37
0.0
 76
0
330
275
345
0
346
0
  0
LAYOUT
  5
5F6
102
{ACAD_REACTORS
330
1A
102
}
100
AcDbPlotSettings
  1

  2
none_device
  4
ISO_A4_(297.00_x_210.00_MM)
  6

 40
0.0
 41
0.0
 42
0.0
 43
0.0
 44
297.0
 45
210.0
 46
0.0
 47
0.0
 48
0.0
 49
0.0
140
0.0
141
0.0
142
1.0
143
1.0
 70
0
 72
1
 73
0
 74
0
  7

 75
0
147
1.0
148
0.0
149
0.0
100
AcDbLayout
  1
Layout1
 70
0
 71
1
 10
0.0
 20
0.0
 11
297.0
 21
210.0
 12
0.0
 22
0.0
 32
0.0
 14
0.0
 24
0.0
 34
0.0
 15
0.0
 25
0.0
 35
0.0
146
0.0
 13
0.0
 23
0.0
 33
0.0
 16
1.0
 26
0.0
 36
0.0
 17
0.0
 27
1.0
 37
0.0
 76
0
330
276
345
0
346
0
  0
ENDSEC
  0
EOF
