999
DXF file: ld_ffass054-000500bc0_d0.dxf
999
Pro/ENGINEER 2014440 by Parametric Technology Corporation
  0
SECTION
  2
HEADER
  9
$ACADVER
  1
AC1015
  9
$DWGCODEPAGE
  3
ANSI_1252
  9
$EXTMAX
 10
297.0
 20
420.0
 30
0.0
  9
$EXTMIN
 10
0.0
 20
0.0
 30
0.0
  9
$LIMMIN
 10
0.0
 20
0.0
  9
$LIMMAX
 10
297.0
 20
420.0
  9
$VIEWCTR
 10
148.5
 20
210.0
  9
$VIEWSIZE
 40
420.0
  9
$CLAYER
  8
0
  9
$LTSCALE
 40
27.3777777778
  9
$CELTYPE
  6
BYLAYER
  9
$DIMSCALE
 40
1.0
  9
$DIMASZ
 40
3.0
  9
$DIMEXO
 40
1.0
  9
$DIMDLI
 40
18.9155555556
  9
$DIMEXE
 40
2.0
  9
$DIMCEN
 40
4.48
  9
$DIMLFAC
 40
1.0
  9
$DIMBLK
  1
_FILLED
  9
$DIMALT
 70
0
  9
$DIMALTF
 40
0.0393700787
  9
$DIMTXT
 40
3.0
  9
$DIMTOL
 70
1
  9
$DIMLIM
 70
0
  9
$DIMTFAC
 40
1.0
  9
$DIMTP
 40
0.001
  9
$DIMTM
 40
0.001
  9
$DIMGAP
 40
0.625
  9
$DIMDSEP
 70
46
  9
$AUNITS
 70
0
  9
$PDMODE
 70
3
  9
$PDSIZE
 40
0.3125
  9
$HANDSEED
  5
397
  9
$TILEMODE
 70
1
  9
$MEASUREMENT
 70
1
  9
$INSUNITS
 70
4
  0
ENDSEC
  0
SECTION
  2
CLASSES
  0
CLASS
  1
ACDBDICTIONARYWDFLT
  2
AcDbDictionaryWithDefault
  3
AutoCAD 2000
 90
0
280
0
281
0
  0
CLASS
  1
ACDBPLACEHOLDER
  2
AcDbPlaceHolder
  3
AutoCAD 2000
 90
0
280
0
281
0
  0
CLASS
  1
LAYOUT
  2
AcDbLayout
  3
AutoCAD 2000
 90
0
280
0
281
0
  0
ENDSEC
  0
SECTION
  2
TABLES
  0
TABLE
  2
VPORT
  5
8
100
AcDbSymbolTable
 70
2
  0
VPORT
  5
1F4
100
AcDbSymbolTableRecord
100
AcDbViewportTableRecord
  2
*ACTIVE
 70
0
 10
0.0
 20
0.0
 11
1.0
 21
1.0
 12
148.5
 22
210.0
 13
0.0
 23
0.0
 14
1.0
 24
1.0
 15
0.0
 25
0.0
 16
0.0
 26
0.0
 36
1.0
 17
0.0
 27
0.0
 37
0.0
 40
420.0
 41
0.7071428571
 42
50.0
 43
0.0
 44
0.0
 50
0.0
 51
0.0
 71
0
 72
100
 73
1
 74
1
 75
0
 76
0
 77
0
 78
0
  0
ENDTAB
  0
TABLE
  2
LTYPE
  5
5
100
AcDbSymbolTable
 70
6
  0
LTYPE
  5
14
100
AcDbSymbolTableRecord
100
AcDbLinetypeTableRecord
  2
BYBLOCK
 70
0
  3

 72
65
 73
0
 40
0.0
  0
LTYPE
  5
15
100
AcDbSymbolTableRecord
100
AcDbLinetypeTableRecord
  2
BYLAYER
 70
0
  3

 72
65
 73
0
 40
0.0
  0
LTYPE
  5
16
100
AcDbSymbolTableRecord
100
AcDbLinetypeTableRecord
  2
CONTINUOUS
 70
64
  3
Solid line
 72
65
 73
0
 40
0.0
  0
LTYPE
  5
1F5
100
AcDbSymbolTableRecord
100
AcDbLinetypeTableRecord
  2
CENTER
 70
64
  3
____ _ ____ _ ____ _ ____ _ ____ _ ____ _ ____
 72
65
 73
4
 40
0.6
 49
0.375
 74
0
 49
-0.075
 74
0
 49
0.075
 74
0
 49
-0.075
 74
0
  0
LTYPE
  5
1F6
100
AcDbSymbolTableRecord
100
AcDbLinetypeTableRecord
  2
HIDDEN
 70
64
  3
- - - - - - - - - - - - - - - - - - - -
 72
65
 73
2
 40
0.2
 49
0.1
 74
0
 49
-0.1
 74
0
  0
LTYPE
  5
1F7
100
AcDbSymbolTableRecord
100
AcDbLinetypeTableRecord
  2
PHANTOM
 70
64
  3
_____ _ _ _____ _ _ _____ _ _ _____
 72
65
 73
6
 40
0.8
 49
0.45
 74
0
 49
-0.05
 74
0
 49
0.1
 74
0
 49
-0.05
 74
0
 49
0.1
 74
0
 49
-0.05
 74
0
  0
LTYPE
  5
1F8
100
AcDbSymbolTableRecord
100
AcDbLinetypeTableRecord
  2
DOT
 70
64
  3
. . . . . . . . . . . . . . . . . . . .
 72
65
 73
2
 40
0.2
 49
0.1
 74
0
 49
-0.1
 74
0
  0
LTYPE
  5
1F9
100
AcDbSymbolTableRecord
100
AcDbLinetypeTableRecord
  2
DASHED
 70
64
  3
- - - - - - - - - - - - - - - - - - - -
 72
65
 73
2
 40
0.2
 49
0.1
 74
0
 49
-0.1
 74
0
  0
ENDTAB
  0
TABLE
  2
LAYER
  5
2
100
AcDbSymbolTable
 70
36
  0
LAYER
  5
10
100
AcDbSymbolTableRecord
100
AcDbLayerTableRecord
  2
0
 70
0
 62
7
  6
CONTINUOUS
370
-3
390
F
  0
LAYER
  5
1FA
100
AcDbSymbolTableRecord
100
AcDbLayerTableRecord
  2
DEFAULT_1
 70
0
 62
7
  6
CENTER
370
-3
390
F
  0
LAYER
  5
1FB
100
AcDbSymbolTableRecord
100
AcDbLayerTableRecord
  2
DEFAULT_2
 70
0
 62
8
  6
HIDDEN
370
-3
390
F
  0
LAYER
  5
1FC
100
AcDbSymbolTableRecord
100
AcDbLayerTableRecord
  2
DEFAULT_3
 70
0
 62
7
  6
PHANTOM
370
-3
390
F
  0
LAYER
  5
1FD
100
AcDbSymbolTableRecord
100
AcDbLayerTableRecord
  2
01___PRT_ALL_DTM_PLN
 70
0
 62
7
  6
CONTINUOUS
370
-3
390
F
  0
LAYER
  5
1FE
100
AcDbSymbolTableRecord
100
AcDbLayerTableRecord
  2
01___PRT_DEF_DTM_PLN
 70
0
 62
7
  6
CONTINUOUS
370
-3
390
F
  0
LAYER
  5
1FF
100
AcDbSymbolTableRecord
100
AcDbLayerTableRecord
  2
02___PRT_ALL_AXES
 70
0
 62
7
  6
CONTINUOUS
370
-3
390
F
  0
LAYER
  5
200
100
AcDbSymbolTableRecord
100
AcDbLayerTableRecord
  2
03___PRT_ALL_CURVES
 70
0
 62
7
  6
CONTINUOUS
370
-3
390
F
  0
LAYER
  5
201
100
AcDbSymbolTableRecord
100
AcDbLayerTableRecord
  2
04___PRT_ALL_DTM_PNT
 70
0
 62
7
  6
CONTINUOUS
370
-3
390
F
  0
LAYER
  5
202
100
AcDbSymbolTableRecord
100
AcDbLayerTableRecord
  2
05___PRT_ALL_DTM_CSYS
 70
0
 62
7
  6
CONTINUOUS
370
-3
390
F
  0
LAYER
  5
203
100
AcDbSymbolTableRecord
100
AcDbLayerTableRecord
  2
05___PRT_DEF_DTM_CSYS
 70
0
 62
7
  6
CONTINUOUS
370
-3
390
F
  0
LAYER
  5
204
100
AcDbSymbolTableRecord
100
AcDbLayerTableRecord
  2
06___PRT_ALL_SURFS
 70
0
 62
7
  6
CONTINUOUS
370
-3
390
F
  0
LAYER
  5
205
100
AcDbSymbolTableRecord
100
AcDbLayerTableRecord
  2
DATUM
 70
0
 62
7
  6
CONTINUOUS
370
-3
390
F
  0
LAYER
  5
206
100
AcDbSymbolTableRecord
100
AcDbLayerTableRecord
  2
DEF_ASSEM_MEMBER
 70
0
 62
7
  6
CONTINUOUS
370
-3
390
F
  0
LAYER
  5
207
100
AcDbSymbolTableRecord
100
AcDbLayerTableRecord
  2
DEF_ASSY_CUT_FEAT
 70
0
 62
7
  6
CONTINUOUS
370
-3
390
F
  0
LAYER
  5
208
100
AcDbSymbolTableRecord
100
AcDbLayerTableRecord
  2
DEF_AXIS
 70
0
 62
7
  6
CONTINUOUS
370
-3
390
F
  0
LAYER
  5
209
100
AcDbSymbolTableRecord
100
AcDbLayerTableRecord
  2
DEF_CHAMFER_FEAT
 70
0
 62
7
  6
CONTINUOUS
370
-3
390
F
  0
LAYER
  5
20A
100
AcDbSymbolTableRecord
100
AcDbLayerTableRecord
  2
DEF_CORN_CHAMF_FEAT
 70
0
 62
7
  6
CONTINUOUS
370
-3
390
F
  0
LAYER
  5
20B
100
AcDbSymbolTableRecord
100
AcDbLayerTableRecord
  2
DEF_COSM_SKETCH
 70
0
 62
7
  6
CONTINUOUS
370
-3
390
F
  0
LAYER
  5
20C
100
AcDbSymbolTableRecord
100
AcDbLayerTableRecord
  2
DEF_CSYS
 70
0
 62
7
  6
CONTINUOUS
370
-3
390
F
  0
LAYER
  5
20D
100
AcDbSymbolTableRecord
100
AcDbLayerTableRecord
  2
DEF_CURVE
 70
0
 62
7
  6
CONTINUOUS
370
-3
390
F
  0
LAYER
  5
20E
100
AcDbSymbolTableRecord
100
AcDbLayerTableRecord
  2
DEF_CURVE_ENT
 70
0
 62
7
  6
CONTINUOUS
370
-3
390
F
  0
LAYER
  5
20F
100
AcDbSymbolTableRecord
100
AcDbLayerTableRecord
  2
DEF_CUT_FEAT
 70
0
 62
7
  6
CONTINUOUS
370
-3
390
F
  0
LAYER
  5
210
100
AcDbSymbolTableRecord
100
AcDbLayerTableRecord
  2
DEF_DATUM
 70
0
 62
7
  6
CONTINUOUS
370
-3
390
F
  0
LAYER
  5
211
100
AcDbSymbolTableRecord
100
AcDbLayerTableRecord
  2
DEF_DATUM_PLANE
 70
0
 62
7
  6
CONTINUOUS
370
-3
390
F
  0
LAYER
  5
212
100
AcDbSymbolTableRecord
100
AcDbLayerTableRecord
  2
DEF_DATUM_POINT
 70
0
 62
7
  6
CONTINUOUS
370
-3
390
F
  0
LAYER
  5
213
100
AcDbSymbolTableRecord
100
AcDbLayerTableRecord
  2
DEF_DETAIL_ITEM
 70
0
 62
7
  6
CONTINUOUS
370
-3
390
F
  0
LAYER
  5
214
100
AcDbSymbolTableRecord
100
AcDbLayerTableRecord
  2
DEF_DGM_CONN_COMP
 70
0
 62
7
  6
CONTINUOUS
370
-3
390
F
  0
LAYER
  5
215
100
AcDbSymbolTableRecord
100
AcDbLayerTableRecord
  2
DEF_DGM_HIGHWAY
 70
0
 62
7
  6
CONTINUOUS
370
-3
390
F
  0
LAYER
  5
216
100
AcDbSymbolTableRecord
100
AcDbLayerTableRecord
  2
DEF_DGM_RAIL
 70
0
 62
7
  6
CONTINUOUS
370
-3
390
F
  0
LAYER
  5
217
100
AcDbSymbolTableRecord
100
AcDbLayerTableRecord
  2
DEF_DGM_WIRE
 70
0
 62
7
  6
CONTINUOUS
370
-3
390
F
  0
LAYER
  5
218
100
AcDbSymbolTableRecord
100
AcDbLayerTableRecord
  2
DEF_DIM
 70
0
 62
7
  6
CONTINUOUS
370
-3
390
F
  0
LAYER
  5
219
100
AcDbSymbolTableRecord
100
AcDbLayerTableRecord
  2
DEF_DRAFT_CONSTR
 70
0
 62
7
  6
CONTINUOUS
370
-3
390
F
  0
LAYER
  5
21A
100
AcDbSymbolTableRecord
100
AcDbLayerTableRecord
  2
DEF_DRAFT_DIM
 70
0
 62
7
  6
CONTINUOUS
370
-3
390
F
  0
LAYER
  5
21B
100
AcDbSymbolTableRecord
100
AcDbLayerTableRecord
  2
DEF_DRAFT_DTM
 70
0
 62
7
  6
CONTINUOUS
370
-3
390
F
  0
LAYER
  5
21C
100
AcDbSymbolTableRecord
100
AcDbLayerTableRecord
  2
DEF_DRAFT_ENTITY
 70
0
 62
7
  6
CONTINUOUS
370
-3
390
F
  0
LAYER
  5
21D
100
AcDbSymbolTableRecord
100
AcDbLayerTableRecord
  2
DEF_DRAFT_FEAT
 70
0
 62
7
  6
CONTINUOUS
370
-3
390
F
  0
LAYER
  5
21E
100
AcDbSymbolTableRecord
100
AcDbLayerTableRecord
  2
DEF_DRAFT_GEOM
 70
0
 62
7
  6
CONTINUOUS
370
-3
390
F
  0
LAYER
  5
21F
100
AcDbSymbolTableRecord
100
AcDbLayerTableRecord
  2
DEF_DRAFT_GRP
 70
0
 62
7
  6
CONTINUOUS
370
-3
390
F
  0
LAYER
  5
220
100
AcDbSymbolTableRecord
100
AcDbLayerTableRecord
  2
DEF_DRAFT_HIDDEN
 70
0
 62
7
  6
CONTINUOUS
370
-3
390
F
  0
LAYER
  5
221
100
AcDbSymbolTableRecord
100
AcDbLayerTableRecord
  2
DEF_DRAFT_OTHERS
 70
0
 62
7
  6
CONTINUOUS
370
-3
390
F
  0
LAYER
  5
222
100
AcDbSymbolTableRecord
100
AcDbLayerTableRecord
  2
DEF_DRAFT_REDEFINE
 70
0
 62
7
  6
CONTINUOUS
370
-3
390
F
  0
LAYER
  5
223
100
AcDbSymbolTableRecord
100
AcDbLayerTableRecord
  2
DEF_DRIVEN_DIM
 70
0
 62
7
  6
CONTINUOUS
370
-3
390
F
  0
LAYER
  5
224
100
AcDbSymbolTableRecord
100
AcDbLayerTableRecord
  2
DEF_DWG_TABLE
 70
0
 62
7
  6
CONTINUOUS
370
-3
390
F
  0
LAYER
  5
225
100
AcDbSymbolTableRecord
100
AcDbLayerTableRecord
  2
DEF_FEATURE
 70
0
 62
7
  6
CONTINUOUS
370
-3
390
F
  0
LAYER
  5
226
100
AcDbSymbolTableRecord
100
AcDbLayerTableRecord
  2
DEF_GEOM_FEAT
 70
0
 62
7
  6
CONTINUOUS
370
-3
390
F
  0
LAYER
  5
227
100
AcDbSymbolTableRecord
100
AcDbLayerTableRecord
  2
DEF_GTOL
 70
0
 62
7
  6
CONTINUOUS
370
-3
390
F
  0
LAYER
  5
228
100
AcDbSymbolTableRecord
100
AcDbLayerTableRecord
  2
DEF_HOLE_FEAT
 70
0
 62
7
  6
CONTINUOUS
370
-3
390
F
  0
LAYER
  5
229
100
AcDbSymbolTableRecord
100
AcDbLayerTableRecord
  2
DEF_LAYER_ASSEM_MEMBER
 70
0
 62
7
  6
CONTINUOUS
370
-3
390
F
  0
LAYER
  5
22A
100
AcDbSymbolTableRecord
100
AcDbLayerTableRecord
  2
DEF_LAYER_AXIS
 70
0
 62
7
  6
CONTINUOUS
370
-3
390
F
  0
LAYER
  5
22B
100
AcDbSymbolTableRecord
100
AcDbLayerTableRecord
  2
DEF_LAYER_CSYS
 70
0
 62
7
  6
CONTINUOUS
370
-3
390
F
  0
LAYER
  5
22C
100
AcDbSymbolTableRecord
100
AcDbLayerTableRecord
  2
DEF_LAYER_DATUM
 70
0
 62
7
  6
CONTINUOUS
370
-3
390
F
  0
LAYER
  5
22D
100
AcDbSymbolTableRecord
100
AcDbLayerTableRecord
  2
DEF_LAYER_DIM
 70
0
 62
7
  6
CONTINUOUS
370
-3
390
F
  0
LAYER
  5
22E
100
AcDbSymbolTableRecord
100
AcDbLayerTableRecord
  2
DEF_LAYER_NOTE
 70
0
 62
7
  6
CONTINUOUS
370
-3
390
F
  0
LAYER
  5
22F
100
AcDbSymbolTableRecord
100
AcDbLayerTableRecord
  2
DEF_LAYER_ROUND_FEAT
 70
0
 62
7
  6
CONTINUOUS
370
-3
390
F
  0
LAYER
  5
230
100
AcDbSymbolTableRecord
100
AcDbLayerTableRecord
  2
DEF_NOGEOM_FEAT
 70
0
 62
7
  6
CONTINUOUS
370
-3
390
F
  0
LAYER
  5
231
100
AcDbSymbolTableRecord
100
AcDbLayerTableRecord
  2
DEF_NOTE
 70
0
 62
7
  6
CONTINUOUS
370
-3
390
F
  0
LAYER
  5
232
100
AcDbSymbolTableRecord
100
AcDbLayerTableRecord
  2
DEF_PARAMETER_DIM
 70
0
 62
7
  6
CONTINUOUS
370
-3
390
F
  0
LAYER
  5
233
100
AcDbSymbolTableRecord
100
AcDbLayerTableRecord
  2
DEF_PART_REFDIM
 70
0
 62
7
  6
CONTINUOUS
370
-3
390
F
  0
LAYER
  5
234
100
AcDbSymbolTableRecord
100
AcDbLayerTableRecord
  2
DEF_POINT
 70
0
 62
7
  6
CONTINUOUS
370
-3
390
F
  0
LAYER
  5
235
100
AcDbSymbolTableRecord
100
AcDbLayerTableRecord
  2
DEF_PROTRUSION_FEAT
 70
0
 62
7
  6
CONTINUOUS
370
-3
390
F
  0
LAYER
  5
236
100
AcDbSymbolTableRecord
100
AcDbLayerTableRecord
  2
DEF_QUILT
 70
0
 62
7
  6
CONTINUOUS
370
-3
390
F
  0
LAYER
  5
237
100
AcDbSymbolTableRecord
100
AcDbLayerTableRecord
  2
DEF_REFDIM
 70
0
 62
7
  6
CONTINUOUS
370
-3
390
F
  0
LAYER
  5
238
100
AcDbSymbolTableRecord
100
AcDbLayerTableRecord
  2
DEF_RIB_FEAT
 70
0
 62
7
  6
CONTINUOUS
370
-3
390
F
  0
LAYER
  5
239
100
AcDbSymbolTableRecord
100
AcDbLayerTableRecord
  2
DEF_ROUND_FEAT
 70
0
 62
7
  6
CONTINUOUS
370
-3
390
F
  0
LAYER
  5
23A
100
AcDbSymbolTableRecord
100
AcDbLayerTableRecord
  2
DEF_SFIN
 70
0
 62
7
  6
CONTINUOUS
370
-3
390
F
  0
LAYER
  5
23B
100
AcDbSymbolTableRecord
100
AcDbLayerTableRecord
  2
DEF_SHELL_FEAT
 70
0
 62
7
  6
CONTINUOUS
370
-3
390
F
  0
LAYER
  5
23C
100
AcDbSymbolTableRecord
100
AcDbLayerTableRecord
  2
DEF_SLOT_FEAT
 70
0
 62
7
  6
CONTINUOUS
370
-3
390
F
  0
LAYER
  5
23D
100
AcDbSymbolTableRecord
100
AcDbLayerTableRecord
  2
DEF_SNAP_LINE
 70
0
 62
7
  6
CONTINUOUS
370
-3
390
F
  0
LAYER
  5
23E
100
AcDbSymbolTableRecord
100
AcDbLayerTableRecord
  2
DEF_SURFACE
 70
0
 62
7
  6
CONTINUOUS
370
-3
390
F
  0
LAYER
  5
23F
100
AcDbSymbolTableRecord
100
AcDbLayerTableRecord
  2
DEF_SYMBOL
 70
0
 62
7
  6
CONTINUOUS
370
-3
390
F
  0
LAYER
  5
240
100
AcDbSymbolTableRecord
100
AcDbLayerTableRecord
  2
EBENEN
 70
0
 62
7
  6
CONTINUOUS
370
-3
390
F
  0
LAYER
  5
241
100
AcDbSymbolTableRecord
100
AcDbLayerTableRecord
  2
ERZ_
 70
0
 62
7
  6
CONTINUOUS
370
-3
390
F
  0
LAYER
  5
242
100
AcDbSymbolTableRecord
100
AcDbLayerTableRecord
  2
PARAMASSE
 70
0
 62
7
  6
CONTINUOUS
370
-3
390
F
  0
LAYER
  5
243
100
AcDbSymbolTableRecord
100
AcDbLayerTableRecord
  2
PARAMETER_DIM
 70
0
 62
7
  6
CONTINUOUS
370
-3
390
F
  0
LAYER
  5
244
100
AcDbSymbolTableRecord
100
AcDbLayerTableRecord
  2
SCHNITT
 70
0
 62
7
  6
CONTINUOUS
370
-3
390
F
  0
LAYER
  5
245
100
AcDbSymbolTableRecord
100
AcDbLayerTableRecord
  2
XSEC_DATUMS
 70
0
 62
7
  6
CONTINUOUS
370
-3
390
F
  0
ENDTAB
  0
TABLE
  2
STYLE
  5
3
100
AcDbSymbolTable
 70
1
  0
STYLE
  5
11
100
AcDbSymbolTableRecord
100
AcDbTextStyleTableRecord
  2
STANDARD
 70
0
 40
0.0
 41
0.8
 50
0.0
 71
0
 42
0.2
  3
txt
  4

  0
STYLE
  5
246
100
AcDbSymbolTableRecord
100
AcDbTextStyleTableRecord
  2
TEXTSTYLE_1
 70
0
 40
0.0
 41
0.8
 50
0.0
 71
0
 42
0.2
  3
gdt
  4

  0
ENDTAB
  0
TABLE
  2
VIEW
  5
6
100
AcDbSymbolTable
 70
0
  0
ENDTAB
  0
TABLE
  2
UCS
  5
7
100
AcDbSymbolTable
 70
0
  0
ENDTAB
  0
TABLE
  2
APPID
  5
9
100
AcDbSymbolTable
 70
1
  0
APPID
  5
247
100
AcDbSymbolTableRecord
100
AcDbRegAppTableRecord
  2
ACAD
 70
0
  0
ENDTAB
  0
TABLE
  2
BLOCK_RECORD
  5
1
100
AcDbSymbolTable
 70
0
  0
BLOCK_RECORD
  5
248
100
AcDbSymbolTableRecord
100
AcDbBlockTableRecord
  2
*Model_Space
  0
BLOCK_RECORD
  5
249
100
AcDbSymbolTableRecord
100
AcDbBlockTableRecord
  2
*Paper_Space
  0
BLOCK_RECORD
  5
24A
100
AcDbSymbolTableRecord
100
AcDbBlockTableRecord
  2
_FILLED
  0
BLOCK_RECORD
  5
24B
100
AcDbSymbolTableRecord
100
AcDbBlockTableRecord
  2
*D0
  0
BLOCK_RECORD
  5
24C
100
AcDbSymbolTableRecord
100
AcDbBlockTableRecord
  2
*D1
  0
BLOCK_RECORD
  5
24D
100
AcDbSymbolTableRecord
100
AcDbBlockTableRecord
  2
*D2
  0
BLOCK_RECORD
  5
24E
100
AcDbSymbolTableRecord
100
AcDbBlockTableRecord
  2
*D3
  0
BLOCK_RECORD
  5
24F
100
AcDbSymbolTableRecord
100
AcDbBlockTableRecord
  2
*D4
  0
ENDTAB
  0
TABLE
  2
DIMSTYLE
  5
A
100
AcDbSymbolTable
 70
1
100
AcDbDimStyleTable
 71
0
  0
DIMSTYLE
105
250
100
AcDbSymbolTableRecord
100
AcDbDimStyleTableRecord
  2
STANDARD
 70
0
  3

  4

 40
1.0
 41
3.0
 42
1.0
 43
0.38
 44
2.0
 45
0.0
 46
0.0
 47
0.001
 48
0.001
140
3.0
141
0.09
142
0.0
143
25.4
144
1.0
145
0.0
146
1.0
147
0.625
 71
1.0
 72
0.0
 73
0
 74
0
 75
0
 76
0
 77
1
 78
8
170
0
171
2
172
0
173
0
174
0
175
0
176
0
177
0
178
0
270
2
271
3
272
3
273
2
274
2
275
0
280
0
281
0
282
0
283
1
284
8
285
0
286
0
287
3
288
0
340
11
278
46
341
24A
342
24A
343
24A
344
24A
  0
DIMSTYLE
105
251
100
AcDbSymbolTableRecord
100
AcDbDimStyleTableRecord
  2
DIMSTYLE_1
 70
0
  3

  4

 40
1.0
 41
3.0
 42
1.0
 43
0.38
 44
2.0
 45
0.0
 46
0.0
 47
0.001
 48
0.001
140
8.0
141
0.09
142
0.0
143
25.4
144
1.0
145
0.0
146
1.0
147
2.0
 71
0.0
 72
0.0
 73
0
 74
0
 75
0
 76
0
 77
1
 78
8
170
0
171
2
172
0
173
0
174
0
175
0
176
0
177
0
178
0
270
2
271
3
272
3
273
2
274
2
275
0
280
0
281
0
282
0
283
1
284
8
285
0
286
0
287
3
288
0
340
11
278
46
341
24A
342
24A
343
24A
344
24A
  0
ENDTAB
  0
ENDSEC
  0
SECTION
  2
BLOCKS
  0
BLOCK
  5
20
100
AcDbEntity
  8
0
100
AcDbBlockBegin
  2
*Model_Space
 70
0
 10
0.0
 20
0.0
 30
0.0
  3
*Model_Space
  1

  0
ENDBLK
  5
21
100
AcDbEntity
  8
0
100
AcDbBlockEnd
  0
BLOCK
  5
1C
100
AcDbEntity
  8
0
100
AcDbBlockBegin
  2
*Paper_Space
 70
0
 10
0.0
 20
0.0
 30
0.0
  3
*Paper_Space
  1

  0
ENDBLK
  5
1D
100
AcDbEntity
  8
0
100
AcDbBlockEnd
  0
BLOCK
  5
252
100
AcDbEntity
  8
0
100
AcDbBlockBegin
  2
_FILLED
 70
64
 10
0.0
 20
0.0
  3
_FILLED
  1

  0
SOLID
  5
253
100
AcDbEntity
  8
0
  6
BYBLOCK
 62
0
100
AcDbTrace
 10
0.0
 20
0.0
 11
-1.0
 21
0.2
 12
-1.0
 22
-0.2
 13
-1.0
 23
-0.2
  0
ENDBLK
  5
254
100
AcDbEntity
  8
0
  6
BYBLOCK
 62
0
100
AcDbBlockEnd
  0
BLOCK
  5
255
100
AcDbEntity
  8
DEF_LAYER_DIM
100
AcDbBlockBegin
 62
2
  6
CONTINUOUS
  2
*D0
 70
65
 10
0.0
 20
0.0
  3
*D0
  1

  0
MTEXT
  5
256
100
AcDbEntity
  8
DEF_LAYER_DIM
100
AcDbMText
 62
2
  6
CONTINUOUS
  7
STANDARD
 71
2
 72
1
 10
53.3144335506
 20
351.5178727361
 30
0.0
 11
0.0
 21
1.0
 31
0.0
 44
0.9
  1
10
 40
8.0
 41
12.8
  0
LINE
  5
257
100
AcDbEntity
  8
DEF_LAYER_DIM
100
AcDbLine
 62
2
  6
CONTINUOUS
 10
88.6256589586
 20
356.5178727361
 11
65.3144335506
 21
356.5178727361
  0
LINE
  5
258
100
AcDbEntity
  8
DEF_LAYER_DIM
100
AcDbLine
 62
2
  6
CONTINUOUS
 10
88.1256589586
 20
346.5178727361
 11
65.3144335506
 21
346.5178727361
  0
LINE
  5
259
100
AcDbEntity
  8
DEF_LAYER_DIM
100
AcDbLine
 62
2
  6
CONTINUOUS
 10
63.3144335506
 20
356.5178727361
 11
63.3144335506
 21
360.5178727361
  0
LINE
  5
25A
100
AcDbEntity
  8
DEF_LAYER_DIM
100
AcDbLine
 62
2
  6
CONTINUOUS
 10
63.3144335506
 20
360.5178727361
 11
63.3144335506
 21
351.5178727361
  0
LINE
  5
25B
100
AcDbEntity
  8
DEF_LAYER_DIM
100
AcDbLine
 62
2
  6
CONTINUOUS
 10
63.3144335506
 20
346.5178727361
 11
63.3144335506
 21
342.5178727361
  0
LINE
  5
25C
100
AcDbEntity
  8
DEF_LAYER_DIM
100
AcDbLine
 62
2
  6
CONTINUOUS
 10
63.3144335506
 20
342.5178727361
 11
63.3144335506
 21
351.5178727361
  0
INSERT
  5
25D
100
AcDbEntity
  8
DEF_LAYER_DIM
100
AcDbBlockReference
 62
2
  6
CONTINUOUS
  2
_FILLED
 10
63.3144335506
 20
356.5178727361
 41
3.0
 42
3.0
 43
3.0
 50
270.0
  0
INSERT
  5
25E
100
AcDbEntity
  8
DEF_LAYER_DIM
100
AcDbBlockReference
 62
2
  6
CONTINUOUS
  2
_FILLED
 10
63.3144335506
 20
346.5178727361
 41
3.0
 42
3.0
 43
3.0
 50
90.0
  0
ENDBLK
  5
25F
100
AcDbEntity
  8
0
  6
BYBLOCK
 62
0
100
AcDbBlockEnd
  0
BLOCK
  5
260
100
AcDbEntity
  8
DEF_LAYER_DIM
100
AcDbBlockBegin
 62
2
  6
CONTINUOUS
  2
*D1
 70
65
 10
0.0
 20
0.0
  3
*D1
  1

  0
MTEXT
  5
261
100
AcDbEntity
  8
DEF_LAYER_DIM
100
AcDbMText
 62
2
  6
CONTINUOUS
  7
STANDARD
 71
2
 72
1
 10
237.6286414992
 20
130.981854036
 30
0.0
 11
0.0
 21
1.0
 31
0.0
 44
0.9
  1
135
 40
8.0
 41
19.2
  0
LINE
  5
262
100
AcDbEntity
  8
DEF_LAYER_DIM
100
AcDbLine
 62
2
  6
CONTINUOUS
 10
213.1256589586
 20
198.3700032342
 11
245.6286414992
 21
198.3700032342
  0
LINE
  5
263
100
AcDbEntity
  8
DEF_LAYER_DIM
100
AcDbLine
 62
2
  6
CONTINUOUS
 10
245.6286414992
 20
198.3700032342
 11
249.6286414992
 21
198.3700032342
  0
LINE
  5
264
100
AcDbEntity
  8
DEF_LAYER_DIM
100
AcDbLine
 62
2
  6
CONTINUOUS
 10
213.1256589586
 20
63.3700032342
 11
245.6286414992
 21
63.3700032342
  0
LINE
  5
265
100
AcDbEntity
  8
DEF_LAYER_DIM
100
AcDbLine
 62
2
  6
CONTINUOUS
 10
245.6286414992
 20
63.3700032342
 11
249.6286414992
 21
63.3700032342
  0
LINE
  5
266
100
AcDbEntity
  8
DEF_LAYER_DIM
100
AcDbLine
 62
2
  6
CONTINUOUS
 10
247.6286414992
 20
198.3700032342
 11
247.6286414992
 21
130.8700032342
  0
LINE
  5
267
100
AcDbEntity
  8
DEF_LAYER_DIM
100
AcDbLine
 62
2
  6
CONTINUOUS
 10
247.6286414992
 20
63.3700032342
 11
247.6286414992
 21
130.8700032342
  0
INSERT
  5
268
100
AcDbEntity
  8
DEF_LAYER_DIM
100
AcDbBlockReference
 62
2
  6
CONTINUOUS
  2
_FILLED
 10
247.6286414992
 20
198.3700032342
 41
3.0
 42
3.0
 43
3.0
 50
90.0
  0
INSERT
  5
269
100
AcDbEntity
  8
DEF_LAYER_DIM
100
AcDbBlockReference
 62
2
  6
CONTINUOUS
  2
_FILLED
 10
247.6286414992
 20
63.3700032342
 41
3.0
 42
3.0
 43
3.0
 50
270.0
  0
ENDBLK
  5
26A
100
AcDbEntity
  8
0
  6
BYBLOCK
 62
0
100
AcDbBlockEnd
  0
BLOCK
  5
26B
100
AcDbEntity
  8
DEF_LAYER_DIM
100
AcDbBlockBegin
 62
2
  6
CONTINUOUS
  2
*D2
 70
65
 10
0.0
 20
0.0
  3
*D2
  1

  0
MTEXT
  5
26C
100
AcDbEntity
  8
DEF_LAYER_DIM
100
AcDbMText
 62
2
  6
CONTINUOUS
  7
STANDARD
 71
2
 72
1
 10
155.0944235739
 20
215.3561595466
 30
0.0
 11
1.0
 21
0.0
 31
0.0
 44
0.9
  1
135
 40
8.0
 41
19.2
  0
LINE
  5
26D
100
AcDbEntity
  8
DEF_LAYER_DIM
100
AcDbLine
 62
2
  6
CONTINUOUS
 10
224.1256589586
 20
187.3700032342
 11
224.1256589586
 21
207.3561595466
  0
LINE
  5
26E
100
AcDbEntity
  8
DEF_LAYER_DIM
100
AcDbLine
 62
2
  6
CONTINUOUS
 10
89.1256589586
 20
187.3700032342
 11
89.1256589586
 21
207.3561595466
  0
LINE
  5
26F
100
AcDbEntity
  8
DEF_LAYER_DIM
100
AcDbLine
 62
2
  6
CONTINUOUS
 10
224.1256589586
 20
205.3561595466
 11
156.6256589586
 21
205.3561595466
  0
LINE
  5
270
100
AcDbEntity
  8
DEF_LAYER_DIM
100
AcDbLine
 62
2
  6
CONTINUOUS
 10
89.1256589586
 20
205.3561595466
 11
156.6256589586
 21
205.3561595466
  0
INSERT
  5
271
100
AcDbEntity
  8
DEF_LAYER_DIM
100
AcDbBlockReference
 62
2
  6
CONTINUOUS
  2
_FILLED
 10
224.1256589586
 20
205.3561595466
 41
3.0
 42
3.0
 43
3.0
  0
INSERT
  5
272
100
AcDbEntity
  8
DEF_LAYER_DIM
100
AcDbBlockReference
 62
2
  6
CONTINUOUS
  2
_FILLED
 10
89.1256589586
 20
205.3561595466
 41
3.0
 42
3.0
 43
3.0
 50
180.0
  0
ENDBLK
  5
273
100
AcDbEntity
  8
0
  6
BYBLOCK
 62
0
100
AcDbBlockEnd
  0
BLOCK
  5
274
100
AcDbEntity
  8
DEF_LAYER_DIM
100
AcDbBlockBegin
 62
2
  6
CONTINUOUS
  2
*D3
 70
65
 10
0.0
 20
0.0
  3
*D3
  1

  0
MTEXT
  5
275
100
AcDbEntity
  8
DEF_LAYER_DIM
100
AcDbMText
 62
2
  6
CONTINUOUS
  7
STANDARD
 71
2
 72
1
 10
53.3144335506
 20
312.7678727361
 30
0.0
 11
0.0
 21
1.0
 31
0.0
 44
0.9
  1
Max.67.5
 40
8.0
 41
51.2
  0
LINE
  5
276
100
AcDbEntity
  8
DEF_LAYER_DIM
100
AcDbLine
 62
2
  6
CONTINUOUS
 10
100.6256589586
 20
279.0178727361
 11
61.3144335506
 21
279.0178727361
  0
LINE
  5
277
100
AcDbEntity
  8
DEF_LAYER_DIM
100
AcDbLine
 62
2
  6
CONTINUOUS
 10
93.1256589586
 20
346.5178727361
 11
61.3144335506
 21
346.5178727361
  0
LINE
  5
278
100
AcDbEntity
  8
DEF_LAYER_DIM
100
AcDbLine
 62
2
  6
CONTINUOUS
 10
63.3144335506
 20
279.0178727361
 11
63.3144335506
 21
312.7678727361
  0
LINE
  5
279
100
AcDbEntity
  8
DEF_LAYER_DIM
100
AcDbLine
 62
2
  6
CONTINUOUS
 10
63.3144335506
 20
346.5178727361
 11
63.3144335506
 21
312.7678727361
  0
INSERT
  5
27A
100
AcDbEntity
  8
DEF_LAYER_DIM
100
AcDbBlockReference
 62
2
  6
CONTINUOUS
  2
_FILLED
 10
63.3144335506
 20
279.0178727361
 41
3.0
 42
3.0
 43
3.0
 50
270.0
  0
INSERT
  5
27B
100
AcDbEntity
  8
DEF_LAYER_DIM
100
AcDbBlockReference
 62
2
  6
CONTINUOUS
  2
_FILLED
 10
63.3144335506
 20
346.5178727361
 41
3.0
 42
3.0
 43
3.0
 50
90.0
  0
ENDBLK
  5
27C
100
AcDbEntity
  8
0
  6
BYBLOCK
 62
0
100
AcDbBlockEnd
  0
BLOCK
  5
27D
100
AcDbEntity
  8
DEF_LAYER_DIM
100
AcDbBlockBegin
 62
2
  6
CONTINUOUS
  2
*D4
 70
65
 10
0.0
 20
0.0
  3
*D4
  1

  0
MTEXT
  5
27E
100
AcDbEntity
  8
DEF_LAYER_DIM
100
AcDbMText
 62
2
  6
CONTINUOUS
  7
STANDARD
 71
2
 72
1
 10
71.2520521793
 20
311.7688287316
 30
0.0
 11
0.0
 21
1.0
 31
0.0
 44
0.9
  1
Min.44.5
 40
8.0
 41
51.2
  0
LINE
  5
27F
100
AcDbEntity
  8
DEF_LAYER_DIM
100
AcDbLine
 62
2
  6
CONTINUOUS
 10
88.3757650071
 20
323.5178727361
 11
83.2520521793
 21
323.5178727361
  0
LINE
  5
280
100
AcDbEntity
  8
DEF_LAYER_DIM
100
AcDbLine
 62
2
  6
CONTINUOUS
 10
88.1256589586
 20
279.0178727361
 11
79.2520521793
 21
279.0178727361
  0
LINE
  5
281
100
AcDbEntity
  8
DEF_LAYER_DIM
100
AcDbLine
 62
2
  6
CONTINUOUS
 10
81.2520521793
 20
323.5178727361
 11
81.2520521793
 21
301.2678727361
  0
LINE
  5
282
100
AcDbEntity
  8
DEF_LAYER_DIM
100
AcDbLine
 62
2
  6
CONTINUOUS
 10
81.2520521793
 20
279.0178727361
 11
81.2520521793
 21
301.2678727361
  0
INSERT
  5
283
100
AcDbEntity
  8
DEF_LAYER_DIM
100
AcDbBlockReference
 62
2
  6
CONTINUOUS
  2
_FILLED
 10
81.2520521793
 20
323.5178727361
 41
3.0
 42
3.0
 43
3.0
 50
90.0
  0
INSERT
  5
284
100
AcDbEntity
  8
DEF_LAYER_DIM
100
AcDbBlockReference
 62
2
  6
CONTINUOUS
  2
_FILLED
 10
81.2520521793
 20
279.0178727361
 41
3.0
 42
3.0
 43
3.0
 50
270.0
  0
ENDBLK
  5
285
100
AcDbEntity
  8
0
  6
BYBLOCK
 62
0
100
AcDbBlockEnd
  0
ENDSEC
  0
SECTION
  2
ENTITIES
  0
DIMENSION
  5
286
100
AcDbEntity
  8
DEF_LAYER_DIM
100
AcDbDimension
 62
2
  6
CONTINUOUS
  2
*D0
 10
63.3144335506
 20
346.5178727361
 11
63.3144335506
 21
352.3178738643
 70
160
 71
2
  1
10
  3
DIMSTYLE_1
100
AcDbAlignedDimension
 13
89.6256589586
 23
356.5178727361
 14
89.1256589586
 24
346.5178727361
 50
270.0
100
AcDbRotatedDimension
  0
DIMENSION
  5
287
100
AcDbEntity
  8
DEF_LAYER_DIM
100
AcDbDimension
 62
2
  6
CONTINUOUS
  2
*D1
 10
247.6286414992
 20
63.3700032342
 11
247.6286414992
 21
131.9818605403
 70
160
 71
2
  1
135
  3
DIMSTYLE_1
100
AcDbAlignedDimension
 13
212.1256589586
 23
198.3700032342
 14
212.1256589586
 24
63.3700032342
 50
270.0
100
AcDbRotatedDimension
  0
DIMENSION
  5
288
100
AcDbEntity
  8
DEF_LAYER_DIM
100
AcDbDimension
 62
2
  6
CONTINUOUS
  2
*D2
 10
89.1256589586
 20
205.3561595466
 11
156.0944303385
 21
205.3561595466
 70
160
 71
2
  1
135
  3
DIMSTYLE_1
100
AcDbAlignedDimension
 13
224.1256589586
 23
186.3700032342
 14
89.1256589586
 24
186.3700032342
 50
180.0
100
AcDbRotatedDimension
  0
DIMENSION
  5
289
100
AcDbEntity
  8
DEF_LAYER_DIM
100
AcDbDimension
 62
2
  6
CONTINUOUS
  2
*D3
 10
63.3144335506
 20
346.5178727361
 11
63.3144335506
 21
312.7678706091
 70
160
 71
2
  1
Max.67.5
  3
DIMSTYLE_1
100
AcDbAlignedDimension
 13
101.6256589586
 23
279.0178727361
 14
94.1256589586
 24
346.5178727361
 50
90.0
100
AcDbRotatedDimension
  0
DIMENSION
  5
28A
100
AcDbEntity
  8
DEF_LAYER_DIM
100
AcDbDimension
 62
2
  6
CONTINUOUS
  2
*D4
 10
81.2520521793
 20
279.0178727361
 11
81.2520521793
 21
311.7688295037
 70
160
 71
2
  1
Min.44.5
  3
DIMSTYLE_1
100
AcDbAlignedDimension
 13
89.3757650071
 23
323.5178727361
 14
89.1256589586
 24
279.0178727361
 50
270.0
100
AcDbRotatedDimension
  0
LEADER
  5
28B
100
AcDbEntity
  8
DEF_LAYER_NOTE
100
AcDbLeader
 62
2
  6
CONTINUOUS
  3
STANDARD
 71
1
 72
0
 73
0
 75
0
 40
8.0
 41
32.0
 76
3
 10
162.9897113618
 20
263.5178727361
 30
0.0
 10
182.4638412608
 20
248.5997159761
 30
0.0
 10
184.4638412608
 20
248.5997159761
 30
0.0
340
28C
1001
ACAD
1000
DSTYLE
1002
{
1070
77
1070
0
1002
}
  0
MTEXT
  5
28C
102
{ACAD_REACTORS
330
28B
102
}
100
AcDbEntity
  8
DEF_LAYER_NOTE
100
AcDbMText
 62
2
  6
CONTINUOUS
  7
STANDARD
 71
1
 72
1
 10
184.4638412608
 20
252.5997159761
 30
0.0
 11
1.0
 21
0.0
 31
0.0
 44
0.9
  1
G1/2"
 40
8.0
 41
32.0
  0
LINE
  5
28D
100
AcDbEntity
  8
0
100
AcDbLine
 62
7
  6
CONTINUOUS
 10
0.0
 20
0.0
 11
297.0
 21
0.0
  0
LINE
  5
28E
100
AcDbEntity
  8
0
100
AcDbLine
 62
7
  6
CONTINUOUS
 10
0.0
 20
0.0
 11
297.0
 21
0.0
  0
LINE
  5
28F
100
AcDbEntity
  8
0
100
AcDbLine
 62
7
  6
CONTINUOUS
 10
0.0
 20
0.0
 11
0.0
 21
420.0
  0
LINE
  5
290
100
AcDbEntity
  8
0
100
AcDbLine
 62
7
  6
CONTINUOUS
 10
0.0
 20
0.0
 11
0.0
 21
420.0
  0
LINE
  5
291
100
AcDbEntity
  8
DEF_LAYER_ASSEM_MEMBER
100
AcDbLine
 62
7
  6
CONTINUOUS
 10
101.1256589586
 20
63.3700032342
 11
212.1256589586
 21
63.3700032342
  0
LINE
  5
292
100
AcDbEntity
  8
DEF_LAYER_ASSEM_MEMBER
100
AcDbLine
 62
9
  6
CONTINUOUS
 10
101.1256589586
 20
63.8700032342
 11
212.1256589586
 21
63.8700032342
  0
LINE
  5
293
100
AcDbEntity
  8
DEF_LAYER_ASSEM_MEMBER
100
AcDbLine
 62
9
  6
CONTINUOUS
 10
89.6256589586
 20
75.3700032342
 11
89.1256589586
 21
75.3700032342
  0
LINE
  5
294
100
AcDbEntity
  8
DEF_LAYER_ASSEM_MEMBER
100
AcDbLine
 62
9
  6
CONTINUOUS
 10
223.6256589586
 20
75.3700032342
 11
224.1256589586
 21
75.3700032342
  0
LINE
  5
295
100
AcDbEntity
  8
DEF_LAYER_ASSEM_MEMBER
100
AcDbLine
 62
7
  6
CONTINUOUS
 10
89.1256589586
 20
356.0178727361
 11
89.1256589586
 21
346.5178727361
  0
LINE
  5
296
100
AcDbEntity
  8
DEF_LAYER_ASSEM_MEMBER
100
AcDbLine
 62
7
  6
CONTINUOUS
 10
89.1256589586
 20
281.5178727361
 11
89.1256589586
 21
279.0178727361
  0
LINE
  5
297
100
AcDbEntity
  8
DEF_LAYER_ASSEM_MEMBER
100
AcDbLine
 62
7
  6
CONTINUOUS
 10
89.1256589586
 20
186.3700032342
 11
89.1256589586
 21
75.3700032342
  0
LINE
  5
298
100
AcDbEntity
  8
DEF_LAYER_ASSEM_MEMBER
100
AcDbLine
 62
7
  6
CONTINUOUS
 10
89.3757650071
 20
317.5178727361
 11
89.3757650071
 21
323.5178727361
  0
LINE
  5
299
100
AcDbEntity
  8
DEF_LAYER_ASSEM_MEMBER
100
AcDbLine
 62
9
  6
CONTINUOUS
 10
89.6256589586
 20
186.3700032342
 11
89.6256589586
 21
75.3700032342
  0
LINE
  5
29A
100
AcDbEntity
  8
DEF_LAYER_ASSEM_MEMBER
100
AcDbLine
 62
7
  6
CONTINUOUS
 10
91.3071164637
 20
281.5178727361
 11
91.3071164637
 21
286.5178727361
  0
LINE
  5
29B
100
AcDbEntity
  8
DEF_LAYER_ASSEM_MEMBER
100
AcDbLine
 62
9
  6
CONTINUOUS
 10
93.8757650071
 20
323.5178727361
 11
93.8757650071
 21
317.5178727361
  0
LINE
  5
29C
100
AcDbEntity
  8
DEF_LAYER_ASSEM_MEMBER
100
AcDbLine
 62
7
  6
CONTINUOUS
 10
98.976802387
 20
323.5178727361
 11
98.976802387
 21
317.5178727361
  0
LINE
  5
29D
100
AcDbEntity
  8
DEF_LAYER_ASSEM_MEMBER
100
AcDbLine
 62
9
  6
CONTINUOUS
 10
101.1256589586
 20
356.5178727361
 11
101.1256589586
 21
346.5178727361
  0
LINE
  5
29E
100
AcDbEntity
  8
DEF_LAYER_ASSEM_MEMBER
100
AcDbLine
 62
9
  6
CONTINUOUS
 10
101.1256589586
 20
63.8700032342
 11
101.1256589586
 21
63.3700032342
  0
LINE
  5
29F
100
AcDbEntity
  8
DEF_LAYER_ASSEM_MEMBER
100
AcDbLine
 62
9
  6
CONTINUOUS
 10
101.1256589586
 20
197.8700032342
 11
101.1256589586
 21
198.3700032342
  0
LINE
  5
2A0
100
AcDbEntity
  8
DEF_LAYER_ASSEM_MEMBER
100
AcDbLine
 62
9
  6
CONTINUOUS
 10
101.6256589586
 20
281.5178727361
 11
101.6256589586
 21
279.0178727361
  0
LINE
  5
2A1
100
AcDbEntity
  8
DEF_LAYER_ASSEM_MEMBER
100
AcDbLine
 62
7
  6
CONTINUOUS
 10
102.3759174577
 20
286.5178727361
 11
102.3759174577
 21
323.5178727361
  0
LINE
  5
2A2
100
AcDbEntity
  8
DEF_LAYER_ASSEM_MEMBER
100
AcDbLine
 62
7
  6
CONTINUOUS
 10
103.1759174577
 20
346.5178727361
 11
103.1759174577
 21
323.5178727361
  0
LINE
  5
2A3
100
AcDbEntity
  8
DEF_LAYER_ASSEM_MEMBER
100
AcDbLine
 62
9
  6
CONTINUOUS
 10
106.2443007991
 20
281.5178727361
 11
106.2443007991
 21
286.5178727361
  0
LINE
  5
2A4
100
AcDbEntity
  8
DEF_LAYER_ASSEM_MEMBER
100
AcDbLine
 62
7
  6
CONTINUOUS
 10
116.1256589586
 20
267.0178727361
 11
116.1256589586
 21
279.0178727361
  0
LINE
  5
2A5
100
AcDbEntity
  8
DEF_LAYER_ASSEM_MEMBER
100
AcDbLine
 62
7
  6
CONTINUOUS
 10
120.4073876032
 20
357.0178727361
 11
120.4073876032
 21
358.0178727361
  0
LINE
  5
2A6
100
AcDbEntity
  8
DEF_LAYER_ASSEM_MEMBER
100
AcDbLine
 62
7
  6
CONTINUOUS
 10
121.3761445838
 20
281.5178727361
 11
121.3761445838
 21
286.5178727361
  0
LINE
  5
2A7
100
AcDbEntity
  8
DEF_LAYER_ASSEM_MEMBER
100
AcDbLine
 62
7
  6
CONTINUOUS
 10
121.9864172311
 20
357.0178727361
 11
121.9864172311
 21
358.0178727361
  0
LINE
  5
2A8
100
AcDbEntity
  8
DEF_LAYER_ASSEM_MEMBER
100
AcDbLine
 62
7
  6
CONTINUOUS
 10
125.4864172311
 20
357.0178727361
 11
125.4864172311
 21
358.0178727361
  0
LINE
  5
2A9
100
AcDbEntity
  8
DEF_LAYER_ASSEM_MEMBER
100
AcDbLine
 62
7
  6
CONTINUOUS
 10
126.1005961441
 20
267.0178727361
 11
126.1005961441
 21
279.0178727361
  0
LINE
  5
2AA
100
AcDbEntity
  8
DEF_LAYER_ASSEM_MEMBER
100
AcDbLine
 62
7
  6
CONTINUOUS
 10
128.0641034494
 20
357.0178727361
 11
128.0641034494
 21
358.0178727361
  0
LINE
  5
2AB
100
AcDbEntity
  8
DEF_LAYER_ASSEM_MEMBER
100
AcDbLine
 62
7
  6
CONTINUOUS
 10
131.5641034494
 20
357.0178727361
 11
131.5641034494
 21
358.0178727361
  0
LINE
  5
2AC
100
AcDbEntity
  8
DEF_LAYER_ASSEM_MEMBER
100
AcDbLine
 62
7
  6
CONTINUOUS
 10
132.3780926196
 20
357.0178727361
 11
132.3780926196
 21
358.0178727361
  0
LINE
  5
2AD
100
AcDbEntity
  8
DEF_LAYER_ASSEM_MEMBER
100
AcDbLine
 62
7
  6
CONTINUOUS
 10
132.8031589586
 20
281.5178727361
 11
132.8031589586
 21
323.5178727361
  0
LINE
  5
2AE
100
AcDbEntity
  8
DEF_LAYER_ASSEM_MEMBER
100
AcDbLine
 62
7
  6
CONTINUOUS
 10
132.971666979
 20
346.5178727361
 11
132.971666979
 21
323.5178727361
  0
LINE
  5
2AF
100
AcDbEntity
  8
DEF_LAYER_ASSEM_MEMBER
100
AcDbLine
 62
7
  6
CONTINUOUS
 10
167.1256589585
 20
265.017872736
 11
165.6256589585
 21
263.517872736
  0
LINE
  5
2B0
100
AcDbEntity
  8
DEF_LAYER_ASSEM_MEMBER
100
AcDbLine
 62
9
  6
CONTINUOUS
 10
89.6256589586
 20
186.3700032342
 11
89.1256589586
 21
186.3700032342
  0
LINE
  5
2B1
100
AcDbEntity
  8
DEF_LAYER_ASSEM_MEMBER
100
AcDbLine
 62
9
  6
CONTINUOUS
 10
223.6256589586
 20
186.3700032342
 11
224.1256589586
 21
186.3700032342
  0
LINE
  5
2B2
100
AcDbEntity
  8
DEF_LAYER_ASSEM_MEMBER
100
AcDbLine
 62
7
  6
CONTINUOUS
 10
134.1256589586
 20
346.5178727361
 11
134.1256589586
 21
348.0178727361
  0
LINE
  5
2B3
100
AcDbEntity
  8
DEF_LAYER_ASSEM_MEMBER
100
AcDbLine
 62
7
  6
CONTINUOUS
 10
135.8780926196
 20
357.0178727361
 11
135.8780926196
 21
358.0178727361
  0
LINE
  5
2B4
100
AcDbEntity
  8
DEF_LAYER_ASSEM_MEMBER
100
AcDbLine
 62
7
  6
CONTINUOUS
 10
138.7077671397
 20
357.0178727361
 11
138.7077671397
 21
358.0178727361
  0
LINE
  5
2B5
100
AcDbEntity
  8
DEF_LAYER_ASSEM_MEMBER
100
AcDbLine
 62
7
  6
CONTINUOUS
 10
138.7720878872
 20
346.5178727361
 11
138.7720878872
 21
348.0178727361
  0
LINE
  5
2B6
100
AcDbEntity
  8
DEF_LAYER_ASSEM_MEMBER
100
AcDbLine
 62
7
  6
CONTINUOUS
 10
139.1256589586
 20
346.5178727361
 11
139.1256589586
 21
348.0178727361
  0
LINE
  5
2B7
100
AcDbEntity
  8
DEF_LAYER_ASSEM_MEMBER
100
AcDbLine
 62
7
  6
CONTINUOUS
 10
142.2077671397
 20
357.0178727361
 11
142.2077671397
 21
358.0178727361
  0
LINE
  5
2B8
100
AcDbEntity
  8
DEF_LAYER_ASSEM_MEMBER
100
AcDbLine
 62
7
  6
CONTINUOUS
 10
142.9049539422
 20
357.0178727361
 11
142.9049539422
 21
358.0178727361
  0
LINE
  5
2B9
100
AcDbEntity
  8
DEF_LAYER_ASSEM_MEMBER
100
AcDbLine
 62
7
  6
CONTINUOUS
 10
146.1256589586
 20
265.0178727361
 11
146.1256589586
 21
267.0178727361
  0
LINE
  5
2BA
100
AcDbEntity
  8
DEF_LAYER_ASSEM_MEMBER
100
AcDbLine
 62
7
  6
CONTINUOUS
 10
146.4049539422
 20
357.0178727361
 11
146.4049539422
 21
358.0178727361
  0
LINE
  5
2BB
100
AcDbEntity
  8
DEF_LAYER_ASSEM_MEMBER
100
AcDbLine
 62
7
  6
CONTINUOUS
 10
148.1786988922
 20
357.0178727361
 11
148.1786988922
 21
358.0178727361
  0
LINE
  5
2BC
100
AcDbEntity
  8
DEF_LAYER_ASSEM_MEMBER
100
AcDbLine
 62
7
  6
CONTINUOUS
 10
148.7266963385
 20
317.5178727361
 11
148.7266963385
 21
323.5178727361
  0
LINE
  5
2BD
100
AcDbEntity
  8
DEF_LAYER_ASSEM_MEMBER
100
AcDbLine
 62
7
  6
CONTINUOUS
 10
148.7979727403
 20
357.0178727361
 11
148.7979727403
 21
358.0178727361
  0
LINE
  5
2BE
100
AcDbEntity
  8
DEF_LAYER_ASSEM_MEMBER
100
AcDbLine
 62
9
  6
CONTINUOUS
 10
212.1256589586
 20
197.8700032342
 11
101.1256589586
 21
197.8700032342
  0
LINE
  5
2BF
100
AcDbEntity
  8
DEF_LAYER_ASSEM_MEMBER
100
AcDbLine
 62
7
  6
CONTINUOUS
 10
212.1256589586
 20
198.3700032342
 11
101.1256589586
 21
198.3700032342
  0
LINE
  5
2C0
100
AcDbEntity
  8
DEF_LAYER_ASSEM_MEMBER
100
AcDbLine
 62
7
  6
CONTINUOUS
 10
152.1256589586
 20
323.5178727361
 11
152.1256589586
 21
317.5178727361
  0
LINE
  5
2C1
100
AcDbEntity
  8
DEF_LAYER_ASSEM_MEMBER
100
AcDbLine
 62
7
  6
CONTINUOUS
 10
152.2979727403
 20
357.0178727361
 11
152.2979727403
 21
358.0178727361
  0
LINE
  5
2C2
100
AcDbEntity
  8
DEF_LAYER_ASSEM_MEMBER
100
AcDbLine
 62
7
  6
CONTINUOUS
 10
160.9533451769
 20
357.0178727361
 11
160.9533451769
 21
358.0178727361
  0
LINE
  5
2C3
100
AcDbEntity
  8
DEF_LAYER_ASSEM_MEMBER
100
AcDbLine
 62
7
  6
CONTINUOUS
 10
161.1256589586
 20
323.5178727361
 11
161.1256589586
 21
317.5178727361
  0
LINE
  5
2C4
100
AcDbEntity
  8
DEF_LAYER_ASSEM_MEMBER
100
AcDbLine
 62
7
  6
CONTINUOUS
 10
161.572619025
 20
357.0178727361
 11
161.572619025
 21
358.0178727361
  0
LINE
  5
2C5
100
AcDbEntity
  8
DEF_LAYER_ASSEM_MEMBER
100
AcDbLine
 62
7
  6
CONTINUOUS
 10
164.5246215787
 20
317.5178727361
 11
164.5246215787
 21
323.5178727361
  0
LINE
  5
2C6
100
AcDbEntity
  8
DEF_LAYER_ASSEM_MEMBER
100
AcDbLine
 62
7
  6
CONTINUOUS
 10
165.072619025
 20
357.0178727361
 11
165.072619025
 21
358.0178727361
  0
LINE
  5
2C7
100
AcDbEntity
  8
DEF_LAYER_ASSEM_MEMBER
100
AcDbLine
 62
7
  6
CONTINUOUS
 10
166.846363975
 20
357.0178727361
 11
166.846363975
 21
358.0178727361
  0
LINE
  5
2C8
100
AcDbEntity
  8
DEF_LAYER_ASSEM_MEMBER
100
AcDbLine
 62
7
  6
CONTINUOUS
 10
167.1256589586
 20
265.0178727361
 11
167.1256589586
 21
267.0178727361
  0
LINE
  5
2C9
100
AcDbEntity
  8
DEF_LAYER_ASSEM_MEMBER
100
AcDbLine
 62
7
  6
CONTINUOUS
 10
170.346363975
 20
357.0178727361
 11
170.346363975
 21
358.0178727361
  0
LINE
  5
2CA
100
AcDbEntity
  8
DEF_LAYER_ASSEM_MEMBER
100
AcDbLine
 62
7
  6
CONTINUOUS
 10
171.0435507776
 20
357.0178727361
 11
171.0435507776
 21
358.0178727361
  0
LINE
  5
2CB
100
AcDbEntity
  8
DEF_LAYER_ASSEM_MEMBER
100
AcDbLine
 62
7
  6
CONTINUOUS
 10
174.1256589586
 20
346.5178727361
 11
174.1256589586
 21
348.0178727361
  0
LINE
  5
2CC
100
AcDbEntity
  8
DEF_LAYER_ASSEM_MEMBER
100
AcDbLine
 62
7
  6
CONTINUOUS
 10
174.47923003
 20
346.5178727361
 11
174.47923003
 21
348.0178727361
  0
LINE
  5
2CD
100
AcDbEntity
  8
DEF_LAYER_ASSEM_MEMBER
100
AcDbLine
 62
7
  6
CONTINUOUS
 10
174.5435507776
 20
357.0178727361
 11
174.5435507776
 21
358.0178727361
  0
LINE
  5
2CE
100
AcDbEntity
  8
DEF_LAYER_ASSEM_MEMBER
100
AcDbLine
 62
7
  6
CONTINUOUS
 10
177.3732252976
 20
357.0178727361
 11
177.3732252976
 21
358.0178727361
  0
LINE
  5
2CF
100
AcDbEntity
  8
DEF_LAYER_ASSEM_MEMBER
100
AcDbLine
 62
7
  6
CONTINUOUS
 10
179.1256589586
 20
346.5178727361
 11
179.1256589586
 21
348.0178727361
  0
LINE
  5
2D0
100
AcDbEntity
  8
DEF_LAYER_ASSEM_MEMBER
100
AcDbLine
 62
7
  6
CONTINUOUS
 10
180.2796509382
 20
346.5178727361
 11
180.2796509382
 21
323.5178727361
  0
LINE
  5
2D1
100
AcDbEntity
  8
DEF_LAYER_ASSEM_MEMBER
100
AcDbLine
 62
7
  6
CONTINUOUS
 10
180.4481589586
 20
281.5178727361
 11
180.4481589586
 21
323.5178727361
  0
LINE
  5
2D2
100
AcDbEntity
  8
DEF_LAYER_ASSEM_MEMBER
100
AcDbLine
 62
7
  6
CONTINUOUS
 10
180.8732252976
 20
357.0178727361
 11
180.8732252976
 21
358.0178727361
  0
LINE
  5
2D3
100
AcDbEntity
  8
DEF_LAYER_ASSEM_MEMBER
100
AcDbLine
 62
7
  6
CONTINUOUS
 10
181.6872144678
 20
357.0178727361
 11
181.6872144678
 21
358.0178727361
  0
LINE
  5
2D4
100
AcDbEntity
  8
DEF_LAYER_ASSEM_MEMBER
100
AcDbLine
 62
7
  6
CONTINUOUS
 10
185.1872144678
 20
357.0178727361
 11
185.1872144678
 21
358.0178727361
  0
LINE
  5
2D5
100
AcDbEntity
  8
DEF_LAYER_ASSEM_MEMBER
100
AcDbLine
 62
7
  6
CONTINUOUS
 10
187.1507217731
 20
267.0178727361
 11
187.1507217731
 21
279.0178727361
  0
LINE
  5
2D6
100
AcDbEntity
  8
DEF_LAYER_ASSEM_MEMBER
100
AcDbLine
 62
7
  6
CONTINUOUS
 10
187.7649006861
 20
357.0178727361
 11
187.7649006861
 21
358.0178727361
  0
LINE
  5
2D7
100
AcDbEntity
  8
DEF_LAYER_ASSEM_MEMBER
100
AcDbLine
 62
7
  6
CONTINUOUS
 10
189.343930314
 20
357.0178727361
 11
189.343930314
 21
358.0178727361
  0
LINE
  5
2D8
100
AcDbEntity
  8
DEF_LAYER_ASSEM_MEMBER
100
AcDbLine
 62
7
  6
CONTINUOUS
 10
191.8751733334
 20
281.5178727361
 11
191.8751733334
 21
286.5178727361
  0
LINE
  5
2D9
100
AcDbEntity
  8
DEF_LAYER_ASSEM_MEMBER
100
AcDbLine
 62
7
  6
CONTINUOUS
 10
192.843930314
 20
357.0178727361
 11
192.843930314
 21
358.0178727361
  0
LINE
  5
2DA
100
AcDbEntity
  8
DEF_LAYER_ASSEM_MEMBER
100
AcDbLine
 62
7
  6
CONTINUOUS
 10
197.1256589586
 20
267.0178727361
 11
197.1256589586
 21
279.0178727361
  0
LINE
  5
2DB
100
AcDbEntity
  8
DEF_LAYER_ASSEM_MEMBER
100
AcDbLine
 62
7
  6
CONTINUOUS
 10
147.6256589586
 20
263.5178727361
 11
165.6256589586
 21
263.5178727361
  0
LINE
  5
2DC
100
AcDbEntity
  8
DEF_LAYER_ASSEM_MEMBER
100
AcDbLine
 62
7
  6
CONTINUOUS
 10
146.1256589587
 20
265.017872736
 11
147.6256589587
 21
263.517872736
  0
LINE
  5
2DD
100
AcDbEntity
  8
DEF_LAYER_ASSEM_MEMBER
100
AcDbLine
 62
9
  6
CONTINUOUS
 10
207.0070171181
 20
281.5178727361
 11
207.0070171181
 21
286.5178727361
  0
LINE
  5
2DE
100
AcDbEntity
  8
DEF_LAYER_ASSEM_MEMBER
100
AcDbLine
 62
7
  6
CONTINUOUS
 10
210.0756419603
 20
346.5178727361
 11
210.0756419603
 21
323.5178727361
  0
LINE
  5
2DF
100
AcDbEntity
  8
DEF_LAYER_ASSEM_MEMBER
100
AcDbLine
 62
7
  6
CONTINUOUS
 10
210.8756419603
 20
286.5178727361
 11
210.8756419603
 21
323.5178727361
  0
LINE
  5
2E0
100
AcDbEntity
  8
DEF_LAYER_ASSEM_MEMBER
100
AcDbLine
 62
9
  6
CONTINUOUS
 10
211.6256589586
 20
281.5178727361
 11
211.6256589586
 21
279.0178727361
  0
LINE
  5
2E1
100
AcDbEntity
  8
DEF_LAYER_ASSEM_MEMBER
100
AcDbLine
 62
9
  6
CONTINUOUS
 10
212.1256589586
 20
356.5178727361
 11
212.1256589586
 21
346.5178727361
  0
LINE
  5
2E2
100
AcDbEntity
  8
DEF_LAYER_ASSEM_MEMBER
100
AcDbLine
 62
9
  6
CONTINUOUS
 10
212.1256589586
 20
63.8700032342
 11
212.1256589586
 21
63.3700032342
  0
LINE
  5
2E3
100
AcDbEntity
  8
DEF_LAYER_ASSEM_MEMBER
100
AcDbLine
 62
9
  6
CONTINUOUS
 10
212.1256589586
 20
197.8700032342
 11
212.1256589586
 21
198.3700032342
  0
LINE
  5
2E4
100
AcDbEntity
  8
DEF_LAYER_ASSEM_MEMBER
100
AcDbLine
 62
7
  6
CONTINUOUS
 10
214.2745155302
 20
323.5178727361
 11
214.2745155302
 21
317.5178727361
  0
LINE
  5
2E5
100
AcDbEntity
  8
DEF_LAYER_ASSEM_MEMBER
100
AcDbLine
 62
9
  6
CONTINUOUS
 10
219.3755529101
 20
323.5178727361
 11
219.3755529101
 21
317.5178727361
  0
LINE
  5
2E6
100
AcDbEntity
  8
DEF_LAYER_ASSEM_MEMBER
100
AcDbLine
 62
7
  6
CONTINUOUS
 10
146.1256589586
 20
265.0178727361
 11
167.1256589586
 21
265.0178727361
  0
LINE
  5
2E7
100
AcDbEntity
  8
DEF_LAYER_ASSEM_MEMBER
100
AcDbLine
 62
7
  6
CONTINUOUS
 10
197.1250929701
 20
267.0178727361
 11
116.1262249471
 21
267.0178727361
  0
LINE
  5
2E8
100
AcDbEntity
  8
DEF_LAYER_ASSEM_MEMBER
100
AcDbLine
 62
7
  6
CONTINUOUS
 10
89.1256589586
 20
279.0178727361
 11
224.1256589586
 21
279.0178727361
  0
LINE
  5
2E9
100
AcDbEntity
  8
DEF_LAYER_ASSEM_MEMBER
100
AcDbLine
 62
7
  6
CONTINUOUS
 10
89.1256589586
 20
281.5178727361
 11
224.1256589586
 21
281.5178727361
  0
LINE
  5
2EA
100
AcDbEntity
  8
DEF_LAYER_ASSEM_MEMBER
100
AcDbLine
 62
7
  6
CONTINUOUS
 10
221.9442014535
 20
281.5178727361
 11
221.9442014535
 21
286.5178727361
  0
LINE
  5
2EB
100
AcDbEntity
  8
DEF_LAYER_ASSEM_MEMBER
100
AcDbLine
 62
9
  6
CONTINUOUS
 10
223.6256589586
 20
75.3700032342
 11
223.6256589586
 21
186.3700032342
  0
LINE
  5
2EC
100
AcDbEntity
  8
DEF_LAYER_ASSEM_MEMBER
100
AcDbLine
 62
7
  6
CONTINUOUS
 10
223.8755529101
 20
317.5178727361
 11
223.8755529101
 21
323.5178727361
  0
LINE
  5
2ED
100
AcDbEntity
  8
DEF_LAYER_ASSEM_MEMBER
100
AcDbLine
 62
7
  6
CONTINUOUS
 10
224.1256589586
 20
356.0178727361
 11
224.1256589586
 21
346.5178727361
  0
LINE
  5
2EE
100
AcDbEntity
  8
DEF_LAYER_ASSEM_MEMBER
100
AcDbLine
 62
7
  6
CONTINUOUS
 10
224.1256589586
 20
281.5178727361
 11
224.1256589586
 21
279.0178727361
  0
LINE
  5
2EF
100
AcDbEntity
  8
DEF_LAYER_ASSEM_MEMBER
100
AcDbLine
 62
7
  6
CONTINUOUS
 10
224.1256589586
 20
75.3700032342
 11
224.1256589586
 21
186.3700032342
  0
LINE
  5
2F0
100
AcDbEntity
  8
DEF_LAYER_ASSEM_MEMBER
100
AcDbLine
 62
7
  6
CONTINUOUS
 10
91.307509415
 20
286.5178727361
 11
121.3761445838
 21
286.5178727361
  0
LINE
  5
2F1
100
AcDbEntity
  8
DEF_LAYER_ASSEM_MEMBER
100
AcDbLine
 62
7
  6
CONTINUOUS
 10
191.8751733334
 20
286.5178727361
 11
221.9438085022
 21
286.5178727361
  0
LINE
  5
2F2
100
AcDbEntity
  8
DEF_LAYER_ASSEM_MEMBER
100
AcDbLine
 62
7
  6
CONTINUOUS
 10
89.376461955
 20
317.5178727361
 11
102.3759174577
 21
317.5178727361
  0
LINE
  5
2F3
100
AcDbEntity
  8
DEF_LAYER_ASSEM_MEMBER
100
AcDbLine
 62
7
  6
CONTINUOUS
 10
148.7266963385
 20
317.5178727361
 11
164.5246215787
 21
317.5178727361
  0
LINE
  5
2F4
100
AcDbEntity
  8
DEF_LAYER_ASSEM_MEMBER
100
AcDbLine
 62
7
  6
CONTINUOUS
 10
210.8756419603
 20
317.5178727361
 11
223.8748559622
 21
317.5178727361
  0
LINE
  5
2F5
100
AcDbEntity
  8
DEF_LAYER_ASSEM_MEMBER
100
AcDbLine
 62
7
  6
CONTINUOUS
 10
89.376461955
 20
323.5178727361
 11
223.8748559622
 21
323.5178727361
  0
LINE
  5
2F6
100
AcDbEntity
  8
DEF_LAYER_ASSEM_MEMBER
100
AcDbLine
 62
7
  6
CONTINUOUS
 10
89.1256589586
 20
346.5178727361
 11
224.1256589586
 21
346.5178727361
  0
LINE
  5
2F7
100
AcDbEntity
  8
DEF_LAYER_ASSEM_MEMBER
100
AcDbLine
 62
7
  6
CONTINUOUS
 10
179.1256589586
 20
348.0178727361
 11
174.1256589586
 21
348.0178727361
  0
LINE
  5
2F8
100
AcDbEntity
  8
DEF_LAYER_ASSEM_MEMBER
100
AcDbLine
 62
7
  6
CONTINUOUS
 10
139.1256589586
 20
348.0178727361
 11
134.1256589586
 21
348.0178727361
  0
LINE
  5
2F9
100
AcDbEntity
  8
0
100
AcDbLine
 62
7
  6
CONTINUOUS
 10
297.0
 20
0.0
 11
297.0
 21
420.0
  0
LINE
  5
2FA
100
AcDbEntity
  8
0
100
AcDbLine
 62
7
  6
CONTINUOUS
 10
297.0
 20
0.0
 11
297.0
 21
420.0
  0
LINE
  5
2FB
100
AcDbEntity
  8
DEF_LAYER_ASSEM_MEMBER
100
AcDbLine
 62
9
  6
CONTINUOUS
 10
89.1256589586
 20
356.0178727361
 11
224.1256589586
 21
356.0178727361
  0
LINE
  5
2FC
100
AcDbEntity
  8
DEF_LAYER_ASSEM_MEMBER
100
AcDbLine
 62
7
  6
CONTINUOUS
 10
89.6256589586
 20
356.5178727361
 11
223.6256589586
 21
356.5178727361
  0
LINE
  5
2FD
100
AcDbEntity
  8
DEF_LAYER_ASSEM_MEMBER
100
AcDbLine
 62
7
  6
CONTINUOUS
 10
110.8761952619
 20
357.0178727361
 11
202.3751226553
 21
357.0178727361
  0
LINE
  5
2FE
100
AcDbEntity
  8
DEF_LAYER_ASSEM_MEMBER
100
AcDbLine
 62
9
  6
CONTINUOUS
 10
120.4073876032
 20
358.0178727361
 11
125.4864172311
 21
358.0178727361
  0
LINE
  5
2FF
100
AcDbEntity
  8
DEF_LAYER_ASSEM_MEMBER
100
AcDbLine
 62
9
  6
CONTINUOUS
 10
128.0641034494
 20
358.0178727361
 11
131.5641034494
 21
358.0178727361
  0
LINE
  5
300
100
AcDbEntity
  8
DEF_LAYER_ASSEM_MEMBER
100
AcDbLine
 62
9
  6
CONTINUOUS
 10
132.3780926196
 20
358.0178727361
 11
135.8780926196
 21
358.0178727361
  0
LINE
  5
301
100
AcDbEntity
  8
DEF_LAYER_ASSEM_MEMBER
100
AcDbLine
 62
9
  6
CONTINUOUS
 10
138.7077671397
 20
358.0178727361
 11
142.2077671397
 21
358.0178727361
  0
LINE
  5
302
100
AcDbEntity
  8
DEF_LAYER_ASSEM_MEMBER
100
AcDbLine
 62
9
  6
CONTINUOUS
 10
142.9049539422
 20
358.0178727361
 11
146.4049539422
 21
358.0178727361
  0
LINE
  5
303
100
AcDbEntity
  8
DEF_LAYER_ASSEM_MEMBER
100
AcDbLine
 62
9
  6
CONTINUOUS
 10
148.1786988922
 20
358.0178727361
 11
152.2979727403
 21
358.0178727361
  0
LINE
  5
304
100
AcDbEntity
  8
DEF_LAYER_ASSEM_MEMBER
100
AcDbLine
 62
9
  6
CONTINUOUS
 10
160.9533451769
 20
358.0178727361
 11
165.072619025
 21
358.0178727361
  0
LINE
  5
305
100
AcDbEntity
  8
DEF_LAYER_ASSEM_MEMBER
100
AcDbLine
 62
9
  6
CONTINUOUS
 10
166.846363975
 20
358.0178727361
 11
170.346363975
 21
358.0178727361
  0
LINE
  5
306
100
AcDbEntity
  8
DEF_LAYER_ASSEM_MEMBER
100
AcDbLine
 62
9
  6
CONTINUOUS
 10
171.0435507776
 20
358.0178727361
 11
174.5435507776
 21
358.0178727361
  0
LINE
  5
307
100
AcDbEntity
  8
DEF_LAYER_ASSEM_MEMBER
100
AcDbLine
 62
9
  6
CONTINUOUS
 10
177.3732252976
 20
358.0178727361
 11
180.8732252976
 21
358.0178727361
  0
LINE
  5
308
100
AcDbEntity
  8
DEF_LAYER_ASSEM_MEMBER
100
AcDbLine
 62
9
  6
CONTINUOUS
 10
181.6872144678
 20
358.0178727361
 11
185.1872144678
 21
358.0178727361
  0
LINE
  5
309
100
AcDbEntity
  8
DEF_LAYER_ASSEM_MEMBER
100
AcDbLine
 62
9
  6
CONTINUOUS
 10
187.7649006861
 20
358.0178727361
 11
189.3319758297
 21
358.0178727361
  0
LINE
  5
30A
100
AcDbEntity
  8
DEF_LAYER_ASSEM_MEMBER
100
AcDbLine
 62
9
  6
CONTINUOUS
 10
189.343930314
 20
358.0178727361
 11
192.843930314
 21
358.0178727361
  0
LINE
  5
30B
100
AcDbEntity
  8
DEF_LAYER_ASSEM_MEMBER
100
AcDbLine
 62
7
  6
CONTINUOUS
 10
120.9078071701
 20
358.5178727361
 11
124.9864163327
 21
358.5178727361
  0
LINE
  5
30C
100
AcDbEntity
  8
DEF_LAYER_ASSEM_MEMBER
100
AcDbLine
 62
7
  6
CONTINUOUS
 10
128.5641043727
 20
358.5178727361
 11
131.0641025262
 21
358.5178727361
  0
LINE
  5
30D
100
AcDbEntity
  8
DEF_LAYER_ASSEM_MEMBER
100
AcDbLine
 62
7
  6
CONTINUOUS
 10
132.8788228242
 20
358.5178727361
 11
135.3773624149
 21
358.5178727361
  0
LINE
  5
30E
100
AcDbEntity
  8
DEF_LAYER_ASSEM_MEMBER
100
AcDbLine
 62
7
  6
CONTINUOUS
 10
139.2079719211
 20
358.5178727361
 11
141.7075623582
 21
358.5178727361
  0
LINE
  5
30F
100
AcDbEntity
  8
DEF_LAYER_ASSEM_MEMBER
100
AcDbLine
 62
7
  6
CONTINUOUS
 10
143.4056819559
 20
358.5178727361
 11
145.9042259285
 21
358.5178727361
  0
LINE
  5
310
100
AcDbEntity
  8
DEF_LAYER_ASSEM_MEMBER
100
AcDbLine
 62
7
  6
CONTINUOUS
 10
148.6786988922
 20
358.5178727361
 11
151.7979727403
 21
358.5178727361
  0
LINE
  5
311
100
AcDbEntity
  8
DEF_LAYER_ASSEM_MEMBER
100
AcDbLine
 62
7
  6
CONTINUOUS
 10
161.4533451769
 20
358.5178727361
 11
164.5724134587
 21
358.5178727361
  0
LINE
  5
312
100
AcDbEntity
  8
DEF_LAYER_ASSEM_MEMBER
100
AcDbLine
 62
7
  6
CONTINUOUS
 10
167.3470919887
 20
358.5178727361
 11
169.8456359613
 21
358.5178727361
  0
LINE
  5
313
100
AcDbEntity
  8
DEF_LAYER_ASSEM_MEMBER
100
AcDbLine
 62
7
  6
CONTINUOUS
 10
171.5435507776
 20
358.5178727361
 11
174.0431312107
 21
358.5178727361
  0
LINE
  5
314
100
AcDbEntity
  8
DEF_LAYER_ASSEM_MEMBER
100
AcDbLine
 62
7
  6
CONTINUOUS
 10
177.8739555023
 20
358.5178727361
 11
180.372495093
 21
358.5178727361
  0
LINE
  5
315
100
AcDbEntity
  8
DEF_LAYER_ASSEM_MEMBER
100
AcDbLine
 62
7
  6
CONTINUOUS
 10
182.1872153911
 20
358.5178727361
 11
184.6872135445
 21
358.5178727361
  0
LINE
  5
316
100
AcDbEntity
  8
DEF_LAYER_ASSEM_MEMBER
100
AcDbLine
 62
7
  6
CONTINUOUS
 10
188.2649015845
 20
358.5178727361
 11
189.7747902932
 21
358.5178727361
  0
LINE
  5
317
100
AcDbEntity
  8
DEF_LAYER_ASSEM_MEMBER
100
AcDbLine
 62
7
  6
CONTINUOUS
 10
189.8443498809
 20
358.5178727361
 11
192.343930314
 21
358.5178727361
  0
LINE
  5
318
100
AcDbEntity
  8
0
100
AcDbLine
 62
7
  6
CONTINUOUS
 10
0.0
 20
420.0
 11
297.0
 21
420.0
  0
LINE
  5
319
100
AcDbEntity
  8
0
100
AcDbLine
 62
7
  6
CONTINUOUS
 10
0.0
 20
420.0
 11
297.0
 21
420.0
  0
ARC
  5
31A
100
AcDbEntity
  8
DEF_LAYER_ASSEM_MEMBER
100
AcDbCircle
 62
7
  6
CONTINUOUS
 10
101.1256589586
 20
75.3700032342
 40
12.0
100
AcDbArc
 50
180.0
 51
270.0
  0
ARC
  5
31B
100
AcDbEntity
  8
DEF_LAYER_ASSEM_MEMBER
100
AcDbCircle
 62
9
  6
CONTINUOUS
 10
101.1256589586
 20
75.3700032342
 40
11.5
100
AcDbArc
 50
180.0
 51
270.0
  0
CIRCLE
  5
31C
100
AcDbEntity
  8
DEF_LAYER_ASSEM_MEMBER
100
AcDbCircle
 62
7
  6
CONTINUOUS
 10
123.7364172311
 20
118.8992982178
 40
2.0
  0
CIRCLE
  5
31D
100
AcDbEntity
  8
DEF_LAYER_ASSEM_MEMBER
100
AcDbCircle
 62
7
  6
CONTINUOUS
 10
123.7364172311
 20
118.8992982178
 40
1.75
  0
CIRCLE
  5
31E
100
AcDbEntity
  8
DEF_LAYER_ASSEM_MEMBER
100
AcDbCircle
 62
9
  6
CONTINUOUS
 10
123.7364172311
 20
118.8992982178
 40
1.25
  0
CIRCLE
  5
31F
100
AcDbEntity
  8
DEF_LAYER_ASSEM_MEMBER
100
AcDbCircle
 62
7
  6
CONTINUOUS
 10
123.7364172311
 20
118.8992982178
 40
0.75
  0
ARC
  5
320
100
AcDbEntity
  8
DEF_LAYER_ASSEM_MEMBER
100
AcDbCircle
 62
7
  6
CONTINUOUS
 10
101.1256589586
 20
186.3700032342
 40
12.0
100
AcDbArc
 50
90.0
 51
180.0
  0
ARC
  5
321
100
AcDbEntity
  8
DEF_LAYER_ASSEM_MEMBER
100
AcDbCircle
 62
9
  6
CONTINUOUS
 10
101.1256589586
 20
186.3700032342
 40
11.5
100
AcDbArc
 50
90.0
 51
180.0
  0
CIRCLE
  5
322
100
AcDbEntity
  8
DEF_LAYER_ASSEM_MEMBER
100
AcDbCircle
 62
7
  6
CONTINUOUS
 10
122.1573876032
 20
136.9476894525
 40
2.0
  0
CIRCLE
  5
323
100
AcDbEntity
  8
DEF_LAYER_ASSEM_MEMBER
100
AcDbCircle
 62
7
  6
CONTINUOUS
 10
122.1573876032
 20
136.9476894525
 40
1.75
  0
CIRCLE
  5
324
100
AcDbEntity
  8
DEF_LAYER_ASSEM_MEMBER
100
AcDbCircle
 62
9
  6
CONTINUOUS
 10
122.1573876032
 20
136.9476894525
 40
1.25
  0
CIRCLE
  5
325
100
AcDbEntity
  8
DEF_LAYER_ASSEM_MEMBER
100
AcDbCircle
 62
7
  6
CONTINUOUS
 10
122.1573876032
 20
136.9476894525
 40
0.75
  0
CIRCLE
  5
326
100
AcDbEntity
  8
DEF_LAYER_ASSEM_MEMBER
100
AcDbCircle
 62
7
  6
CONTINUOUS
 10
150.5479727403
 20
96.4017318787
 40
2.0
  0
CIRCLE
  5
327
100
AcDbEntity
  8
DEF_LAYER_ASSEM_MEMBER
100
AcDbCircle
 62
7
  6
CONTINUOUS
 10
140.4577671397
 20
124.1730431678
 40
2.0
  0
CIRCLE
  5
328
100
AcDbEntity
  8
DEF_LAYER_ASSEM_MEMBER
100
AcDbCircle
 62
7
  6
CONTINUOUS
 10
134.1280926196
 20
104.058447725
 40
2.0
  0
CIRCLE
  5
329
100
AcDbEntity
  8
DEF_LAYER_ASSEM_MEMBER
100
AcDbCircle
 62
7
  6
CONTINUOUS
 10
149.9286988922
 20
114.7021114152
 40
2.0
  0
CIRCLE
  5
32A
100
AcDbEntity
  8
DEF_LAYER_ASSEM_MEMBER
100
AcDbCircle
 62
7
  6
CONTINUOUS
 10
150.5479727403
 20
96.4017318787
 40
1.75
  0
CIRCLE
  5
32B
100
AcDbEntity
  8
DEF_LAYER_ASSEM_MEMBER
100
AcDbCircle
 62
7
  6
CONTINUOUS
 10
140.4577671397
 20
124.1730431678
 40
1.75
  0
CIRCLE
  5
32C
100
AcDbEntity
  8
DEF_LAYER_ASSEM_MEMBER
100
AcDbCircle
 62
7
  6
CONTINUOUS
 10
149.9286988922
 20
114.7021114152
 40
1.75
  0
CIRCLE
  5
32D
100
AcDbEntity
  8
DEF_LAYER_ASSEM_MEMBER
100
AcDbCircle
 62
7
  6
CONTINUOUS
 10
134.1280926196
 20
104.058447725
 40
1.75
  0
CIRCLE
  5
32E
100
AcDbEntity
  8
DEF_LAYER_ASSEM_MEMBER
100
AcDbCircle
 62
9
  6
CONTINUOUS
 10
150.5479727403
 20
96.4017318787
 40
1.25
  0
CIRCLE
  5
32F
100
AcDbEntity
  8
DEF_LAYER_ASSEM_MEMBER
100
AcDbCircle
 62
9
  6
CONTINUOUS
 10
134.1280926196
 20
104.058447725
 40
1.25
  0
CIRCLE
  5
330
100
AcDbEntity
  8
DEF_LAYER_ASSEM_MEMBER
100
AcDbCircle
 62
9
  6
CONTINUOUS
 10
140.4577671397
 20
124.1730431678
 40
1.25
  0
CIRCLE
  5
331
100
AcDbEntity
  8
DEF_LAYER_ASSEM_MEMBER
100
AcDbCircle
 62
9
  6
CONTINUOUS
 10
149.9286988922
 20
114.7021114152
 40
1.25
  0
CIRCLE
  5
332
100
AcDbEntity
  8
DEF_LAYER_ASSEM_MEMBER
100
AcDbCircle
 62
7
  6
CONTINUOUS
 10
150.5479727403
 20
96.4017318787
 40
0.75
  0
CIRCLE
  5
333
100
AcDbEntity
  8
DEF_LAYER_ASSEM_MEMBER
100
AcDbCircle
 62
7
  6
CONTINUOUS
 10
140.4577671397
 20
124.1730431678
 40
0.75
  0
CIRCLE
  5
334
100
AcDbEntity
  8
DEF_LAYER_ASSEM_MEMBER
100
AcDbCircle
 62
7
  6
CONTINUOUS
 10
149.9286988922
 20
114.7021114152
 40
0.75
  0
CIRCLE
  5
335
100
AcDbEntity
  8
DEF_LAYER_ASSEM_MEMBER
100
AcDbCircle
 62
7
  6
CONTINUOUS
 10
134.1280926196
 20
104.058447725
 40
0.75
  0
CIRCLE
  5
336
100
AcDbEntity
  8
DEF_LAYER_ASSEM_MEMBER
100
AcDbCircle
 62
7
  6
CONTINUOUS
 10
129.8141034494
 20
153.3675695732
 40
2.0
  0
CIRCLE
  5
337
100
AcDbEntity
  8
DEF_LAYER_ASSEM_MEMBER
100
AcDbCircle
 62
7
  6
CONTINUOUS
 10
140.4577671397
 20
137.5669633005
 40
2.0
  0
CIRCLE
  5
338
100
AcDbEntity
  8
DEF_LAYER_ASSEM_MEMBER
100
AcDbCircle
 62
7
  6
CONTINUOUS
 10
149.9286988922
 20
147.0378950531
 40
2.0
  0
CIRCLE
  5
339
100
AcDbEntity
  8
DEF_LAYER_ASSEM_MEMBER
100
AcDbCircle
 62
7
  6
CONTINUOUS
 10
144.6549539422
 20
163.7592449617
 40
2.0
  0
CIRCLE
  5
33A
100
AcDbEntity
  8
DEF_LAYER_ASSEM_MEMBER
100
AcDbCircle
 62
7
  6
CONTINUOUS
 10
149.9286988922
 20
147.0378950531
 40
1.75
  0
CIRCLE
  5
33B
100
AcDbEntity
  8
DEF_LAYER_ASSEM_MEMBER
100
AcDbCircle
 62
7
  6
CONTINUOUS
 10
140.4577671397
 20
137.5669633005
 40
1.75
  0
CIRCLE
  5
33C
100
AcDbEntity
  8
DEF_LAYER_ASSEM_MEMBER
100
AcDbCircle
 62
7
  6
CONTINUOUS
 10
129.8141034494
 20
153.3675695732
 40
1.75
  0
CIRCLE
  5
33D
100
AcDbEntity
  8
DEF_LAYER_ASSEM_MEMBER
100
AcDbCircle
 62
7
  6
CONTINUOUS
 10
144.6549539422
 20
163.7592449617
 40
1.75
  0
CIRCLE
  5
33E
100
AcDbEntity
  8
DEF_LAYER_ASSEM_MEMBER
100
AcDbCircle
 62
9
  6
CONTINUOUS
 10
149.9286988922
 20
147.0378950531
 40
1.25
  0
CIRCLE
  5
33F
100
AcDbEntity
  8
DEF_LAYER_ASSEM_MEMBER
100
AcDbCircle
 62
9
  6
CONTINUOUS
 10
140.4577671397
 20
137.5669633005
 40
1.25
  0
CIRCLE
  5
340
100
AcDbEntity
  8
DEF_LAYER_ASSEM_MEMBER
100
AcDbCircle
 62
9
  6
CONTINUOUS
 10
129.8141034494
 20
153.3675695732
 40
1.25
  0
CIRCLE
  5
341
100
AcDbEntity
  8
DEF_LAYER_ASSEM_MEMBER
100
AcDbCircle
 62
9
  6
CONTINUOUS
 10
144.6549539422
 20
163.7592449617
 40
1.25
  0
CIRCLE
  5
342
100
AcDbEntity
  8
DEF_LAYER_ASSEM_MEMBER
100
AcDbCircle
 62
7
  6
CONTINUOUS
 10
149.9286988922
 20
147.0378950531
 40
0.75
  0
CIRCLE
  5
343
100
AcDbEntity
  8
DEF_LAYER_ASSEM_MEMBER
100
AcDbCircle
 62
7
  6
CONTINUOUS
 10
140.4577671397
 20
137.5669633005
 40
0.75
  0
CIRCLE
  5
344
100
AcDbEntity
  8
DEF_LAYER_ASSEM_MEMBER
100
AcDbCircle
 62
7
  6
CONTINUOUS
 10
129.8141034494
 20
153.3675695732
 40
0.75
  0
CIRCLE
  5
345
100
AcDbEntity
  8
DEF_LAYER_ASSEM_MEMBER
100
AcDbCircle
 62
7
  6
CONTINUOUS
 10
144.6549539422
 20
163.7592449617
 40
0.75
  0
ARC
  5
346
100
AcDbEntity
  8
DEF_LAYER_ASSEM_MEMBER
100
AcDbCircle
 62
7
  6
CONTINUOUS
 10
148.6786988922
 20
358.0178727361
 40
0.5
100
AcDbArc
 50
89.9999999999
 51
180.0
  0
ARC
  5
347
100
AcDbEntity
  8
DEF_LAYER_ASSEM_MEMBER
100
AcDbCircle
 62
7
  6
CONTINUOUS
 10
135.3780926196
 20
358.0178727361
 40
0.5
100
AcDbArc
 50
0.0
 51
90.0
  0
ARC
  5
348
100
AcDbEntity
  8
DEF_LAYER_ASSEM_MEMBER
100
AcDbCircle
 62
7
  6
CONTINUOUS
 10
132.8780926196
 20
358.0178727361
 40
0.5
100
AcDbArc
 50
90.0
 51
180.0
  0
ARC
  5
349
100
AcDbEntity
  8
DEF_LAYER_ASSEM_MEMBER
100
AcDbCircle
 62
7
  6
CONTINUOUS
 10
124.9864172311
 20
358.0178727361
 40
0.5
100
AcDbArc
 50
0.0
 51
90.0
  0
ARC
  5
34A
100
AcDbEntity
  8
DEF_LAYER_ASSEM_MEMBER
100
AcDbCircle
 62
7
  6
CONTINUOUS
 10
122.4864172311
 20
358.0178727361
 40
0.5
100
AcDbArc
 50
90.0
 51
180.0
  0
ARC
  5
34B
100
AcDbEntity
  8
DEF_LAYER_ASSEM_MEMBER
100
AcDbCircle
 62
7
  6
CONTINUOUS
 10
120.9073876032
 20
358.0178727361
 40
0.5
100
AcDbArc
 50
90.0
 51
180.0
  0
ARC
  5
34C
100
AcDbEntity
  8
DEF_LAYER_ASSEM_MEMBER
100
AcDbCircle
 62
7
  6
CONTINUOUS
 10
131.0641034494
 20
358.0178727361
 40
0.5
100
AcDbArc
 50
0.0
 51
90.0
  0
ARC
  5
34D
100
AcDbEntity
  8
DEF_LAYER_ASSEM_MEMBER
100
AcDbCircle
 62
7
  6
CONTINUOUS
 10
149.2979727403
 20
358.0178727361
 40
0.5
100
AcDbArc
 50
89.9999999999
 51
180.0
  0
ARC
  5
34E
100
AcDbEntity
  8
DEF_LAYER_ASSEM_MEMBER
100
AcDbCircle
 62
7
  6
CONTINUOUS
 10
151.7979727403
 20
358.0178727361
 40
0.5
100
AcDbArc
 50
0.0
 51
90.0000000001
  0
ARC
  5
34F
100
AcDbEntity
  8
DEF_LAYER_ASSEM_MEMBER
100
AcDbCircle
 62
7
  6
CONTINUOUS
 10
128.5641034494
 20
358.0178727361
 40
0.5
100
AcDbArc
 50
90.0
 51
180.0
  0
ARC
  5
350
100
AcDbEntity
  8
DEF_LAYER_ASSEM_MEMBER
100
AcDbCircle
 62
7
  6
CONTINUOUS
 10
145.9049539422
 20
358.0178727361
 40
0.5
100
AcDbArc
 50
0.0
 51
90.0
  0
ARC
  5
351
100
AcDbEntity
  8
DEF_LAYER_ASSEM_MEMBER
100
AcDbCircle
 62
7
  6
CONTINUOUS
 10
143.4049539422
 20
358.0178727361
 40
0.5
100
AcDbArc
 50
90.0
 51
180.0
  0
ARC
  5
352
100
AcDbEntity
  8
DEF_LAYER_ASSEM_MEMBER
100
AcDbCircle
 62
7
  6
CONTINUOUS
 10
141.7077671397
 20
358.0178727361
 40
0.5
100
AcDbArc
 50
0.0
 51
90.0
  0
ARC
  5
353
100
AcDbEntity
  8
DEF_LAYER_ASSEM_MEMBER
100
AcDbCircle
 62
7
  6
CONTINUOUS
 10
139.2077671397
 20
358.0178727361
 40
0.5
100
AcDbArc
 50
90.0
 51
180.0
  0
ARC
  5
354
100
AcDbEntity
  8
DEF_LAYER_ASSEM_MEMBER
100
AcDbCircle
 62
7
  6
CONTINUOUS
 10
89.6256589586
 20
356.0178727361
 40
0.5
100
AcDbArc
 50
90.0
 51
180.0
  0
ARC
  5
355
100
AcDbEntity
  8
DEF_LAYER_ASSEM_MEMBER
100
AcDbCircle
 62
7
  6
CONTINUOUS
 10
110.8756589586
 20
356.5178727361
 40
0.5
100
AcDbArc
 50
90.0
 51
180.0
  0
CIRCLE
  5
356
100
AcDbEntity
  8
DEF_LAYER_ASSEM_MEMBER
100
AcDbCircle
 62
7
  6
CONTINUOUS
 10
168.596363975
 20
97.9807615066
 40
2.0
  0
CIRCLE
  5
357
100
AcDbEntity
  8
DEF_LAYER_ASSEM_MEMBER
100
AcDbCircle
 62
7
  6
CONTINUOUS
 10
172.7935507776
 20
124.1730431678
 40
2.0
  0
CIRCLE
  5
358
100
AcDbEntity
  8
DEF_LAYER_ASSEM_MEMBER
100
AcDbCircle
 62
7
  6
CONTINUOUS
 10
163.322619025
 20
114.7021114152
 40
2.0
  0
CIRCLE
  5
359
100
AcDbEntity
  8
DEF_LAYER_ASSEM_MEMBER
100
AcDbCircle
 62
7
  6
CONTINUOUS
 10
183.4372144678
 20
108.3724368951
 40
2.0
  0
CIRCLE
  5
35A
100
AcDbEntity
  8
DEF_LAYER_ASSEM_MEMBER
100
AcDbCircle
 62
7
  6
CONTINUOUS
 10
168.596363975
 20
97.9807615066
 40
1.75
  0
CIRCLE
  5
35B
100
AcDbEntity
  8
DEF_LAYER_ASSEM_MEMBER
100
AcDbCircle
 62
7
  6
CONTINUOUS
 10
172.7935507776
 20
124.1730431678
 40
1.75
  0
CIRCLE
  5
35C
100
AcDbEntity
  8
DEF_LAYER_ASSEM_MEMBER
100
AcDbCircle
 62
7
  6
CONTINUOUS
 10
183.4372144678
 20
108.3724368951
 40
1.75
  0
CIRCLE
  5
35D
100
AcDbEntity
  8
DEF_LAYER_ASSEM_MEMBER
100
AcDbCircle
 62
7
  6
CONTINUOUS
 10
163.322619025
 20
114.7021114152
 40
1.75
  0
CIRCLE
  5
35E
100
AcDbEntity
  8
DEF_LAYER_ASSEM_MEMBER
100
AcDbCircle
 62
9
  6
CONTINUOUS
 10
168.596363975
 20
97.9807615066
 40
1.25
  0
CIRCLE
  5
35F
100
AcDbEntity
  8
DEF_LAYER_ASSEM_MEMBER
100
AcDbCircle
 62
9
  6
CONTINUOUS
 10
163.322619025
 20
114.7021114152
 40
1.25
  0
CIRCLE
  5
360
100
AcDbEntity
  8
DEF_LAYER_ASSEM_MEMBER
100
AcDbCircle
 62
9
  6
CONTINUOUS
 10
183.4372144678
 20
108.3724368951
 40
1.25
  0
CIRCLE
  5
361
100
AcDbEntity
  8
DEF_LAYER_ASSEM_MEMBER
100
AcDbCircle
 62
9
  6
CONTINUOUS
 10
172.7935507776
 20
124.1730431678
 40
1.25
  0
CIRCLE
  5
362
100
AcDbEntity
  8
DEF_LAYER_ASSEM_MEMBER
100
AcDbCircle
 62
7
  6
CONTINUOUS
 10
168.596363975
 20
97.9807615066
 40
0.75
  0
CIRCLE
  5
363
100
AcDbEntity
  8
DEF_LAYER_ASSEM_MEMBER
100
AcDbCircle
 62
7
  6
CONTINUOUS
 10
172.7935507776
 20
124.1730431678
 40
0.75
  0
CIRCLE
  5
364
100
AcDbEntity
  8
DEF_LAYER_ASSEM_MEMBER
100
AcDbCircle
 62
7
  6
CONTINUOUS
 10
183.4372144678
 20
108.3724368951
 40
0.75
  0
CIRCLE
  5
365
100
AcDbEntity
  8
DEF_LAYER_ASSEM_MEMBER
100
AcDbCircle
 62
7
  6
CONTINUOUS
 10
163.322619025
 20
114.7021114152
 40
0.75
  0
CIRCLE
  5
366
100
AcDbEntity
  8
DEF_LAYER_ASSEM_MEMBER
100
AcDbCircle
 62
9
  6
CONTINUOUS
 10
156.6256589586
 20
130.8700032342
 40
46.75
  0
CIRCLE
  5
367
100
AcDbEntity
  8
DEF_LAYER_ASSEM_MEMBER
100
AcDbCircle
 62
7
  6
CONTINUOUS
 10
156.6256589586
 20
130.8700032342
 40
46.25
  0
CIRCLE
  5
368
100
AcDbEntity
  8
DEF_LAYER_ASSEM_MEMBER
100
AcDbCircle
 62
9
  6
CONTINUOUS
 10
156.6256589586
 20
130.8700032342
 40
45.75
  0
CIRCLE
  5
369
100
AcDbEntity
  8
DEF_LAYER_ASSEM_MEMBER
100
AcDbCircle
 62
7
  6
CONTINUOUS
 10
163.322619025
 20
147.0378950531
 40
2.0
  0
CIRCLE
  5
36A
100
AcDbEntity
  8
DEF_LAYER_ASSEM_MEMBER
100
AcDbCircle
 62
7
  6
CONTINUOUS
 10
172.7935507776
 20
137.5669633005
 40
2.0
  0
CIRCLE
  5
36B
100
AcDbEntity
  8
DEF_LAYER_ASSEM_MEMBER
100
AcDbCircle
 62
7
  6
CONTINUOUS
 10
179.1232252976
 20
157.6815587433
 40
2.0
  0
CIRCLE
  5
36C
100
AcDbEntity
  8
DEF_LAYER_ASSEM_MEMBER
100
AcDbCircle
 62
7
  6
CONTINUOUS
 10
162.7033451769
 20
165.3382745896
 40
2.0
  0
CIRCLE
  5
36D
100
AcDbEntity
  8
DEF_LAYER_ASSEM_MEMBER
100
AcDbCircle
 62
7
  6
CONTINUOUS
 10
163.322619025
 20
147.0378950531
 40
1.75
  0
CIRCLE
  5
36E
100
AcDbEntity
  8
DEF_LAYER_ASSEM_MEMBER
100
AcDbCircle
 62
7
  6
CONTINUOUS
 10
172.7935507776
 20
137.5669633005
 40
1.75
  0
CIRCLE
  5
36F
100
AcDbEntity
  8
DEF_LAYER_ASSEM_MEMBER
100
AcDbCircle
 62
7
  6
CONTINUOUS
 10
179.1232252976
 20
157.6815587433
 40
1.75
  0
CIRCLE
  5
370
100
AcDbEntity
  8
DEF_LAYER_ASSEM_MEMBER
100
AcDbCircle
 62
7
  6
CONTINUOUS
 10
162.7033451769
 20
165.3382745896
 40
1.75
  0
CIRCLE
  5
371
100
AcDbEntity
  8
DEF_LAYER_ASSEM_MEMBER
100
AcDbCircle
 62
9
  6
CONTINUOUS
 10
163.322619025
 20
147.0378950531
 40
1.25
  0
CIRCLE
  5
372
100
AcDbEntity
  8
DEF_LAYER_ASSEM_MEMBER
100
AcDbCircle
 62
9
  6
CONTINUOUS
 10
172.7935507776
 20
137.5669633005
 40
1.25
  0
CIRCLE
  5
373
100
AcDbEntity
  8
DEF_LAYER_ASSEM_MEMBER
100
AcDbCircle
 62
9
  6
CONTINUOUS
 10
179.1232252976
 20
157.6815587433
 40
1.25
  0
CIRCLE
  5
374
100
AcDbEntity
  8
DEF_LAYER_ASSEM_MEMBER
100
AcDbCircle
 62
9
  6
CONTINUOUS
 10
162.7033451769
 20
165.3382745896
 40
1.25
  0
CIRCLE
  5
375
100
AcDbEntity
  8
DEF_LAYER_ASSEM_MEMBER
100
AcDbCircle
 62
7
  6
CONTINUOUS
 10
163.322619025
 20
147.0378950531
 40
0.75
  0
CIRCLE
  5
376
100
AcDbEntity
  8
DEF_LAYER_ASSEM_MEMBER
100
AcDbCircle
 62
7
  6
CONTINUOUS
 10
172.7935507776
 20
137.5669633005
 40
0.75
  0
CIRCLE
  5
377
100
AcDbEntity
  8
DEF_LAYER_ASSEM_MEMBER
100
AcDbCircle
 62
7
  6
CONTINUOUS
 10
179.1232252976
 20
157.6815587433
 40
0.75
  0
CIRCLE
  5
378
100
AcDbEntity
  8
DEF_LAYER_ASSEM_MEMBER
100
AcDbCircle
 62
7
  6
CONTINUOUS
 10
162.7033451769
 20
165.3382745896
 40
0.75
  0
ARC
  5
379
100
AcDbEntity
  8
DEF_LAYER_ASSEM_MEMBER
100
AcDbCircle
 62
7
  6
CONTINUOUS
 10
212.1256589586
 20
75.3700032342
 40
12.0
100
AcDbArc
 50
270.0
 51
360.0
  0
ARC
  5
37A
100
AcDbEntity
  8
DEF_LAYER_ASSEM_MEMBER
100
AcDbCircle
 62
9
  6
CONTINUOUS
 10
212.1256589586
 20
75.3700032342
 40
11.5
100
AcDbArc
 50
270.0
 51
360.0
  0
CIRCLE
  5
37B
100
AcDbEntity
  8
DEF_LAYER_ASSEM_MEMBER
100
AcDbCircle
 62
7
  6
CONTINUOUS
 10
191.093930314
 20
124.7923170158
 40
2.0
  0
CIRCLE
  5
37C
100
AcDbEntity
  8
DEF_LAYER_ASSEM_MEMBER
100
AcDbCircle
 62
7
  6
CONTINUOUS
 10
191.093930314
 20
124.7923170158
 40
1.75
  0
CIRCLE
  5
37D
100
AcDbEntity
  8
DEF_LAYER_ASSEM_MEMBER
100
AcDbCircle
 62
9
  6
CONTINUOUS
 10
191.093930314
 20
124.7923170158
 40
1.25
  0
CIRCLE
  5
37E
100
AcDbEntity
  8
DEF_LAYER_ASSEM_MEMBER
100
AcDbCircle
 62
7
  6
CONTINUOUS
 10
191.093930314
 20
124.7923170158
 40
0.75
  0
ARC
  5
37F
100
AcDbEntity
  8
DEF_LAYER_ASSEM_MEMBER
100
AcDbCircle
 62
7
  6
CONTINUOUS
 10
212.1256589586
 20
186.3700032342
 40
12.0
100
AcDbArc
 50
0.0
 51
90.0
  0
ARC
  5
380
100
AcDbEntity
  8
DEF_LAYER_ASSEM_MEMBER
100
AcDbCircle
 62
9
  6
CONTINUOUS
 10
212.1256589586
 20
186.3700032342
 40
11.5
100
AcDbArc
 50
0.0
 51
90.0
  0
CIRCLE
  5
381
100
AcDbEntity
  8
DEF_LAYER_ASSEM_MEMBER
100
AcDbCircle
 62
7
  6
CONTINUOUS
 10
189.5149006861
 20
142.8407082506
 40
2.0
  0
CIRCLE
  5
382
100
AcDbEntity
  8
DEF_LAYER_ASSEM_MEMBER
100
AcDbCircle
 62
7
  6
CONTINUOUS
 10
189.5149006861
 20
142.8407082506
 40
1.75
  0
CIRCLE
  5
383
100
AcDbEntity
  8
DEF_LAYER_ASSEM_MEMBER
100
AcDbCircle
 62
9
  6
CONTINUOUS
 10
189.5149006861
 20
142.8407082506
 40
1.25
  0
CIRCLE
  5
384
100
AcDbEntity
  8
DEF_LAYER_ASSEM_MEMBER
100
AcDbCircle
 62
7
  6
CONTINUOUS
 10
189.5149006861
 20
142.8407082506
 40
0.75
  0
ARC
  5
385
100
AcDbEntity
  8
DEF_LAYER_ASSEM_MEMBER
100
AcDbCircle
 62
7
  6
CONTINUOUS
 10
182.1872144678
 20
358.0178727361
 40
0.5
100
AcDbArc
 50
90.0
 51
180.0
  0
ARC
  5
386
100
AcDbEntity
  8
DEF_LAYER_ASSEM_MEMBER
100
AcDbCircle
 62
7
  6
CONTINUOUS
 10
184.6872144678
 20
358.0178727361
 40
0.5
100
AcDbArc
 50
0.0
 51
90.0
  0
ARC
  5
387
100
AcDbEntity
  8
DEF_LAYER_ASSEM_MEMBER
100
AcDbCircle
 62
7
  6
CONTINUOUS
 10
167.346363975
 20
358.0178727361
 40
0.5
100
AcDbArc
 50
90.0
 51
180.0
  0
ARC
  5
388
100
AcDbEntity
  8
DEF_LAYER_ASSEM_MEMBER
100
AcDbCircle
 62
7
  6
CONTINUOUS
 10
169.846363975
 20
358.0178727361
 40
0.5
100
AcDbArc
 50
0.0
 51
90.0
  0
ARC
  5
389
100
AcDbEntity
  8
DEF_LAYER_ASSEM_MEMBER
100
AcDbCircle
 62
7
  6
CONTINUOUS
 10
161.4533451769
 20
358.0178727361
 40
0.5
100
AcDbArc
 50
89.9999999999
 51
180.0
  0
ARC
  5
38A
100
AcDbEntity
  8
DEF_LAYER_ASSEM_MEMBER
100
AcDbCircle
 62
7
  6
CONTINUOUS
 10
177.8732252976
 20
358.0178727361
 40
0.5
100
AcDbArc
 50
90.0
 51
180.0
  0
ARC
  5
38B
100
AcDbEntity
  8
DEF_LAYER_ASSEM_MEMBER
100
AcDbCircle
 62
7
  6
CONTINUOUS
 10
180.3732252976
 20
358.0178727361
 40
0.5
100
AcDbArc
 50
0.0
 51
90.0
  0
ARC
  5
38C
100
AcDbEntity
  8
DEF_LAYER_ASSEM_MEMBER
100
AcDbCircle
 62
7
  6
CONTINUOUS
 10
188.2649006861
 20
358.0178727361
 40
0.5
100
AcDbArc
 50
90.0
 51
180.0
  0
ARC
  5
38D
100
AcDbEntity
  8
DEF_LAYER_ASSEM_MEMBER
100
AcDbCircle
 62
7
  6
CONTINUOUS
 10
189.843930314
 20
358.0178727361
 40
0.5
100
AcDbArc
 50
90.0
 51
180.0
  0
ARC
  5
38E
100
AcDbEntity
  8
DEF_LAYER_ASSEM_MEMBER
100
AcDbCircle
 62
7
  6
CONTINUOUS
 10
192.343930314
 20
358.0178727361
 40
0.5
100
AcDbArc
 50
0.0
 51
90.0
  0
ARC
  5
38F
100
AcDbEntity
  8
DEF_LAYER_ASSEM_MEMBER
100
AcDbCircle
 62
7
  6
CONTINUOUS
 10
162.072619025
 20
358.0178727361
 40
0.5
100
AcDbArc
 50
90.0
 51
180.0
  0
ARC
  5
390
100
AcDbEntity
  8
DEF_LAYER_ASSEM_MEMBER
100
AcDbCircle
 62
7
  6
CONTINUOUS
 10
164.572619025
 20
358.0178727361
 40
0.5
100
AcDbArc
 50
0.0
 51
90.0
  0
ARC
  5
391
100
AcDbEntity
  8
DEF_LAYER_ASSEM_MEMBER
100
AcDbCircle
 62
7
  6
CONTINUOUS
 10
174.0435507776
 20
358.0178727361
 40
0.5
100
AcDbArc
 50
0.0
 51
90.0
  0
ARC
  5
392
100
AcDbEntity
  8
DEF_LAYER_ASSEM_MEMBER
100
AcDbCircle
 62
7
  6
CONTINUOUS
 10
171.5435507776
 20
358.0178727361
 40
0.5
100
AcDbArc
 50
90.0
 51
180.0
  0
ARC
  5
393
100
AcDbEntity
  8
DEF_LAYER_ASSEM_MEMBER
100
AcDbCircle
 62
7
  6
CONTINUOUS
 10
223.6256589586
 20
356.0178727361
 40
0.5
100
AcDbArc
 50
0.0
 51
90.0
  0
ARC
  5
394
100
AcDbEntity
  8
DEF_LAYER_ASSEM_MEMBER
100
AcDbCircle
 62
7
  6
CONTINUOUS
 10
202.3756589586
 20
356.5178727361
 40
0.5
100
AcDbArc
 50
0.0
 51
90.0
  0
ENDSEC
  0
SECTION
  2
OBJECTS
  0
DICTIONARY
  5
C
100
AcDbDictionary
280
0
281
1
  3
ACAD_GROUP
350
D
  3
ACAD_MLINESTYLE
350
17
  3
ACAD_LAYOUT
350
1A
  3
ACAD_PLOTSETTINGS
350
19
  3
ACAD_PLOTSTYLENAME
350
E
  0
DICTIONARY
  5
D
102
{ACAD_REACTORS
330
C
102
}
100
AcDbDictionary
280
0
281
1
  0
ACDBDICTIONARYWDFLT
  5
E
102
{ACAD_REACTORS
330
C
102
}
100
AcDbDictionary
281
1
  3
Normal
350
F
100
AcDbDictionaryWithDefault
340
F
  0
DICTIONARY
  5
17
102
{ACAD_REACTORS
330
C
102
}
100
AcDbDictionary
280
0
281
1
  3
Standard
350
18
  0
DICTIONARY
  5
19
102
{ACAD_REACTORS
330
C
102
}
100
AcDbDictionary
281
1
  0
DICTIONARY
  5
1A
102
{ACAD_REACTORS
330
C
102
}
100
AcDbDictionary
281
1
  3
Model
350
395
  3
Layout1
350
396
  0
ACDBPLACEHOLDER
  5
F
102
{ACAD_REACTORS
330
E
102
}
  0
MLINESTYLE
  5
18
102
{ACAD_REACTORS
330
17
102
}
100
AcDbMlineStyle
  2
STANDARD
 70
0
  3

 62
256
 51
90.0
 52
90.0
 71
2
 49
0.5
 62
256
  6
BYLAYER
 49
-0.5
 62
256
  6
BYLAYER
  0
LAYOUT
  5
395
102
{ACAD_REACTORS
330
1A
102
}
100
AcDbPlotSettings
  1

  2
none_device
  4

  6

 40
0.0
 41
0.0
 42
0.0
 43
0.0
 44
297.0
 45
420.0
 46
0.0
 47
0.0
 48
0.0
 49
0.0
140
0.0
141
0.0
142
1.0
143
1.0
 70
1024
 72
1
 73
0
 74
0
  7

 75
0
147
1.0
148
0.0
149
0.0
100
AcDbLayout
  1
Model
 70
0
 71
0
 10
0.0
 20
0.0
 11
297.0
 21
420.0
 12
0.0
 22
0.0
 32
0.0
 14
0.0
 24
0.0
 34
0.0
 15
0.0
 25
0.0
 35
0.0
146
0.0
 13
0.0
 23
0.0
 33
0.0
 16
1.0
 26
0.0
 36
0.0
 17
0.0
 27
1.0
 37
0.0
 76
0
330
248
345
0
346
0
  0
LAYOUT
  5
396
102
{ACAD_REACTORS
330
1A
102
}
100
AcDbPlotSettings
  1

  2
none_device
  4

  6

 40
0.0
 41
0.0
 42
0.0
 43
0.0
 44
297.0
 45
420.0
 46
0.0
 47
0.0
 48
0.0
 49
0.0
140
0.0
141
0.0
142
1.0
143
1.0
 70
0
 72
1
 73
0
 74
0
  7

 75
0
147
1.0
148
0.0
149
0.0
100
AcDbLayout
  1
Layout1
 70
0
 71
1
 10
0.0
 20
0.0
 11
297.0
 21
420.0
 12
0.0
 22
0.0
 32
0.0
 14
0.0
 24
0.0
 34
0.0
 15
0.0
 25
0.0
 35
0.0
146
0.0
 13
0.0
 23
0.0
 33
0.0
 16
1.0
 26
0.0
 36
0.0
 17
0.0
 27
1.0
 37
0.0
 76
0
330
249
345
0
346
0
  0
ENDSEC
  0
EOF
