999
DXF file: LD_FFAS9142-000500BC0_D0.dxf
999
Pro/ENGINEER 2014440 by Parametric Technology Corporation
  0
SECTION
  2
HEADER
  9
$ACADVER
  1
AC1015
  9
$DWGCODEPAGE
  3
ANSI_1252
  9
$EXTMAX
 10
297.0
 20
210.0
 30
0.0
  9
$EXTMIN
 10
0.0
 20
0.0
 30
0.0
  9
$LIMMIN
 10
0.0
 20
0.0
  9
$LIMMAX
 10
297.0
 20
210.0
  9
$VIEWCTR
 10
148.5
 20
105.0
  9
$VIEWSIZE
 40
210.0
  9
$CLAYER
  8
0
  9
$LTSCALE
 40
16.335
  9
$CELTYPE
  6
BYLAYER
  9
$DIMSCALE
 40
1.0
  9
$DIMASZ
 40
3.0
  9
$DIMEXO
 40
1.0
  9
$DIMDLI
 40
11.286
  9
$DIMEXE
 40
2.0
  9
$DIMCEN
 40
2.673
  9
$DIMLFAC
 40
1.0
  9
$DIMBLK
  1
_FILLED
  9
$DIMALT
 70
0
  9
$DIMALTF
 40
0.0393700787
  9
$DIMTXT
 40
3.0
  9
$DIMTOL
 70
1
  9
$DIMLIM
 70
0
  9
$DIMTFAC
 40
1.0
  9
$DIMTP
 40
0.001
  9
$DIMTM
 40
0.001
  9
$DIMGAP
 40
0.625
  9
$DIMDSEP
 70
46
  9
$AUNITS
 70
0
  9
$PDMODE
 70
3
  9
$PDSIZE
 40
0.3125
  9
$HANDSEED
  5
480
  9
$TILEMODE
 70
1
  9
$MEASUREMENT
 70
1
  9
$INSUNITS
 70
4
  0
ENDSEC
  0
SECTION
  2
CLASSES
  0
CLASS
  1
ACDBDICTIONARYWDFLT
  2
AcDbDictionaryWithDefault
  3
AutoCAD 2000
 90
0
280
0
281
0
  0
CLASS
  1
ACDBPLACEHOLDER
  2
AcDbPlaceHolder
  3
AutoCAD 2000
 90
0
280
0
281
0
  0
CLASS
  1
LAYOUT
  2
AcDbLayout
  3
AutoCAD 2000
 90
0
280
0
281
0
  0
ENDSEC
  0
SECTION
  2
TABLES
  0
TABLE
  2
VPORT
  5
8
100
AcDbSymbolTable
 70
2
  0
VPORT
  5
1F4
100
AcDbSymbolTableRecord
100
AcDbViewportTableRecord
  2
*ACTIVE
 70
0
 10
0.0
 20
0.0
 11
1.0
 21
1.0
 12
148.5
 22
105.0
 13
0.0
 23
0.0
 14
1.0
 24
1.0
 15
0.0
 25
0.0
 16
0.0
 26
0.0
 36
1.0
 17
0.0
 27
0.0
 37
0.0
 40
210.0
 41
1.4142857143
 42
50.0
 43
0.0
 44
0.0
 50
0.0
 51
0.0
 71
0
 72
100
 73
1
 74
1
 75
0
 76
0
 77
0
 78
0
  0
ENDTAB
  0
TABLE
  2
LTYPE
  5
5
100
AcDbSymbolTable
 70
6
  0
LTYPE
  5
14
100
AcDbSymbolTableRecord
100
AcDbLinetypeTableRecord
  2
BYBLOCK
 70
0
  3

 72
65
 73
0
 40
0.0
  0
LTYPE
  5
15
100
AcDbSymbolTableRecord
100
AcDbLinetypeTableRecord
  2
BYLAYER
 70
0
  3

 72
65
 73
0
 40
0.0
  0
LTYPE
  5
16
100
AcDbSymbolTableRecord
100
AcDbLinetypeTableRecord
  2
CONTINUOUS
 70
64
  3
Solid line
 72
65
 73
0
 40
0.0
  0
LTYPE
  5
1F5
100
AcDbSymbolTableRecord
100
AcDbLinetypeTableRecord
  2
CENTER
 70
64
  3
____ _ ____ _ ____ _ ____ _ ____ _ ____ _ ____
 72
65
 73
4
 40
0.6
 49
0.375
 74
0
 49
-0.075
 74
0
 49
0.075
 74
0
 49
-0.075
 74
0
  0
LTYPE
  5
1F6
100
AcDbSymbolTableRecord
100
AcDbLinetypeTableRecord
  2
HIDDEN
 70
64
  3
- - - - - - - - - - - - - - - - - - - -
 72
65
 73
2
 40
0.2
 49
0.1
 74
0
 49
-0.1
 74
0
  0
LTYPE
  5
1F7
100
AcDbSymbolTableRecord
100
AcDbLinetypeTableRecord
  2
PHANTOM
 70
64
  3
_____ _ _ _____ _ _ _____ _ _ _____
 72
65
 73
6
 40
0.8
 49
0.45
 74
0
 49
-0.05
 74
0
 49
0.1
 74
0
 49
-0.05
 74
0
 49
0.1
 74
0
 49
-0.05
 74
0
  0
LTYPE
  5
1F8
100
AcDbSymbolTableRecord
100
AcDbLinetypeTableRecord
  2
DOT
 70
64
  3
. . . . . . . . . . . . . . . . . . . .
 72
65
 73
2
 40
0.2
 49
0.1
 74
0
 49
-0.1
 74
0
  0
LTYPE
  5
1F9
100
AcDbSymbolTableRecord
100
AcDbLinetypeTableRecord
  2
DASHED
 70
64
  3
- - - - - - - - - - - - - - - - - - - -
 72
65
 73
2
 40
0.2
 49
0.1
 74
0
 49
-0.1
 74
0
  0
ENDTAB
  0
TABLE
  2
LAYER
  5
2
100
AcDbSymbolTable
 70
36
  0
LAYER
  5
10
100
AcDbSymbolTableRecord
100
AcDbLayerTableRecord
  2
0
 70
0
 62
7
  6
CONTINUOUS
370
-3
390
F
  0
LAYER
  5
1FA
100
AcDbSymbolTableRecord
100
AcDbLayerTableRecord
  2
DEFAULT_1
 70
0
 62
7
  6
CENTER
370
-3
390
F
  0
LAYER
  5
1FB
100
AcDbSymbolTableRecord
100
AcDbLayerTableRecord
  2
DEFAULT_2
 70
0
 62
8
  6
HIDDEN
370
-3
390
F
  0
LAYER
  5
1FC
100
AcDbSymbolTableRecord
100
AcDbLayerTableRecord
  2
DEFAULT_3
 70
0
 62
7
  6
PHANTOM
370
-3
390
F
  0
LAYER
  5
1FD
100
AcDbSymbolTableRecord
100
AcDbLayerTableRecord
  2
DEF_ASSEM_MEMBER
 70
0
 62
7
  6
CONTINUOUS
370
-3
390
F
  0
LAYER
  5
1FE
100
AcDbSymbolTableRecord
100
AcDbLayerTableRecord
  2
DEF_ASSY_CUT_FEAT
 70
0
 62
7
  6
CONTINUOUS
370
-3
390
F
  0
LAYER
  5
1FF
100
AcDbSymbolTableRecord
100
AcDbLayerTableRecord
  2
DEF_AXIS
 70
0
 62
7
  6
CONTINUOUS
370
-3
390
F
  0
LAYER
  5
200
100
AcDbSymbolTableRecord
100
AcDbLayerTableRecord
  2
DEF_CHAMFER_FEAT
 70
0
 62
7
  6
CONTINUOUS
370
-3
390
F
  0
LAYER
  5
201
100
AcDbSymbolTableRecord
100
AcDbLayerTableRecord
  2
DEF_CORN_CHAMF_FEAT
 70
0
 62
7
  6
CONTINUOUS
370
-3
390
F
  0
LAYER
  5
202
100
AcDbSymbolTableRecord
100
AcDbLayerTableRecord
  2
DEF_COSM_SKETCH
 70
0
 62
7
  6
CONTINUOUS
370
-3
390
F
  0
LAYER
  5
203
100
AcDbSymbolTableRecord
100
AcDbLayerTableRecord
  2
DEF_CSYS
 70
0
 62
7
  6
CONTINUOUS
370
-3
390
F
  0
LAYER
  5
204
100
AcDbSymbolTableRecord
100
AcDbLayerTableRecord
  2
DEF_CURVE
 70
0
 62
7
  6
CONTINUOUS
370
-3
390
F
  0
LAYER
  5
205
100
AcDbSymbolTableRecord
100
AcDbLayerTableRecord
  2
DEF_CURVE_ENT
 70
0
 62
7
  6
CONTINUOUS
370
-3
390
F
  0
LAYER
  5
206
100
AcDbSymbolTableRecord
100
AcDbLayerTableRecord
  2
DEF_CUT_FEAT
 70
0
 62
7
  6
CONTINUOUS
370
-3
390
F
  0
LAYER
  5
207
100
AcDbSymbolTableRecord
100
AcDbLayerTableRecord
  2
DEF_DATUM
 70
0
 62
7
  6
CONTINUOUS
370
-3
390
F
  0
LAYER
  5
208
100
AcDbSymbolTableRecord
100
AcDbLayerTableRecord
  2
DEF_DATUM_PLANE
 70
0
 62
7
  6
CONTINUOUS
370
-3
390
F
  0
LAYER
  5
209
100
AcDbSymbolTableRecord
100
AcDbLayerTableRecord
  2
DEF_DATUM_POINT
 70
0
 62
7
  6
CONTINUOUS
370
-3
390
F
  0
LAYER
  5
20A
100
AcDbSymbolTableRecord
100
AcDbLayerTableRecord
  2
DEF_DETAIL_ITEM
 70
0
 62
7
  6
CONTINUOUS
370
-3
390
F
  0
LAYER
  5
20B
100
AcDbSymbolTableRecord
100
AcDbLayerTableRecord
  2
DEF_DGM_CONN_COMP
 70
0
 62
7
  6
CONTINUOUS
370
-3
390
F
  0
LAYER
  5
20C
100
AcDbSymbolTableRecord
100
AcDbLayerTableRecord
  2
DEF_DGM_HIGHWAY
 70
0
 62
7
  6
CONTINUOUS
370
-3
390
F
  0
LAYER
  5
20D
100
AcDbSymbolTableRecord
100
AcDbLayerTableRecord
  2
DEF_DGM_RAIL
 70
0
 62
7
  6
CONTINUOUS
370
-3
390
F
  0
LAYER
  5
20E
100
AcDbSymbolTableRecord
100
AcDbLayerTableRecord
  2
DEF_DGM_WIRE
 70
0
 62
7
  6
CONTINUOUS
370
-3
390
F
  0
LAYER
  5
20F
100
AcDbSymbolTableRecord
100
AcDbLayerTableRecord
  2
DEF_DIM
 70
0
 62
7
  6
CONTINUOUS
370
-3
390
F
  0
LAYER
  5
210
100
AcDbSymbolTableRecord
100
AcDbLayerTableRecord
  2
DEF_DRAFT_CONSTR
 70
0
 62
7
  6
CONTINUOUS
370
-3
390
F
  0
LAYER
  5
211
100
AcDbSymbolTableRecord
100
AcDbLayerTableRecord
  2
DEF_DRAFT_DIM
 70
0
 62
7
  6
CONTINUOUS
370
-3
390
F
  0
LAYER
  5
212
100
AcDbSymbolTableRecord
100
AcDbLayerTableRecord
  2
DEF_DRAFT_DTM
 70
0
 62
7
  6
CONTINUOUS
370
-3
390
F
  0
LAYER
  5
213
100
AcDbSymbolTableRecord
100
AcDbLayerTableRecord
  2
DEF_DRAFT_ENTITY
 70
0
 62
7
  6
CONTINUOUS
370
-3
390
F
  0
LAYER
  5
214
100
AcDbSymbolTableRecord
100
AcDbLayerTableRecord
  2
DEF_DRAFT_FEAT
 70
0
 62
7
  6
CONTINUOUS
370
-3
390
F
  0
LAYER
  5
215
100
AcDbSymbolTableRecord
100
AcDbLayerTableRecord
  2
DEF_DRAFT_GEOM
 70
0
 62
7
  6
CONTINUOUS
370
-3
390
F
  0
LAYER
  5
216
100
AcDbSymbolTableRecord
100
AcDbLayerTableRecord
  2
DEF_DRAFT_GRP
 70
0
 62
7
  6
CONTINUOUS
370
-3
390
F
  0
LAYER
  5
217
100
AcDbSymbolTableRecord
100
AcDbLayerTableRecord
  2
DEF_DRAFT_HIDDEN
 70
0
 62
7
  6
CONTINUOUS
370
-3
390
F
  0
LAYER
  5
218
100
AcDbSymbolTableRecord
100
AcDbLayerTableRecord
  2
DEF_DRAFT_OTHERS
 70
0
 62
7
  6
CONTINUOUS
370
-3
390
F
  0
LAYER
  5
219
100
AcDbSymbolTableRecord
100
AcDbLayerTableRecord
  2
DEF_DRAFT_REDEFINE
 70
0
 62
7
  6
CONTINUOUS
370
-3
390
F
  0
LAYER
  5
21A
100
AcDbSymbolTableRecord
100
AcDbLayerTableRecord
  2
DEF_DRIVEN_DIM
 70
0
 62
7
  6
CONTINUOUS
370
-3
390
F
  0
LAYER
  5
21B
100
AcDbSymbolTableRecord
100
AcDbLayerTableRecord
  2
DEF_DWG_TABLE
 70
0
 62
7
  6
CONTINUOUS
370
-3
390
F
  0
LAYER
  5
21C
100
AcDbSymbolTableRecord
100
AcDbLayerTableRecord
  2
DEF_FEATURE
 70
0
 62
7
  6
CONTINUOUS
370
-3
390
F
  0
LAYER
  5
21D
100
AcDbSymbolTableRecord
100
AcDbLayerTableRecord
  2
DEF_GEOM_FEAT
 70
0
 62
7
  6
CONTINUOUS
370
-3
390
F
  0
LAYER
  5
21E
100
AcDbSymbolTableRecord
100
AcDbLayerTableRecord
  2
DEF_GTOL
 70
0
 62
7
  6
CONTINUOUS
370
-3
390
F
  0
LAYER
  5
21F
100
AcDbSymbolTableRecord
100
AcDbLayerTableRecord
  2
DEF_HOLE_FEAT
 70
0
 62
7
  6
CONTINUOUS
370
-3
390
F
  0
LAYER
  5
220
100
AcDbSymbolTableRecord
100
AcDbLayerTableRecord
  2
DEF_LAYER_ASSEM_MEMBER
 70
0
 62
7
  6
CONTINUOUS
370
-3
390
F
  0
LAYER
  5
221
100
AcDbSymbolTableRecord
100
AcDbLayerTableRecord
  2
DEF_LAYER_AXIS
 70
0
 62
7
  6
CONTINUOUS
370
-3
390
F
  0
LAYER
  5
222
100
AcDbSymbolTableRecord
100
AcDbLayerTableRecord
  2
DEF_LAYER_CSYS
 70
0
 62
7
  6
CONTINUOUS
370
-3
390
F
  0
LAYER
  5
223
100
AcDbSymbolTableRecord
100
AcDbLayerTableRecord
  2
DEF_LAYER_DATUM
 70
0
 62
7
  6
CONTINUOUS
370
-3
390
F
  0
LAYER
  5
224
100
AcDbSymbolTableRecord
100
AcDbLayerTableRecord
  2
DEF_LAYER_DIM
 70
0
 62
7
  6
CONTINUOUS
370
-3
390
F
  0
LAYER
  5
225
100
AcDbSymbolTableRecord
100
AcDbLayerTableRecord
  2
DEF_LAYER_NOTE
 70
0
 62
7
  6
CONTINUOUS
370
-3
390
F
  0
LAYER
  5
226
100
AcDbSymbolTableRecord
100
AcDbLayerTableRecord
  2
DEF_LAYER_ROUND_FEAT
 70
0
 62
7
  6
CONTINUOUS
370
-3
390
F
  0
LAYER
  5
227
100
AcDbSymbolTableRecord
100
AcDbLayerTableRecord
  2
DEF_NOGEOM_FEAT
 70
0
 62
7
  6
CONTINUOUS
370
-3
390
F
  0
LAYER
  5
228
100
AcDbSymbolTableRecord
100
AcDbLayerTableRecord
  2
DEF_NOTE
 70
0
 62
7
  6
CONTINUOUS
370
-3
390
F
  0
LAYER
  5
229
100
AcDbSymbolTableRecord
100
AcDbLayerTableRecord
  2
DEF_PARAMETER_DIM
 70
0
 62
7
  6
CONTINUOUS
370
-3
390
F
  0
LAYER
  5
22A
100
AcDbSymbolTableRecord
100
AcDbLayerTableRecord
  2
DEF_PART_REFDIM
 70
0
 62
7
  6
CONTINUOUS
370
-3
390
F
  0
LAYER
  5
22B
100
AcDbSymbolTableRecord
100
AcDbLayerTableRecord
  2
DEF_POINT
 70
0
 62
7
  6
CONTINUOUS
370
-3
390
F
  0
LAYER
  5
22C
100
AcDbSymbolTableRecord
100
AcDbLayerTableRecord
  2
DEF_PROTRUSION_FEAT
 70
0
 62
7
  6
CONTINUOUS
370
-3
390
F
  0
LAYER
  5
22D
100
AcDbSymbolTableRecord
100
AcDbLayerTableRecord
  2
DEF_QUILT
 70
0
 62
7
  6
CONTINUOUS
370
-3
390
F
  0
LAYER
  5
22E
100
AcDbSymbolTableRecord
100
AcDbLayerTableRecord
  2
DEF_REFDIM
 70
0
 62
7
  6
CONTINUOUS
370
-3
390
F
  0
LAYER
  5
22F
100
AcDbSymbolTableRecord
100
AcDbLayerTableRecord
  2
DEF_RIB_FEAT
 70
0
 62
7
  6
CONTINUOUS
370
-3
390
F
  0
LAYER
  5
230
100
AcDbSymbolTableRecord
100
AcDbLayerTableRecord
  2
DEF_ROUND_FEAT
 70
0
 62
7
  6
CONTINUOUS
370
-3
390
F
  0
LAYER
  5
231
100
AcDbSymbolTableRecord
100
AcDbLayerTableRecord
  2
DEF_SFIN
 70
0
 62
7
  6
CONTINUOUS
370
-3
390
F
  0
LAYER
  5
232
100
AcDbSymbolTableRecord
100
AcDbLayerTableRecord
  2
DEF_SHELL_FEAT
 70
0
 62
7
  6
CONTINUOUS
370
-3
390
F
  0
LAYER
  5
233
100
AcDbSymbolTableRecord
100
AcDbLayerTableRecord
  2
DEF_SLOT_FEAT
 70
0
 62
7
  6
CONTINUOUS
370
-3
390
F
  0
LAYER
  5
234
100
AcDbSymbolTableRecord
100
AcDbLayerTableRecord
  2
DEF_SNAP_LINE
 70
0
 62
7
  6
CONTINUOUS
370
-3
390
F
  0
LAYER
  5
235
100
AcDbSymbolTableRecord
100
AcDbLayerTableRecord
  2
DEF_SURFACE
 70
0
 62
7
  6
CONTINUOUS
370
-3
390
F
  0
LAYER
  5
236
100
AcDbSymbolTableRecord
100
AcDbLayerTableRecord
  2
DEF_SYMBOL
 70
0
 62
7
  6
CONTINUOUS
370
-3
390
F
  0
ENDTAB
  0
TABLE
  2
STYLE
  5
3
100
AcDbSymbolTable
 70
1
  0
STYLE
  5
11
100
AcDbSymbolTableRecord
100
AcDbTextStyleTableRecord
  2
STANDARD
 70
0
 40
0.0
 41
0.8
 50
0.0
 71
0
 42
0.2
  3
txt
  4

  0
STYLE
  5
237
100
AcDbSymbolTableRecord
100
AcDbTextStyleTableRecord
  2
TEXTSTYLE_1
 70
0
 40
0.0
 41
0.8
 50
0.0
 71
0
 42
0.2
  3
gdt
  4

  0
ENDTAB
  0
TABLE
  2
VIEW
  5
6
100
AcDbSymbolTable
 70
0
  0
ENDTAB
  0
TABLE
  2
UCS
  5
7
100
AcDbSymbolTable
 70
0
  0
ENDTAB
  0
TABLE
  2
APPID
  5
9
100
AcDbSymbolTable
 70
1
  0
APPID
  5
238
100
AcDbSymbolTableRecord
100
AcDbRegAppTableRecord
  2
ACAD
 70
0
  0
ENDTAB
  0
TABLE
  2
BLOCK_RECORD
  5
1
100
AcDbSymbolTable
 70
0
  0
BLOCK_RECORD
  5
239
100
AcDbSymbolTableRecord
100
AcDbBlockTableRecord
  2
*Model_Space
  0
BLOCK_RECORD
  5
23A
100
AcDbSymbolTableRecord
100
AcDbBlockTableRecord
  2
*Paper_Space
  0
BLOCK_RECORD
  5
23B
100
AcDbSymbolTableRecord
100
AcDbBlockTableRecord
  2
_FILLED
  0
BLOCK_RECORD
  5
23C
100
AcDbSymbolTableRecord
100
AcDbBlockTableRecord
  2
*D0
  0
BLOCK_RECORD
  5
23D
100
AcDbSymbolTableRecord
100
AcDbBlockTableRecord
  2
*D1
  0
BLOCK_RECORD
  5
23E
100
AcDbSymbolTableRecord
100
AcDbBlockTableRecord
  2
*D2
  0
BLOCK_RECORD
  5
23F
100
AcDbSymbolTableRecord
100
AcDbBlockTableRecord
  2
*D3
  0
BLOCK_RECORD
  5
240
100
AcDbSymbolTableRecord
100
AcDbBlockTableRecord
  2
*D4
  0
BLOCK_RECORD
  5
241
100
AcDbSymbolTableRecord
100
AcDbBlockTableRecord
  2
*D5
  0
BLOCK_RECORD
  5
242
100
AcDbSymbolTableRecord
100
AcDbBlockTableRecord
  2
*D6
  0
BLOCK_RECORD
  5
243
100
AcDbSymbolTableRecord
100
AcDbBlockTableRecord
  2
*D7
  0
BLOCK_RECORD
  5
244
100
AcDbSymbolTableRecord
100
AcDbBlockTableRecord
  2
*D8
  0
BLOCK_RECORD
  5
245
100
AcDbSymbolTableRecord
100
AcDbBlockTableRecord
  2
*D9
  0
ENDTAB
  0
TABLE
  2
DIMSTYLE
  5
A
100
AcDbSymbolTable
 70
1
100
AcDbDimStyleTable
 71
0
  0
DIMSTYLE
105
246
100
AcDbSymbolTableRecord
100
AcDbDimStyleTableRecord
  2
STANDARD
 70
0
  3

  4

 40
1.0
 41
3.0
 42
1.0
 43
0.38
 44
2.0
 45
0.0
 46
0.0
 47
0.001
 48
0.001
140
3.0
141
0.09
142
0.0
143
25.4
144
1.0
145
0.0
146
1.0
147
0.625
 71
1.0
 72
0.0
 73
0
 74
0
 75
0
 76
0
 77
1
 78
8
170
0
171
2
172
0
173
0
174
0
175
0
176
0
177
0
178
0
270
2
271
3
272
3
273
2
274
2
275
0
280
0
281
0
282
0
283
1
284
8
285
0
286
0
287
3
288
0
340
11
278
46
341
23B
342
23B
343
23B
344
23B
  0
DIMSTYLE
105
247
100
AcDbSymbolTableRecord
100
AcDbDimStyleTableRecord
  2
DIMSTYLE_1
 70
0
  3

  4

 40
1.0
 41
3.0
 42
1.0
 43
0.38
 44
2.0
 45
0.0
 46
0.0
 47
0.001
 48
0.001
140
3.0
141
0.09
142
0.0
143
25.4
144
1.0
145
0.0
146
1.0
147
0.75
 71
0.0
 72
0.0
 73
0
 74
0
 75
0
 76
0
 77
1
 78
8
170
0
171
2
172
0
173
0
174
0
175
0
176
0
177
0
178
0
270
2
271
3
272
3
273
2
274
2
275
0
280
0
281
0
282
0
283
1
284
8
285
0
286
0
287
3
288
0
340
11
278
46
341
23B
342
23B
343
23B
344
23B
  0
ENDTAB
  0
ENDSEC
  0
SECTION
  2
BLOCKS
  0
BLOCK
  5
20
100
AcDbEntity
  8
0
100
AcDbBlockBegin
  2
*Model_Space
 70
0
 10
0.0
 20
0.0
 30
0.0
  3
*Model_Space
  1

  0
ENDBLK
  5
21
100
AcDbEntity
  8
0
100
AcDbBlockEnd
  0
BLOCK
  5
1C
100
AcDbEntity
  8
0
100
AcDbBlockBegin
  2
*Paper_Space
 70
0
 10
0.0
 20
0.0
 30
0.0
  3
*Paper_Space
  1

  0
ENDBLK
  5
1D
100
AcDbEntity
  8
0
100
AcDbBlockEnd
  0
BLOCK
  5
248
100
AcDbEntity
  8
0
100
AcDbBlockBegin
  2
_FILLED
 70
64
 10
0.0
 20
0.0
  3
_FILLED
  1

  0
SOLID
  5
249
100
AcDbEntity
  8
0
  6
BYBLOCK
 62
0
100
AcDbTrace
 10
0.0
 20
0.0
 11
-1.0
 21
0.2
 12
-1.0
 22
-0.2
 13
-1.0
 23
-0.2
  0
ENDBLK
  5
24A
100
AcDbEntity
  8
0
  6
BYBLOCK
 62
0
100
AcDbBlockEnd
  0
BLOCK
  5
24B
100
AcDbEntity
  8
DEF_LAYER_DIM
100
AcDbBlockBegin
 62
2
  6
CONTINUOUS
  2
*D0
 70
65
 10
0.0
 20
0.0
  3
*D0
  1

  0
MTEXT
  5
24C
100
AcDbEntity
  8
DEF_LAYER_DIM
100
AcDbMText
 62
2
  6
CONTINUOUS
  7
STANDARD
 71
2
 72
1
 10
76.363888064
 20
169.7710477692
 30
0.0
 11
1.0
 21
0.0
 31
0.0
 44
0.9
  1
60.5
 40
3.0
 41
9.6
  0
LINE
  5
24D
100
AcDbEntity
  8
DEF_LAYER_DIM
100
AcDbLine
 62
2
  6
CONTINUOUS
 10
45.9989589566
 20
157.9297392464
 11
45.9989589566
 21
166.7710477692
  0
LINE
  5
24E
100
AcDbEntity
  8
DEF_LAYER_DIM
100
AcDbLine
 62
2
  6
CONTINUOUS
 10
45.9989589566
 20
166.7710477692
 11
45.9989589566
 21
168.0210477692
  0
LINE
  5
24F
100
AcDbEntity
  8
DEF_LAYER_DIM
100
AcDbLine
 62
2
  6
CONTINUOUS
 10
106.4989589566
 20
157.9297392464
 11
106.4989589566
 21
166.7710477692
  0
LINE
  5
250
100
AcDbEntity
  8
DEF_LAYER_DIM
100
AcDbLine
 62
2
  6
CONTINUOUS
 10
106.4989589566
 20
166.7710477692
 11
106.4989589566
 21
168.0210477692
  0
LINE
  5
251
100
AcDbEntity
  8
DEF_LAYER_DIM
100
AcDbLine
 62
2
  6
CONTINUOUS
 10
45.9989589566
 20
166.0210477692
 11
76.2489589566
 21
166.0210477692
  0
LINE
  5
252
100
AcDbEntity
  8
DEF_LAYER_DIM
100
AcDbLine
 62
2
  6
CONTINUOUS
 10
106.4989589566
 20
166.0210477692
 11
76.2489589566
 21
166.0210477692
  0
INSERT
  5
253
100
AcDbEntity
  8
DEF_LAYER_DIM
100
AcDbBlockReference
 62
2
  6
CONTINUOUS
  2
_FILLED
 10
45.9989589566
 20
166.0210477692
 41
3.0
 42
3.0
 43
3.0
 50
180.0
  0
INSERT
  5
254
100
AcDbEntity
  8
DEF_LAYER_DIM
100
AcDbBlockReference
 62
2
  6
CONTINUOUS
  2
_FILLED
 10
106.4989589566
 20
166.0210477692
 41
3.0
 42
3.0
 43
3.0
  0
ENDBLK
  5
255
100
AcDbEntity
  8
0
  6
BYBLOCK
 62
0
100
AcDbBlockEnd
  0
BLOCK
  5
256
100
AcDbEntity
  8
DEF_LAYER_DIM
100
AcDbBlockBegin
 62
2
  6
CONTINUOUS
  2
*D1
 70
65
 10
0.0
 20
0.0
  3
*D1
  1

  0
MTEXT
  5
257
100
AcDbEntity
  8
DEF_LAYER_DIM
100
AcDbMText
 62
2
  6
CONTINUOUS
  7
STANDARD
 71
2
 72
1
 10
32.5664962249
 20
127.1797392464
 30
0.0
 11
0.0
 21
1.0
 31
0.0
 44
0.9
  1
60.5
 40
3.0
 41
9.6
  0
LINE
  5
258
100
AcDbEntity
  8
DEF_LAYER_DIM
100
AcDbLine
 62
2
  6
CONTINUOUS
 10
45.4989589566
 20
157.4297392464
 11
35.5664962249
 21
157.4297392464
  0
LINE
  5
259
100
AcDbEntity
  8
DEF_LAYER_DIM
100
AcDbLine
 62
2
  6
CONTINUOUS
 10
35.5664962249
 20
157.4297392464
 11
34.3164962249
 21
157.4297392464
  0
LINE
  5
25A
100
AcDbEntity
  8
DEF_LAYER_DIM
100
AcDbLine
 62
2
  6
CONTINUOUS
 10
45.4989589566
 20
96.9297392464
 11
35.5664962249
 21
96.9297392464
  0
LINE
  5
25B
100
AcDbEntity
  8
DEF_LAYER_DIM
100
AcDbLine
 62
2
  6
CONTINUOUS
 10
35.5664962249
 20
96.9297392464
 11
34.3164962249
 21
96.9297392464
  0
LINE
  5
25C
100
AcDbEntity
  8
DEF_LAYER_DIM
100
AcDbLine
 62
2
  6
CONTINUOUS
 10
36.3164962249
 20
157.4297392464
 11
36.3164962249
 21
127.1797392464
  0
LINE
  5
25D
100
AcDbEntity
  8
DEF_LAYER_DIM
100
AcDbLine
 62
2
  6
CONTINUOUS
 10
36.3164962249
 20
96.9297392464
 11
36.3164962249
 21
127.1797392464
  0
INSERT
  5
25E
100
AcDbEntity
  8
DEF_LAYER_DIM
100
AcDbBlockReference
 62
2
  6
CONTINUOUS
  2
_FILLED
 10
36.3164962249
 20
157.4297392464
 41
3.0
 42
3.0
 43
3.0
 50
90.0
  0
INSERT
  5
25F
100
AcDbEntity
  8
DEF_LAYER_DIM
100
AcDbBlockReference
 62
2
  6
CONTINUOUS
  2
_FILLED
 10
36.3164962249
 20
96.9297392464
 41
3.0
 42
3.0
 43
3.0
 50
270.0
  0
ENDBLK
  5
260
100
AcDbEntity
  8
0
  6
BYBLOCK
 62
0
100
AcDbBlockEnd
  0
BLOCK
  5
261
100
AcDbEntity
  8
DEF_LAYER_DIM
100
AcDbBlockBegin
 62
2
  6
CONTINUOUS
  2
*D2
 70
65
 10
0.0
 20
0.0
  3
*D2
  1

  0
MTEXT
  5
262
100
AcDbEntity
  8
DEF_LAYER_DIM
100
AcDbMText
 62
2
  6
CONTINUOUS
  7
STANDARD
 71
2
 72
1
 10
250.0950890336
 20
114.4297392464
 30
0.0
 11
0.0
 21
1.0
 31
0.0
 44
0.9
  1
25.5
 40
3.0
 41
9.6
  0
LINE
  5
263
100
AcDbEntity
  8
DEF_LAYER_DIM
100
AcDbLine
 62
2
  6
CONTINUOUS
 10
246.4009424321
 20
127.1797392464
 11
253.0950890336
 21
127.1797392464
  0
LINE
  5
264
100
AcDbEntity
  8
DEF_LAYER_DIM
100
AcDbLine
 62
2
  6
CONTINUOUS
 10
253.0950890336
 20
127.1797392464
 11
255.8450890336
 21
127.1797392464
  0
LINE
  5
265
100
AcDbEntity
  8
DEF_LAYER_DIM
100
AcDbLine
 62
2
  6
CONTINUOUS
 10
235.4009424321
 20
101.6797392464
 11
253.0950890336
 21
101.6797392464
  0
LINE
  5
266
100
AcDbEntity
  8
DEF_LAYER_DIM
100
AcDbLine
 62
2
  6
CONTINUOUS
 10
253.0950890336
 20
101.6797392464
 11
255.8450890336
 21
101.6797392464
  0
LINE
  5
267
100
AcDbEntity
  8
DEF_LAYER_DIM
100
AcDbLine
 62
2
  6
CONTINUOUS
 10
253.8450890336
 20
127.1797392464
 11
253.8450890336
 21
114.4297392464
  0
LINE
  5
268
100
AcDbEntity
  8
DEF_LAYER_DIM
100
AcDbLine
 62
2
  6
CONTINUOUS
 10
253.8450890336
 20
101.6797392464
 11
253.8450890336
 21
114.4297392464
  0
INSERT
  5
269
100
AcDbEntity
  8
DEF_LAYER_DIM
100
AcDbBlockReference
 62
2
  6
CONTINUOUS
  2
_FILLED
 10
253.8450890336
 20
127.1797392464
 41
3.0
 42
3.0
 43
3.0
 50
90.0
  0
INSERT
  5
26A
100
AcDbEntity
  8
DEF_LAYER_DIM
100
AcDbBlockReference
 62
2
  6
CONTINUOUS
  2
_FILLED
 10
253.8450890336
 20
101.6797392464
 41
3.0
 42
3.0
 43
3.0
 50
270.0
  0
ENDBLK
  5
26B
100
AcDbEntity
  8
0
  6
BYBLOCK
 62
0
100
AcDbBlockEnd
  0
BLOCK
  5
26C
100
AcDbEntity
  8
DEF_LAYER_DIM
100
AcDbBlockBegin
 62
2
  6
CONTINUOUS
  2
*D3
 70
65
 10
0.0
 20
0.0
  3
*D3
  1

  0
MTEXT
  5
26D
100
AcDbEntity
  8
DEF_LAYER_DIM
100
AcDbMText
 62
2
  6
CONTINUOUS
  7
STANDARD
 71
2
 72
1
 10
242.3802311728
 20
107.1797392464
 30
0.0
 11
0.0
 21
1.0
 31
0.0
 44
0.9
  1
11
 40
3.0
 41
4.8
  0
LINE
  5
26E
100
AcDbEntity
  8
DEF_LAYER_DIM
100
AcDbLine
 62
2
  6
CONTINUOUS
 10
235.4009424321
 20
112.6797392464
 11
245.3802311728
 21
112.6797392464
  0
LINE
  5
26F
100
AcDbEntity
  8
DEF_LAYER_DIM
100
AcDbLine
 62
2
  6
CONTINUOUS
 10
245.3802311728
 20
112.6797392464
 11
248.1302311728
 21
112.6797392464
  0
LINE
  5
270
100
AcDbEntity
  8
DEF_LAYER_DIM
100
AcDbLine
 62
2
  6
CONTINUOUS
 10
233.5009424321
 20
101.6797392464
 11
245.3802311728
 21
101.6797392464
  0
LINE
  5
271
100
AcDbEntity
  8
DEF_LAYER_DIM
100
AcDbLine
 62
2
  6
CONTINUOUS
 10
245.3802311728
 20
101.6797392464
 11
248.1302311728
 21
101.6797392464
  0
LINE
  5
272
100
AcDbEntity
  8
DEF_LAYER_DIM
100
AcDbLine
 62
2
  6
CONTINUOUS
 10
246.1302311728
 20
112.6797392464
 11
246.1302311728
 21
107.1797392464
  0
LINE
  5
273
100
AcDbEntity
  8
DEF_LAYER_DIM
100
AcDbLine
 62
2
  6
CONTINUOUS
 10
246.1302311728
 20
101.6797392464
 11
246.1302311728
 21
107.1797392464
  0
INSERT
  5
274
100
AcDbEntity
  8
DEF_LAYER_DIM
100
AcDbBlockReference
 62
2
  6
CONTINUOUS
  2
_FILLED
 10
246.1302311728
 20
112.6797392464
 41
3.0
 42
3.0
 43
3.0
 50
90.0
  0
INSERT
  5
275
100
AcDbEntity
  8
DEF_LAYER_DIM
100
AcDbBlockReference
 62
2
  6
CONTINUOUS
  2
_FILLED
 10
246.1302311728
 20
101.6797392464
 41
3.0
 42
3.0
 43
3.0
 50
270.0
  0
ENDBLK
  5
276
100
AcDbEntity
  8
0
  6
BYBLOCK
 62
0
100
AcDbBlockEnd
  0
BLOCK
  5
277
100
AcDbEntity
  8
DEF_LAYER_DIM
100
AcDbBlockBegin
 62
2
  6
CONTINUOUS
  2
*D4
 70
65
 10
0.0
 20
0.0
  3
*D4
  1

  0
MTEXT
  5
278
100
AcDbEntity
  8
DEF_LAYER_DIM
100
AcDbMText
 62
2
  6
CONTINUOUS
  7
STANDARD
 71
2
 72
1
 10
187.5139003738
 20
164.2095340765
 30
0.0
 11
1.0
 21
0.0
 31
0.0
 44
0.9
  1
7
 40
3.0
 41
2.4
  0
LINE
  5
279
100
AcDbEntity
  8
DEF_LAYER_DIM
100
AcDbLine
 62
2
  6
CONTINUOUS
 10
184.4009424321
 20
157.9297392464
 11
184.4009424321
 21
161.2095340765
  0
LINE
  5
27A
100
AcDbEntity
  8
DEF_LAYER_DIM
100
AcDbLine
 62
2
  6
CONTINUOUS
 10
184.4009424321
 20
161.2095340765
 11
184.4009424321
 21
162.4595340765
  0
LINE
  5
27B
100
AcDbEntity
  8
DEF_LAYER_DIM
100
AcDbLine
 62
2
  6
CONTINUOUS
 10
191.4009424321
 20
157.9297392464
 11
191.4009424321
 21
161.2095340765
  0
LINE
  5
27C
100
AcDbEntity
  8
DEF_LAYER_DIM
100
AcDbLine
 62
2
  6
CONTINUOUS
 10
191.4009424321
 20
161.2095340765
 11
191.4009424321
 21
162.4595340765
  0
LINE
  5
27D
100
AcDbEntity
  8
DEF_LAYER_DIM
100
AcDbLine
 62
2
  6
CONTINUOUS
 10
184.4009424321
 20
160.4595340765
 11
180.4009424321
 21
160.4595340765
  0
LINE
  5
27E
100
AcDbEntity
  8
DEF_LAYER_DIM
100
AcDbLine
 62
2
  6
CONTINUOUS
 10
180.4009424321
 20
160.4595340765
 11
187.9009424321
 21
160.4595340765
  0
LINE
  5
27F
100
AcDbEntity
  8
DEF_LAYER_DIM
100
AcDbLine
 62
2
  6
CONTINUOUS
 10
191.4009424321
 20
160.4595340765
 11
195.4009424321
 21
160.4595340765
  0
LINE
  5
280
100
AcDbEntity
  8
DEF_LAYER_DIM
100
AcDbLine
 62
2
  6
CONTINUOUS
 10
195.4009424321
 20
160.4595340765
 11
187.9009424321
 21
160.4595340765
  0
INSERT
  5
281
100
AcDbEntity
  8
DEF_LAYER_DIM
100
AcDbBlockReference
 62
2
  6
CONTINUOUS
  2
_FILLED
 10
184.4009424321
 20
160.4595340765
 41
3.0
 42
3.0
 43
3.0
  0
INSERT
  5
282
100
AcDbEntity
  8
DEF_LAYER_DIM
100
AcDbBlockReference
 62
2
  6
CONTINUOUS
  2
_FILLED
 10
191.4009424321
 20
160.4595340765
 41
3.0
 42
3.0
 43
3.0
 50
180.0
  0
ENDBLK
  5
283
100
AcDbEntity
  8
0
  6
BYBLOCK
 62
0
100
AcDbBlockEnd
  0
BLOCK
  5
284
100
AcDbEntity
  8
DEF_LAYER_DIM
100
AcDbBlockBegin
 62
2
  6
CONTINUOUS
  2
*D5
 70
65
 10
0.0
 20
0.0
  3
*D5
  1

  0
MTEXT
  5
285
100
AcDbEntity
  8
DEF_LAYER_DIM
100
AcDbMText
 62
2
  6
CONTINUOUS
  7
STANDARD
 71
2
 72
1
 10
171.9009424321
 20
171.8250536834
 30
0.0
 11
1.0
 21
0.0
 31
0.0
 44
0.9
  1
25
 40
3.0
 41
4.8
  0
LINE
  5
286
100
AcDbEntity
  8
DEF_LAYER_DIM
100
AcDbLine
 62
2
  6
CONTINUOUS
 10
184.4009424321
 20
157.9297392464
 11
184.4009424321
 21
168.8250536834
  0
LINE
  5
287
100
AcDbEntity
  8
DEF_LAYER_DIM
100
AcDbLine
 62
2
  6
CONTINUOUS
 10
184.4009424321
 20
168.8250536834
 11
184.4009424321
 21
170.0750536834
  0
LINE
  5
288
100
AcDbEntity
  8
DEF_LAYER_DIM
100
AcDbLine
 62
2
  6
CONTINUOUS
 10
159.4009424321
 20
137.1797392464
 11
159.4009424321
 21
168.8250536834
  0
LINE
  5
289
100
AcDbEntity
  8
DEF_LAYER_DIM
100
AcDbLine
 62
2
  6
CONTINUOUS
 10
159.4009424321
 20
168.8250536834
 11
159.4009424321
 21
170.0750536834
  0
LINE
  5
28A
100
AcDbEntity
  8
DEF_LAYER_DIM
100
AcDbLine
 62
2
  6
CONTINUOUS
 10
184.4009424321
 20
168.0750536834
 11
171.9009424321
 21
168.0750536834
  0
LINE
  5
28B
100
AcDbEntity
  8
DEF_LAYER_DIM
100
AcDbLine
 62
2
  6
CONTINUOUS
 10
159.4009424321
 20
168.0750536834
 11
171.9009424321
 21
168.0750536834
  0
INSERT
  5
28C
100
AcDbEntity
  8
DEF_LAYER_DIM
100
AcDbBlockReference
 62
2
  6
CONTINUOUS
  2
_FILLED
 10
184.4009424321
 20
168.0750536834
 41
3.0
 42
3.0
 43
3.0
  0
INSERT
  5
28D
100
AcDbEntity
  8
DEF_LAYER_DIM
100
AcDbBlockReference
 62
2
  6
CONTINUOUS
  2
_FILLED
 10
159.4009424321
 20
168.0750536834
 41
3.0
 42
3.0
 43
3.0
 50
180.0
  0
ENDBLK
  5
28E
100
AcDbEntity
  8
0
  6
BYBLOCK
 62
0
100
AcDbBlockEnd
  0
BLOCK
  5
28F
100
AcDbEntity
  8
DEF_LAYER_DIM
100
AcDbBlockBegin
 62
2
  6
CONTINUOUS
  2
*D6
 70
65
 10
0.0
 20
0.0
  3
*D6
  1

  0
MTEXT
  5
290
100
AcDbEntity
  8
DEF_LAYER_DIM
100
AcDbMText
 62
2
  6
CONTINUOUS
  7
STANDARD
 71
2
 72
1
 10
94.2219715452
 20
126.1298226411
 30
0.0
 11
0.0
 21
1.0
 31
0.0
 44
0.9
  1
25
 40
3.0
 41
4.8
  0
LINE
  5
291
100
AcDbEntity
  8
DEF_LAYER_DIM
100
AcDbLine
 62
2
  6
CONTINUOUS
 10
89.5489589566
 20
139.6797392464
 11
97.2219715452
 21
139.6797392464
  0
LINE
  5
292
100
AcDbEntity
  8
DEF_LAYER_DIM
100
AcDbLine
 62
2
  6
CONTINUOUS
 10
97.2219715452
 20
139.6797392464
 11
99.9719715452
 21
139.6797392464
  0
LINE
  5
293
100
AcDbEntity
  8
DEF_LAYER_DIM
100
AcDbLine
 62
2
  6
CONTINUOUS
 10
89.5489589566
 20
114.6797392464
 11
97.2219715452
 21
114.6797392464
  0
LINE
  5
294
100
AcDbEntity
  8
DEF_LAYER_DIM
100
AcDbLine
 62
2
  6
CONTINUOUS
 10
97.2219715452
 20
114.6797392464
 11
99.9719715452
 21
114.6797392464
  0
LINE
  5
295
100
AcDbEntity
  8
DEF_LAYER_DIM
100
AcDbLine
 62
2
  6
CONTINUOUS
 10
97.9719715452
 20
139.6797392464
 11
97.9719715452
 21
127.1797392464
  0
LINE
  5
296
100
AcDbEntity
  8
DEF_LAYER_DIM
100
AcDbLine
 62
2
  6
CONTINUOUS
 10
97.9719715452
 20
114.6797392464
 11
97.9719715452
 21
127.1797392464
  0
INSERT
  5
297
100
AcDbEntity
  8
DEF_LAYER_DIM
100
AcDbBlockReference
 62
2
  6
CONTINUOUS
  2
_FILLED
 10
97.9719715452
 20
139.6797392464
 41
3.0
 42
3.0
 43
3.0
 50
90.0
  0
INSERT
  5
298
100
AcDbEntity
  8
DEF_LAYER_DIM
100
AcDbBlockReference
 62
2
  6
CONTINUOUS
  2
_FILLED
 10
97.9719715452
 20
114.6797392464
 41
3.0
 42
3.0
 43
3.0
 50
270.0
  0
ENDBLK
  5
299
100
AcDbEntity
  8
0
  6
BYBLOCK
 62
0
100
AcDbBlockEnd
  0
BLOCK
  5
29A
100
AcDbEntity
  8
DEF_LAYER_DIM
100
AcDbBlockBegin
 62
2
  6
CONTINUOUS
  2
*D7
 70
65
 10
0.0
 20
0.0
  3
*D7
  1

  0
MTEXT
  5
29B
100
AcDbEntity
  8
DEF_LAYER_DIM
100
AcDbMText
 62
2
  6
CONTINUOUS
  7
STANDARD
 71
2
 72
1
 10
72.9386040328
 20
149.9934624406
 30
0.0
 11
1.0
 21
0.0
 31
0.0
 44
0.9
  1
25
 40
3.0
 41
4.8
  0
LINE
  5
29C
100
AcDbEntity
  8
DEF_LAYER_DIM
100
AcDbLine
 62
2
  6
CONTINUOUS
 10
88.7489589566
 20
140.4797392464
 11
88.7489589566
 21
146.9934624406
  0
LINE
  5
29D
100
AcDbEntity
  8
DEF_LAYER_DIM
100
AcDbLine
 62
2
  6
CONTINUOUS
 10
88.7489589566
 20
146.9934624406
 11
88.7489589566
 21
148.2434624406
  0
LINE
  5
29E
100
AcDbEntity
  8
DEF_LAYER_DIM
100
AcDbLine
 62
2
  6
CONTINUOUS
 10
63.7489589566
 20
140.4797392464
 11
63.7489589566
 21
146.9934624406
  0
LINE
  5
29F
100
AcDbEntity
  8
DEF_LAYER_DIM
100
AcDbLine
 62
2
  6
CONTINUOUS
 10
63.7489589566
 20
146.9934624406
 11
63.7489589566
 21
148.2434624406
  0
LINE
  5
2A0
100
AcDbEntity
  8
DEF_LAYER_DIM
100
AcDbLine
 62
2
  6
CONTINUOUS
 10
88.7489589566
 20
146.2434624406
 11
76.2489589566
 21
146.2434624406
  0
LINE
  5
2A1
100
AcDbEntity
  8
DEF_LAYER_DIM
100
AcDbLine
 62
2
  6
CONTINUOUS
 10
63.7489589566
 20
146.2434624406
 11
76.2489589566
 21
146.2434624406
  0
INSERT
  5
2A2
100
AcDbEntity
  8
DEF_LAYER_DIM
100
AcDbBlockReference
 62
2
  6
CONTINUOUS
  2
_FILLED
 10
88.7489589566
 20
146.2434624406
 41
3.0
 42
3.0
 43
3.0
  0
INSERT
  5
2A3
100
AcDbEntity
  8
DEF_LAYER_DIM
100
AcDbBlockReference
 62
2
  6
CONTINUOUS
  2
_FILLED
 10
63.7489589566
 20
146.2434624406
 41
3.0
 42
3.0
 43
3.0
 50
180.0
  0
ENDBLK
  5
2A4
100
AcDbEntity
  8
0
  6
BYBLOCK
 62
0
100
AcDbBlockEnd
  0
BLOCK
  5
2A5
100
AcDbEntity
  8
DEF_LAYER_DIM
100
AcDbBlockBegin
 62
2
  6
CONTINUOUS
  2
*D8
 70
65
 10
0.0
 20
0.0
  3
*D8
  1

  0
MTEXT
  5
2A6
100
AcDbEntity
  8
DEF_LAYER_DIM
100
AcDbMText
 62
2
  6
CONTINUOUS
  7
STANDARD
 71
2
 72
1
 10
211.8315745136
 20
171.8250536834
 30
0.0
 11
1.0
 21
0.0
 31
0.0
 44
0.9
  1
57
 40
3.0
 41
4.8
  0
LINE
  5
2A7
100
AcDbEntity
  8
DEF_LAYER_DIM
100
AcDbLine
 62
2
  6
CONTINUOUS
 10
241.4009424321
 20
140.4797392464
 11
241.4009424321
 21
168.8250536834
  0
LINE
  5
2A8
100
AcDbEntity
  8
DEF_LAYER_DIM
100
AcDbLine
 62
2
  6
CONTINUOUS
 10
241.4009424321
 20
168.8250536834
 11
241.4009424321
 21
170.0750536834
  0
LINE
  5
2A9
100
AcDbEntity
  8
DEF_LAYER_DIM
100
AcDbLine
 62
2
  6
CONTINUOUS
 10
184.4009424321
 20
157.9297392464
 11
184.4009424321
 21
168.8250536834
  0
LINE
  5
2AA
100
AcDbEntity
  8
DEF_LAYER_DIM
100
AcDbLine
 62
2
  6
CONTINUOUS
 10
184.4009424321
 20
168.8250536834
 11
184.4009424321
 21
170.0750536834
  0
LINE
  5
2AB
100
AcDbEntity
  8
DEF_LAYER_DIM
100
AcDbLine
 62
2
  6
CONTINUOUS
 10
241.4009424321
 20
168.0750536834
 11
212.9009424321
 21
168.0750536834
  0
LINE
  5
2AC
100
AcDbEntity
  8
DEF_LAYER_DIM
100
AcDbLine
 62
2
  6
CONTINUOUS
 10
184.4009424321
 20
168.0750536834
 11
212.9009424321
 21
168.0750536834
  0
INSERT
  5
2AD
100
AcDbEntity
  8
DEF_LAYER_DIM
100
AcDbBlockReference
 62
2
  6
CONTINUOUS
  2
_FILLED
 10
241.4009424321
 20
168.0750536834
 41
3.0
 42
3.0
 43
3.0
  0
INSERT
  5
2AE
100
AcDbEntity
  8
DEF_LAYER_DIM
100
AcDbBlockReference
 62
2
  6
CONTINUOUS
  2
_FILLED
 10
184.4009424321
 20
168.0750536834
 41
3.0
 42
3.0
 43
3.0
 50
180.0
  0
ENDBLK
  5
2AF
100
AcDbEntity
  8
0
  6
BYBLOCK
 62
0
100
AcDbBlockEnd
  0
BLOCK
  5
2B0
100
AcDbEntity
  8
DEF_LAYER_DIM
100
AcDbBlockBegin
 62
2
  6
CONTINUOUS
  2
*D9
 70
65
 10
0.0
 20
0.0
  3
*D9
  1

  0
MTEXT
  5
2B1
100
AcDbEntity
  8
DEF_LAYER_DIM
100
AcDbMText
 62
2
  6
CONTINUOUS
  7
STANDARD
 71
2
 72
1
 10
206.5539061512
 20
86.8671309605
 30
0.0
 11
1.0
 21
0.0
 31
0.0
 44
0.9
  1
41
 40
3.0
 41
4.8
  0
LINE
  5
2B2
100
AcDbEntity
  8
DEF_LAYER_DIM
100
AcDbLine
 62
2
  6
CONTINUOUS
 10
225.4009424321
 20
96.6797392464
 11
225.4009424321
 21
83.8671309605
  0
LINE
  5
2B3
100
AcDbEntity
  8
DEF_LAYER_DIM
100
AcDbLine
 62
2
  6
CONTINUOUS
 10
225.4009424321
 20
83.8671309605
 11
225.4009424321
 21
81.1171309605
  0
LINE
  5
2B4
100
AcDbEntity
  8
DEF_LAYER_DIM
100
AcDbLine
 62
2
  6
CONTINUOUS
 10
184.4009424321
 20
96.4297392464
 11
184.4009424321
 21
83.8671309605
  0
LINE
  5
2B5
100
AcDbEntity
  8
DEF_LAYER_DIM
100
AcDbLine
 62
2
  6
CONTINUOUS
 10
184.4009424321
 20
83.8671309605
 11
184.4009424321
 21
81.1171309605
  0
LINE
  5
2B6
100
AcDbEntity
  8
DEF_LAYER_DIM
100
AcDbLine
 62
2
  6
CONTINUOUS
 10
225.4009424321
 20
83.1171309605
 11
204.9009424321
 21
83.1171309605
  0
LINE
  5
2B7
100
AcDbEntity
  8
DEF_LAYER_DIM
100
AcDbLine
 62
2
  6
CONTINUOUS
 10
184.4009424321
 20
83.1171309605
 11
204.9009424321
 21
83.1171309605
  0
INSERT
  5
2B8
100
AcDbEntity
  8
DEF_LAYER_DIM
100
AcDbBlockReference
 62
2
  6
CONTINUOUS
  2
_FILLED
 10
225.4009424321
 20
83.1171309605
 41
3.0
 42
3.0
 43
3.0
  0
INSERT
  5
2B9
100
AcDbEntity
  8
DEF_LAYER_DIM
100
AcDbBlockReference
 62
2
  6
CONTINUOUS
  2
_FILLED
 10
184.4009424321
 20
83.1171309605
 41
3.0
 42
3.0
 43
3.0
 50
180.0
  0
ENDBLK
  5
2BA
100
AcDbEntity
  8
0
  6
BYBLOCK
 62
0
100
AcDbBlockEnd
  0
ENDSEC
  0
SECTION
  2
ENTITIES
  0
DIMENSION
  5
2BB
100
AcDbEntity
  8
DEF_LAYER_DIM
100
AcDbDimension
 62
2
  6
CONTINUOUS
  2
*D0
 10
106.4989589566
 20
166.0210477692
 11
76.4388908157
 21
166.0210477692
 70
160
 71
2
  1
60.5
  3
DIMSTYLE_1
100
AcDbAlignedDimension
 13
45.9989589566
 23
156.9297392464
 14
106.4989589566
 24
156.9297392464
100
AcDbRotatedDimension
  0
DIMENSION
  5
2BC
100
AcDbEntity
  8
DEF_LAYER_DIM
100
AcDbDimension
 62
2
  6
CONTINUOUS
  2
*D1
 10
36.3164962249
 20
96.9297392464
 11
36.3164962249
 21
127.2547388673
 70
160
 71
2
  1
60.5
  3
DIMSTYLE_1
100
AcDbAlignedDimension
 13
46.4989589566
 23
157.4297392464
 14
46.4989589566
 24
96.9297392464
 50
270.0
100
AcDbRotatedDimension
  0
DIMENSION
  5
2BD
100
AcDbEntity
  8
DEF_LAYER_DIM
100
AcDbDimension
 62
2
  6
CONTINUOUS
  2
*D2
 10
253.8450890336
 20
101.6797392464
 11
253.8450890336
 21
114.5047370963
 70
160
 71
2
  1
25.5
  3
DIMSTYLE_1
100
AcDbAlignedDimension
 13
245.4009424321
 23
127.1797392464
 14
234.4009424321
 24
101.6797392464
 50
270.0
100
AcDbRotatedDimension
  0
DIMENSION
  5
2BE
100
AcDbEntity
  8
DEF_LAYER_DIM
100
AcDbDimension
 62
2
  6
CONTINUOUS
  2
*D3
 10
246.1302311728
 20
101.6797392464
 11
246.1302311728
 21
107.1797341478
 70
160
 71
2
  1
11
  3
DIMSTYLE_1
100
AcDbAlignedDimension
 13
234.4009424321
 23
112.6797392464
 14
232.5009424321
 24
101.6797392464
 50
270.0
100
AcDbRotatedDimension
  0
DIMENSION
  5
2BF
100
AcDbEntity
  8
DEF_LAYER_DIM
100
AcDbDimension
 62
2
  6
CONTINUOUS
  2
*D4
 10
191.4009424321
 20
160.4595340765
 11
187.513897522
 21
160.4595340765
 70
160
 71
2
  1
7
  3
DIMSTYLE_1
100
AcDbAlignedDimension
 13
184.4009424321
 23
156.9297392464
 14
191.4009424321
 24
156.9297392464
100
AcDbRotatedDimension
  0
DIMENSION
  5
2C0
100
AcDbEntity
  8
DEF_LAYER_DIM
100
AcDbDimension
 62
2
  6
CONTINUOUS
  2
*D5
 10
159.4009424321
 20
168.0750536834
 11
171.9759429932
 21
168.0750536834
 70
160
 71
2
  1
25
  3
DIMSTYLE_1
100
AcDbAlignedDimension
 13
184.4009424321
 23
156.9297392464
 14
159.4009424321
 24
136.1797392464
 50
180.0
100
AcDbRotatedDimension
  0
DIMENSION
  5
2C1
100
AcDbEntity
  8
DEF_LAYER_DIM
100
AcDbDimension
 62
2
  6
CONTINUOUS
  2
*D6
 10
97.9719715452
 20
114.6797392464
 11
97.9719715452
 21
126.2048225162
 70
160
 71
2
  1
25
  3
DIMSTYLE_1
100
AcDbAlignedDimension
 13
88.5489589566
 23
139.6797392464
 14
88.5489589566
 24
114.6797392464
 50
270.0
100
AcDbRotatedDimension
  0
DIMENSION
  5
2C2
100
AcDbEntity
  8
DEF_LAYER_DIM
100
AcDbDimension
 62
2
  6
CONTINUOUS
  2
*D7
 10
63.7489589566
 20
146.2434624406
 11
73.0136042633
 21
146.2434624406
 70
160
 71
2
  1
25
  3
DIMSTYLE_1
100
AcDbAlignedDimension
 13
88.7489589566
 23
139.4797392464
 14
63.7489589566
 24
139.4797392464
 50
180.0
100
AcDbRotatedDimension
  0
DIMENSION
  5
2C3
100
AcDbEntity
  8
DEF_LAYER_DIM
100
AcDbDimension
 62
2
  6
CONTINUOUS
  2
*D8
 10
184.4009424321
 20
168.0750536834
 11
211.8315701294
 21
168.0750536834
 70
160
 71
2
  1
57
  3
DIMSTYLE_1
100
AcDbAlignedDimension
 13
241.4009424321
 23
139.4797392464
 14
184.4009424321
 24
156.9297392464
 50
180.0
100
AcDbRotatedDimension
  0
DIMENSION
  5
2C4
100
AcDbEntity
  8
DEF_LAYER_DIM
100
AcDbDimension
 62
2
  6
CONTINUOUS
  2
*D9
 10
184.4009424321
 20
83.1171309605
 11
206.2539104919
 21
83.1171309605
 70
160
 71
2
  1
41
  3
DIMSTYLE_1
100
AcDbAlignedDimension
 13
225.4009424321
 23
97.6797392464
 14
184.4009424321
 24
97.4297392464
 50
180.0
100
AcDbRotatedDimension
  0
LEADER
  5
2C5
100
AcDbEntity
  8
DEF_LAYER_NOTE
100
AcDbLeader
 62
2
  6
CONTINUOUS
  3
STANDARD
 71
1
 72
0
 73
0
 75
0
 40
3.0
 41
12.0
 76
3
 10
163.5526075215
 20
118.0953167853
 30
0.0
 10
160.5344256271
 20
108.378462464
 30
0.0
 10
158.5344256271
 20
108.378462464
 30
0.0
340
2C6
1001
ACAD
1000
DSTYLE
1002
{
1070
77
1070
0
1002
}
  0
MTEXT
  5
2C6
102
{ACAD_REACTORS
330
2C5
102
}
100
AcDbEntity
  8
DEF_LAYER_NOTE
100
AcDbMText
 62
2
  6
CONTINUOUS
  7
STANDARD
 71
3
 72
1
 10
158.5344256271
 20
109.878462464
 30
0.0
 11
1.0
 21
0.0
 31
0.0
 44
0.9
  1
G1/2"
 40
3.0
 41
12.0
  0
LEADER
  5
2C7
100
AcDbEntity
  8
DEF_LAYER_NOTE
100
AcDbLeader
 62
2
  6
CONTINUOUS
  3
STANDARD
 71
1
 72
0
 73
0
 75
0
 40
3.0
 41
12.0
 76
3
 10
219.6157181614
 20
101.6797392464
 30
0.0
 10
214.0545531688
 20
93.9407226627
 30
0.0
 10
212.0545531688
 20
93.9407226627
 30
0.0
340
2C8
1001
ACAD
1000
DSTYLE
1002
{
1070
77
1070
0
1002
}
  0
MTEXT
  5
2C8
102
{ACAD_REACTORS
330
2C7
102
}
100
AcDbEntity
  8
DEF_LAYER_NOTE
100
AcDbMText
 62
2
  6
CONTINUOUS
  7
STANDARD
 71
3
 72
1
 10
212.0545531688
 20
95.4407226627
 30
0.0
 11
1.0
 21
0.0
 31
0.0
 44
0.9
  1
G1/2"
 40
3.0
 41
12.0
  0
LINE
  5
2C9
100
AcDbEntity
  8
0
100
AcDbLine
 62
7
  6
CONTINUOUS
 10
0.0
 20
0.0
 11
0.0
 21
210.0
  0
LINE
  5
2CA
100
AcDbEntity
  8
0
100
AcDbLine
 62
7
  6
CONTINUOUS
 10
0.0
 20
0.0
 11
0.0
 21
210.0
  0
LINE
  5
2CB
100
AcDbEntity
  8
DEF_LAYER_ASSEM_MEMBER
100
AcDbLine
 62
7
  6
CONTINUOUS
 10
45.9989589566
 20
156.9297392464
 11
45.9989589566
 21
97.4297392464
  0
LINE
  5
2CC
100
AcDbEntity
  8
0
100
AcDbLine
 62
7
  6
CONTINUOUS
 10
0.0
 20
0.0
 11
297.0
 21
0.0
  0
LINE
  5
2CD
100
AcDbEntity
  8
0
100
AcDbLine
 62
7
  6
CONTINUOUS
 10
0.0
 20
0.0
 11
297.0
 21
0.0
  0
LINE
  5
2CE
100
AcDbEntity
  8
DEF_LAYER_ASSEM_MEMBER
100
AcDbLine
 62
9
  6
CONTINUOUS
 10
46.4989589566
 20
96.9297392464
 11
46.4989589566
 21
157.4297392464
  0
LINE
  5
2CF
100
AcDbEntity
  8
DEF_LAYER_ASSEM_MEMBER
100
AcDbLine
 62
9
  6
CONTINUOUS
 10
63.2489589566
 20
115.1797392464
 11
63.2489589566
 21
139.1797392464
  0
LINE
  5
2D0
100
AcDbEntity
  8
DEF_LAYER_ASSEM_MEMBER
100
AcDbLine
 62
7
  6
CONTINUOUS
 10
63.7489589566
 20
139.4797392464
 11
63.7489589566
 21
114.8797392464
  0
LINE
  5
2D1
100
AcDbEntity
  8
DEF_LAYER_ASSEM_MEMBER
100
AcDbLine
 62
9
  6
CONTINUOUS
 10
63.9489589566
 20
114.6797392464
 11
63.9489589566
 21
139.6797392464
  0
LINE
  5
2D2
100
AcDbEntity
  8
DEF_LAYER_ASSEM_MEMBER
100
AcDbLine
 62
9
  6
CONTINUOUS
 10
64.2489589566
 20
140.1797392464
 11
64.2489589566
 21
139.6797392464
  0
LINE
  5
2D3
100
AcDbEntity
  8
DEF_LAYER_ASSEM_MEMBER
100
AcDbLine
 62
9
  6
CONTINUOUS
 10
64.2489589566
 20
114.1797392464
 11
64.2489589566
 21
114.6797392464
  0
LINE
  5
2D4
100
AcDbEntity
  8
DEF_LAYER_ASSEM_MEMBER
100
AcDbLine
 62
7
  6
CONTINUOUS
 10
65.2489589566
 20
114.6797392464
 11
65.2489589566
 21
112.6797392464
  0
LINE
  5
2D5
100
AcDbEntity
  8
DEF_LAYER_ASSEM_MEMBER
100
AcDbLine
 62
7
  6
CONTINUOUS
 10
65.7489589566
 20
110.2451725532
 11
65.7489589566
 21
109.8486034154
  0
LINE
  5
2D6
100
AcDbEntity
  8
DEF_LAYER_ASSEM_MEMBER
100
AcDbLine
 62
7
  6
CONTINUOUS
 10
65.7489589566
 20
108.4451725532
 11
65.7489589566
 21
108.0486034154
  0
LINE
  5
2D7
100
AcDbEntity
  8
DEF_LAYER_ASSEM_MEMBER
100
AcDbLine
 62
7
  6
CONTINUOUS
 10
65.7489589566
 20
106.6451725532
 11
65.7489589566
 21
106.2486034154
  0
LINE
  5
2D8
100
AcDbEntity
  8
DEF_LAYER_ASSEM_MEMBER
100
AcDbLine
 62
7
  6
CONTINUOUS
 10
65.7489589566
 20
104.8451725532
 11
65.7489589566
 21
104.4486034154
  0
LINE
  5
2D9
100
AcDbEntity
  8
DEF_LAYER_ASSEM_MEMBER
100
AcDbLine
 62
7
  6
CONTINUOUS
 10
67.2489589566
 20
112.6797392464
 11
67.2489589566
 21
111.0797392464
  0
LINE
  5
2DA
100
AcDbEntity
  8
DEF_LAYER_ASSEM_MEMBER
100
AcDbLine
 62
7
  6
CONTINUOUS
 10
76.2489589566
 20
102.2618284875
 11
76.2489589566
 21
103.0038516584
  0
LINE
  5
2DB
100
AcDbEntity
  8
DEF_LAYER_AXIS
100
AcDbLine
 62
7
  6
CENTER
 10
76.2489589566
 20
92.9297392464
 11
76.2489589566
 21
161.4297392464
  0
LINE
  5
2DC
100
AcDbEntity
  8
DEF_LAYER_ASSEM_MEMBER
100
AcDbLine
 62
7
  6
CONTINUOUS
 10
65.8345955546
 20
103.1044162088
 11
65.8321618306
 21
103.0965363725
  0
LINE
  5
2DD
100
AcDbEntity
  8
DEF_LAYER_ASSEM_MEMBER
100
AcDbLine
 62
7
  6
CONTINUOUS
 10
85.2489589566
 20
112.6797392464
 11
85.2489589566
 21
111.0797392464
  0
LINE
  5
2DE
100
AcDbEntity
  8
DEF_LAYER_ASSEM_MEMBER
100
AcDbLine
 62
7
  6
CONTINUOUS
 10
86.7489589566
 20
111.0797392464
 11
86.7489589566
 21
110.7486034154
  0
LINE
  5
2DF
100
AcDbEntity
  8
DEF_LAYER_ASSEM_MEMBER
100
AcDbLine
 62
7
  6
CONTINUOUS
 10
86.7489589566
 20
109.3451725532
 11
86.7489589566
 21
108.9486034154
  0
LINE
  5
2E0
100
AcDbEntity
  8
DEF_LAYER_ASSEM_MEMBER
100
AcDbLine
 62
7
  6
CONTINUOUS
 10
86.7489589566
 20
107.5451725532
 11
86.7489589566
 21
107.1486034154
  0
LINE
  5
2E1
100
AcDbEntity
  8
DEF_LAYER_ASSEM_MEMBER
100
AcDbLine
 62
7
  6
CONTINUOUS
 10
86.7489589566
 20
105.7451725532
 11
86.7489589566
 21
105.3486034154
  0
LINE
  5
2E2
100
AcDbEntity
  8
DEF_LAYER_ASSEM_MEMBER
100
AcDbLine
 62
7
  6
CONTINUOUS
 10
86.7489589566
 20
103.9451725532
 11
86.7489589566
 21
103.5486034154
  0
LINE
  5
2E3
100
AcDbEntity
  8
DEF_LAYER_ASSEM_MEMBER
100
AcDbLine
 62
7
  6
CONTINUOUS
 10
87.2489589566
 20
114.6797392464
 11
87.2489589566
 21
112.6797392464
  0
LINE
  5
2E4
100
AcDbEntity
  8
DEF_LAYER_ASSEM_MEMBER
100
AcDbLine
 62
7
  6
CONTINUOUS
 10
65.7489589566
 20
110.2451725532
 11
65.7591987541
 21
110.2578255667
  0
LINE
  5
2E5
100
AcDbEntity
  8
DEF_LAYER_ASSEM_MEMBER
100
AcDbLine
 62
7
  6
CONTINUOUS
 10
65.7591987541
 20
108.4578255667
 11
65.7489589566
 21
108.4451725532
  0
LINE
  5
2E6
100
AcDbEntity
  8
DEF_LAYER_ASSEM_MEMBER
100
AcDbLine
 62
7
  6
CONTINUOUS
 10
65.7591987541
 20
106.6578255667
 11
65.7489589566
 21
106.6451725532
  0
LINE
  5
2E7
100
AcDbEntity
  8
DEF_LAYER_ASSEM_MEMBER
100
AcDbLine
 62
7
  6
CONTINUOUS
 10
65.7591987541
 20
104.8578255667
 11
65.7489589566
 21
104.8451725532
  0
LINE
  5
2E8
100
AcDbEntity
  8
DEF_LAYER_ASSEM_MEMBER
100
AcDbLine
 62
7
  6
CONTINUOUS
 10
65.7623997934
 20
104.4341066043
 11
65.7489589566
 21
104.4486034154
  0
LINE
  5
2E9
100
AcDbEntity
  8
DEF_LAYER_ASSEM_MEMBER
100
AcDbLine
 62
9
  6
CONTINUOUS
 10
88.2489589566
 20
140.1797392464
 11
88.2489589566
 21
139.6797392464
  0
LINE
  5
2EA
100
AcDbEntity
  8
DEF_LAYER_ASSEM_MEMBER
100
AcDbLine
 62
9
  6
CONTINUOUS
 10
88.2489589566
 20
114.1797392464
 11
88.2489589566
 21
114.6797392464
  0
LINE
  5
2EB
100
AcDbEntity
  8
DEF_LAYER_ASSEM_MEMBER
100
AcDbLine
 62
9
  6
CONTINUOUS
 10
88.5489589566
 20
114.6797392464
 11
88.5489589566
 21
139.6797392464
  0
LINE
  5
2EC
100
AcDbEntity
  8
DEF_LAYER_ASSEM_MEMBER
100
AcDbLine
 62
7
  6
CONTINUOUS
 10
88.7489589566
 20
114.8797392464
 11
88.7489589566
 21
139.4797392464
  0
LINE
  5
2ED
100
AcDbEntity
  8
DEF_LAYER_ASSEM_MEMBER
100
AcDbLine
 62
9
  6
CONTINUOUS
 10
89.2489589566
 20
139.1797392464
 11
89.2489589566
 21
115.1797392464
  0
LINE
  5
2EE
100
AcDbEntity
  8
DEF_LAYER_ASSEM_MEMBER
100
AcDbLine
 62
7
  6
CONTINUOUS
 10
67.2489589566
 20
101.6797392464
 11
65.8321618306
 21
103.0965363725
  0
LINE
  5
2EF
100
AcDbEntity
  8
DEF_LAYER_ASSEM_MEMBER
100
AcDbLine
 62
7
  6
CONTINUOUS
 10
65.7623997934
 20
106.2341066043
 11
65.7489589566
 21
106.2486034154
  0
LINE
  5
2F0
100
AcDbEntity
  8
DEF_LAYER_ASSEM_MEMBER
100
AcDbLine
 62
7
  6
CONTINUOUS
 10
65.7623997934
 20
108.0341066043
 11
65.7489589566
 21
108.0486034154
  0
LINE
  5
2F1
100
AcDbEntity
  8
DEF_LAYER_ASSEM_MEMBER
100
AcDbLine
 62
7
  6
CONTINUOUS
 10
86.1067145202
 20
102.5483876402
 11
86.1092841593
 21
102.5400644491
  0
LINE
  5
2F2
100
AcDbEntity
  8
DEF_LAYER_ASSEM_MEMBER
100
AcDbLine
 62
9
  6
CONTINUOUS
 10
105.9989589566
 20
96.9297392464
 11
105.9989589566
 21
157.4297392464
  0
LINE
  5
2F3
100
AcDbEntity
  8
DEF_LAYER_ASSEM_MEMBER
100
AcDbLine
 62
7
  6
CONTINUOUS
 10
106.4989589566
 20
97.4297392464
 11
106.4989589566
 21
156.9297392464
  0
LINE
  5
2F4
100
AcDbEntity
  8
DEF_LAYER_ASSEM_MEMBER
100
AcDbLine
 62
7
  6
CONTINUOUS
 10
86.7489589566
 20
110.7486034154
 11
86.7355181198
 21
110.7341066043
  0
LINE
  5
2F5
100
AcDbEntity
  8
DEF_LAYER_ASSEM_MEMBER
100
AcDbLine
 62
7
  6
CONTINUOUS
 10
86.7355181198
 20
108.9341066043
 11
86.7489589566
 21
108.9486034154
  0
LINE
  5
2F6
100
AcDbEntity
  8
DEF_LAYER_ASSEM_MEMBER
100
AcDbLine
 62
7
  6
CONTINUOUS
 10
86.7355181198
 20
107.1341066043
 11
86.7489589566
 21
107.1486034154
  0
LINE
  5
2F7
100
AcDbEntity
  8
DEF_LAYER_ASSEM_MEMBER
100
AcDbLine
 62
7
  6
CONTINUOUS
 10
86.7355181198
 20
105.3341066043
 11
86.7489589566
 21
105.3486034154
  0
LINE
  5
2F8
100
AcDbEntity
  8
DEF_LAYER_ASSEM_MEMBER
100
AcDbLine
 62
7
  6
CONTINUOUS
 10
85.2489589566
 20
101.6797392464
 11
86.1092841593
 21
102.5400644491
  0
LINE
  5
2F9
100
AcDbEntity
  8
DEF_LAYER_ASSEM_MEMBER
100
AcDbLine
 62
7
  6
CONTINUOUS
 10
66.9745327394
 20
111.0089185432
 11
65.7591987541
 21
110.2578255667
  0
LINE
  5
2FA
100
AcDbEntity
  8
DEF_LAYER_ASSEM_MEMBER
100
AcDbLine
 62
7
  6
CONTINUOUS
 10
66.9745327394
 20
109.2089185432
 11
65.7591987541
 21
108.4578255667
  0
LINE
  5
2FB
100
AcDbEntity
  8
DEF_LAYER_ASSEM_MEMBER
100
AcDbLine
 62
7
  6
CONTINUOUS
 10
66.9745327394
 20
107.4089185432
 11
65.7591987541
 21
106.6578255667
  0
LINE
  5
2FC
100
AcDbEntity
  8
DEF_LAYER_ASSEM_MEMBER
100
AcDbLine
 62
7
  6
CONTINUOUS
 10
66.9745327394
 20
105.6089185432
 11
65.7591987541
 21
104.8578255667
  0
LINE
  5
2FD
100
AcDbEntity
  8
DEF_LAYER_ASSEM_MEMBER
100
AcDbLine
 62
7
  6
CONTINUOUS
 10
66.9745327394
 20
103.8089185432
 11
65.8345955546
 21
103.1044162088
  0
LINE
  5
2FE
100
AcDbEntity
  8
DEF_LAYER_ASSEM_MEMBER
100
AcDbLine
 62
7
  6
CONTINUOUS
 10
86.7489589566
 20
103.9451725532
 11
86.7387191591
 21
103.9578255667
  0
LINE
  5
2FF
100
AcDbEntity
  8
DEF_LAYER_ASSEM_MEMBER
100
AcDbLine
 62
7
  6
CONTINUOUS
 10
86.7387191591
 20
105.7578255667
 11
86.7489589566
 21
105.7451725532
  0
LINE
  5
300
100
AcDbEntity
  8
DEF_LAYER_ASSEM_MEMBER
100
AcDbLine
 62
7
  6
CONTINUOUS
 10
86.7387191591
 20
107.5578255667
 11
86.7489589566
 21
107.5451725532
  0
LINE
  5
301
100
AcDbEntity
  8
DEF_LAYER_ASSEM_MEMBER
100
AcDbLine
 62
7
  6
CONTINUOUS
 10
86.7387191591
 20
109.3578255667
 11
86.7489589566
 21
109.3451725532
  0
LINE
  5
302
100
AcDbEntity
  8
DEF_LAYER_ASSEM_MEMBER
100
AcDbLine
 62
7
  6
CONTINUOUS
 10
85.5197690541
 20
110.0782257785
 11
86.7355181198
 21
110.7341066043
  0
LINE
  5
303
100
AcDbEntity
  8
DEF_LAYER_ASSEM_MEMBER
100
AcDbLine
 62
7
  6
CONTINUOUS
 10
85.5197690541
 20
108.2782257785
 11
86.7355181198
 21
108.9341066043
  0
LINE
  5
304
100
AcDbEntity
  8
DEF_LAYER_ASSEM_MEMBER
100
AcDbLine
 62
7
  6
CONTINUOUS
 10
85.5197690541
 20
106.4782257785
 11
86.7355181198
 21
107.1341066043
  0
LINE
  5
305
100
AcDbEntity
  8
DEF_LAYER_ASSEM_MEMBER
100
AcDbLine
 62
7
  6
CONTINUOUS
 10
65.7623997934
 20
104.4341066043
 11
66.9497047563
 21
103.7935730042
  0
LINE
  5
306
100
AcDbEntity
  8
DEF_LAYER_ASSEM_MEMBER
100
AcDbLine
 62
7
  6
CONTINUOUS
 10
65.7623997934
 20
106.2341066043
 11
66.9497047563
 21
105.5935730042
  0
LINE
  5
307
100
AcDbEntity
  8
DEF_LAYER_ASSEM_MEMBER
100
AcDbLine
 62
7
  6
CONTINUOUS
 10
65.7623997934
 20
108.0341066043
 11
66.9497047563
 21
107.3935730042
  0
LINE
  5
308
100
AcDbEntity
  8
DEF_LAYER_ASSEM_MEMBER
100
AcDbLine
 62
7
  6
CONTINUOUS
 10
65.7623997934
 20
109.8341066043
 11
66.9497047563
 21
109.1935730042
  0
LINE
  5
309
100
AcDbEntity
  8
DEF_LAYER_ASSEM_MEMBER
100
AcDbLine
 62
7
  6
CONTINUOUS
 10
66.7900116639
 20
111.0797392464
 11
66.949705103
 21
110.9935732185
  0
LINE
  5
30A
100
AcDbEntity
  8
DEF_LAYER_ASSEM_MEMBER
100
AcDbLine
 62
7
  6
CONTINUOUS
 10
86.1067145202
 20
102.5483876402
 11
85.5482131569
 21
102.8935730042
  0
LINE
  5
30B
100
AcDbEntity
  8
DEF_LAYER_ASSEM_MEMBER
100
AcDbLine
 62
7
  6
CONTINUOUS
 10
86.7387191591
 20
103.9578255667
 11
85.5482131569
 21
104.6935730042
  0
LINE
  5
30C
100
AcDbEntity
  8
DEF_LAYER_ASSEM_MEMBER
100
AcDbLine
 62
7
  6
CONTINUOUS
 10
86.7387191591
 20
105.7578255667
 11
85.5482131569
 21
106.4935730042
  0
LINE
  5
30D
100
AcDbEntity
  8
DEF_LAYER_ASSEM_MEMBER
100
AcDbLine
 62
7
  6
CONTINUOUS
 10
86.7387191591
 20
107.5578255667
 11
85.5482131569
 21
108.2935730042
  0
LINE
  5
30E
100
AcDbEntity
  8
DEF_LAYER_ASSEM_MEMBER
100
AcDbLine
 62
7
  6
CONTINUOUS
 10
85.5197690541
 20
104.6782257785
 11
86.7355181198
 21
105.3341066043
  0
LINE
  5
30F
100
AcDbEntity
  8
DEF_LAYER_ASSEM_MEMBER
100
AcDbLine
 62
7
  6
CONTINUOUS
 10
85.5197690541
 20
102.8782257785
 11
86.7355181198
 21
103.5341066043
  0
LINE
  5
310
100
AcDbEntity
  8
DEF_LAYER_ASSEM_MEMBER
100
AcDbLine
 62
7
  6
CONTINUOUS
 10
86.7387191591
 20
109.3578255667
 11
85.5482131569
 21
110.0935730042
  0
LINE
  5
311
100
AcDbEntity
  8
DEF_LAYER_ASSEM_MEMBER
100
AcDbLine
 62
7
  6
CONTINUOUS
 10
159.4009424321
 20
136.1797392464
 11
160.9009424321
 21
137.6797392464
  0
LINE
  5
312
100
AcDbEntity
  8
DEF_LAYER_ASSEM_MEMBER
100
AcDbLine
 62
7
  6
CONTINUOUS
 10
162.7895614424
 20
137.6680345633
 11
162.8030894291
 21
137.6797392464
  0
LINE
  5
313
100
AcDbEntity
  8
DEF_LAYER_ASSEM_MEMBER
100
AcDbLine
 62
7
  6
CONTINUOUS
 10
164.5895614424
 20
137.6680345633
 11
164.6030894291
 21
137.6797392464
  0
LINE
  5
314
100
AcDbEntity
  8
DEF_LAYER_ASSEM_MEMBER
100
AcDbLine
 62
7
  6
CONTINUOUS
 10
166.3895614424
 20
137.6680345633
 11
166.4030894291
 21
137.6797392464
  0
LINE
  5
315
100
AcDbEntity
  8
DEF_LAYER_ASSEM_MEMBER
100
AcDbLine
 62
7
  6
CONTINUOUS
 10
168.1895614424
 20
137.6680345633
 11
168.2030894291
 21
137.6797392464
  0
LINE
  5
316
100
AcDbEntity
  8
DEF_LAYER_ASSEM_MEMBER
100
AcDbLine
 62
7
  6
CONTINUOUS
 10
169.9895614424
 20
137.6680345633
 11
170.0030894291
 21
137.6797392464
  0
LINE
  5
317
100
AcDbEntity
  8
DEF_LAYER_ASSEM_MEMBER
100
AcDbLine
 62
7
  6
CONTINUOUS
 10
171.7895614424
 20
137.6680345633
 11
171.8030894291
 21
137.6797392464
  0
LINE
  5
318
100
AcDbEntity
  8
DEF_LAYER_ASSEM_MEMBER
100
AcDbLine
 62
7
  6
CONTINUOUS
 10
160.2131200586
 20
136.3114721604
 11
161.0030894291
 21
137.6797392464
  0
LINE
  5
319
100
AcDbEntity
  8
DEF_LAYER_ASSEM_MEMBER
100
AcDbLine
 62
7
  6
CONTINUOUS
 10
162.7895614424
 20
137.6680345633
 11
162.0092328153
 21
136.3181954775
  0
LINE
  5
31A
100
AcDbEntity
  8
DEF_LAYER_ASSEM_MEMBER
100
AcDbLine
 62
7
  6
CONTINUOUS
 10
164.5895614424
 20
137.6680345633
 11
163.8092328153
 21
136.3181954775
  0
LINE
  5
31B
100
AcDbEntity
  8
DEF_LAYER_ASSEM_MEMBER
100
AcDbLine
 62
7
  6
CONTINUOUS
 10
166.3895614424
 20
137.6680345633
 11
165.6092328153
 21
136.3181954775
  0
LINE
  5
31C
100
AcDbEntity
  8
DEF_LAYER_ASSEM_MEMBER
100
AcDbLine
 62
7
  6
CONTINUOUS
 10
168.1895614424
 20
137.6680345633
 11
167.4092328153
 21
136.3181954775
  0
LINE
  5
31D
100
AcDbEntity
  8
DEF_LAYER_ASSEM_MEMBER
100
AcDbLine
 62
7
  6
CONTINUOUS
 10
173.5895614424
 20
137.6680345633
 11
173.6030894291
 21
137.6797392464
  0
LINE
  5
31E
100
AcDbEntity
  8
DEF_LAYER_ASSEM_MEMBER
100
AcDbLine
 62
7
  6
CONTINUOUS
 10
175.3895614424
 20
137.6680345633
 11
175.4030894291
 21
137.6797392464
  0
LINE
  5
31F
100
AcDbEntity
  8
DEF_LAYER_ASSEM_MEMBER
100
AcDbLine
 62
7
  6
CONTINUOUS
 10
177.1895614424
 20
137.6680345633
 11
177.2030894291
 21
137.6797392464
  0
LINE
  5
320
100
AcDbEntity
  8
DEF_LAYER_ASSEM_MEMBER
100
AcDbLine
 62
7
  6
CONTINUOUS
 10
178.9895614424
 20
137.6680345633
 11
179.0030894291
 21
137.6797392464
  0
LINE
  5
321
100
AcDbEntity
  8
DEF_LAYER_ASSEM_MEMBER
100
AcDbLine
 62
7
  6
CONTINUOUS
 10
180.7895614424
 20
137.6680345633
 11
180.8030894291
 21
137.6797392464
  0
LINE
  5
322
100
AcDbEntity
  8
DEF_LAYER_ASSEM_MEMBER
100
AcDbLine
 62
7
  6
CONTINUOUS
 10
182.5895614424
 20
137.6680345633
 11
182.6030894291
 21
137.6797392464
  0
LINE
  5
323
100
AcDbEntity
  8
DEF_LAYER_ASSEM_MEMBER
100
AcDbLine
 62
7
  6
CONTINUOUS
 10
162.1153761888
 20
116.6797392464
 11
162.1289041746
 21
116.691443928
  0
LINE
  5
324
100
AcDbEntity
  8
DEF_LAYER_ASSEM_MEMBER
100
AcDbLine
 62
7
  6
CONTINUOUS
 10
163.9289041746
 20
116.691443928
 11
163.9153761888
 21
116.6797392464
  0
LINE
  5
325
100
AcDbEntity
  8
DEF_LAYER_ASSEM_MEMBER
100
AcDbLine
 62
7
  6
CONTINUOUS
 10
160.5297083094
 20
117.0509733691
 11
160.5385907792
 21
117.0542124771
  0
LINE
  5
326
100
AcDbEntity
  8
DEF_LAYER_ASSEM_MEMBER
100
AcDbLine
 62
7
  6
CONTINUOUS
 10
190.9009424321
 20
96.9297392464
 11
184.4009424321
 21
96.9297392464
  0
LINE
  5
327
100
AcDbEntity
  8
DEF_LAYER_ASSEM_MEMBER
100
AcDbLine
 62
7
  6
CONTINUOUS
 10
46.4989589566
 20
96.9297392464
 11
105.9989589566
 21
96.9297392464
  0
LINE
  5
328
100
AcDbEntity
  8
DEF_LAYER_ASSEM_MEMBER
100
AcDbLine
 62
9
  6
CONTINUOUS
 10
191.4009424321
 20
97.4297392464
 11
184.4009424321
 21
97.4297392464
  0
LINE
  5
329
100
AcDbEntity
  8
DEF_LAYER_ASSEM_MEMBER
100
AcDbLine
 62
9
  6
CONTINUOUS
 10
45.9989589566
 20
97.4297392464
 11
106.4989589566
 21
97.4297392464
  0
LINE
  5
32A
100
AcDbEntity
  8
DEF_LAYER_ASSEM_MEMBER
100
AcDbLine
 62
7
  6
CONTINUOUS
 10
234.4009424321
 20
101.6797392464
 11
216.4009424321
 21
101.6797392464
  0
LINE
  5
32B
100
AcDbEntity
  8
DEF_LAYER_ASSEM_MEMBER
100
AcDbLine
 62
7
  6
CONTINUOUS
 10
85.2489589566
 20
101.6797392464
 11
67.2489589566
 21
101.6797392464
  0
LINE
  5
32C
100
AcDbEntity
  8
DEF_LAYER_ASSEM_MEMBER
100
AcDbLine
 62
7
  6
CONTINUOUS
 10
66.886191096
 20
103.1797392464
 11
79.1831460333
 21
103.1797392464
  0
LINE
  5
32D
100
AcDbEntity
  8
DEF_LAYER_ASSEM_MEMBER
100
AcDbLine
 62
7
  6
CONTINUOUS
 10
230.1536866909
 20
103.1797392464
 11
235.9009424321
 21
103.1797392464
  0
LINE
  5
32E
100
AcDbEntity
  8
DEF_LAYER_ASSEM_MEMBER
100
AcDbLine
 62
7
  6
CONTINUOUS
 10
159.4009424321
 20
136.1797392464
 11
159.4009424321
 21
118.1797392464
  0
LINE
  5
32F
100
AcDbEntity
  8
DEF_LAYER_ASSEM_MEMBER
100
AcDbLine
 62
7
  6
CONTINUOUS
 10
169.9895614424
 20
137.6680345633
 11
169.2092328153
 21
136.3181954775
  0
LINE
  5
330
100
AcDbEntity
  8
DEF_LAYER_ASSEM_MEMBER
100
AcDbLine
 62
7
  6
CONTINUOUS
 10
171.7895614424
 20
137.6680345633
 11
171.0092328153
 21
136.3181954775
  0
LINE
  5
331
100
AcDbEntity
  8
DEF_LAYER_ASSEM_MEMBER
100
AcDbLine
 62
7
  6
CONTINUOUS
 10
173.5895614424
 20
137.6680345633
 11
172.8092328153
 21
136.3181954775
  0
LINE
  5
332
100
AcDbEntity
  8
DEF_LAYER_ASSEM_MEMBER
100
AcDbLine
 62
7
  6
CONTINUOUS
 10
162.1289041746
 20
116.691443928
 11
162.9092328153
 21
118.0412830154
  0
LINE
  5
333
100
AcDbEntity
  8
DEF_LAYER_ASSEM_MEMBER
100
AcDbLine
 62
7
  6
CONTINUOUS
 10
175.3895614424
 20
137.6680345633
 11
174.6092328153
 21
136.3181954775
  0
LINE
  5
334
100
AcDbEntity
  8
DEF_LAYER_ASSEM_MEMBER
100
AcDbLine
 62
7
  6
CONTINUOUS
 10
163.9289041746
 20
116.691443928
 11
164.7092328153
 21
118.0412830154
  0
LINE
  5
335
100
AcDbEntity
  8
DEF_LAYER_ASSEM_MEMBER
100
AcDbLine
 62
7
  6
CONTINUOUS
 10
177.1895614424
 20
137.6680345633
 11
176.4092328153
 21
136.3181954775
  0
LINE
  5
336
100
AcDbEntity
  8
DEF_LAYER_ASSEM_MEMBER
100
AcDbLine
 62
7
  6
CONTINUOUS
 10
165.7289041746
 20
116.691443928
 11
166.5092328153
 21
118.0412830154
  0
LINE
  5
337
100
AcDbEntity
  8
DEF_LAYER_ASSEM_MEMBER
100
AcDbLine
 62
7
  6
CONTINUOUS
 10
178.9895614424
 20
137.6680345633
 11
178.2092328153
 21
136.3181954775
  0
LINE
  5
338
100
AcDbEntity
  8
DEF_LAYER_ASSEM_MEMBER
100
AcDbLine
 62
7
  6
CONTINUOUS
 10
167.5289041746
 20
116.691443928
 11
168.3092328153
 21
118.0412830154
  0
LINE
  5
339
100
AcDbEntity
  8
DEF_LAYER_ASSEM_MEMBER
100
AcDbLine
 62
7
  6
CONTINUOUS
 10
180.7895614424
 20
137.6680345633
 11
180.0092328153
 21
136.3181954775
  0
LINE
  5
33A
100
AcDbEntity
  8
DEF_LAYER_ASSEM_MEMBER
100
AcDbLine
 62
7
  6
CONTINUOUS
 10
160.5385907792
 20
117.0542124771
 11
161.1092328153
 21
118.0412830154
  0
LINE
  5
33B
100
AcDbEntity
  8
DEF_LAYER_ASSEM_MEMBER
100
AcDbLine
 62
7
  6
CONTINUOUS
 10
165.7289041746
 20
116.691443928
 11
165.7153761888
 21
116.6797392464
  0
LINE
  5
33C
100
AcDbEntity
  8
DEF_LAYER_ASSEM_MEMBER
100
AcDbLine
 62
7
  6
CONTINUOUS
 10
167.5289041746
 20
116.691443928
 11
167.5153761888
 21
116.6797392464
  0
LINE
  5
33D
100
AcDbEntity
  8
DEF_LAYER_ASSEM_MEMBER
100
AcDbLine
 62
7
  6
CONTINUOUS
 10
169.3289041746
 20
116.691443928
 11
169.3153761888
 21
116.6797392464
  0
LINE
  5
33E
100
AcDbEntity
  8
DEF_LAYER_ASSEM_MEMBER
100
AcDbLine
 62
7
  6
CONTINUOUS
 10
171.1289041746
 20
116.691443928
 11
171.1153761888
 21
116.6797392464
  0
LINE
  5
33F
100
AcDbEntity
  8
DEF_LAYER_ASSEM_MEMBER
100
AcDbLine
 62
7
  6
CONTINUOUS
 10
172.9289041746
 20
116.691443928
 11
172.9153761888
 21
116.6797392464
  0
LINE
  5
340
100
AcDbEntity
  8
DEF_LAYER_ASSEM_MEMBER
100
AcDbLine
 62
7
  6
CONTINUOUS
 10
174.7289041746
 20
116.691443928
 11
174.7153761888
 21
116.6797392464
  0
LINE
  5
341
100
AcDbEntity
  8
DEF_LAYER_ASSEM_MEMBER
100
AcDbLine
 62
7
  6
CONTINUOUS
 10
176.5289041746
 20
116.691443928
 11
176.5153761888
 21
116.6797392464
  0
LINE
  5
342
100
AcDbEntity
  8
DEF_LAYER_ASSEM_MEMBER
100
AcDbLine
 62
7
  6
CONTINUOUS
 10
178.3289041746
 20
116.691443928
 11
178.3153761888
 21
116.6797392464
  0
LINE
  5
343
100
AcDbEntity
  8
DEF_LAYER_ASSEM_MEMBER
100
AcDbLine
 62
7
  6
CONTINUOUS
 10
76.2489589566
 20
103.0038516584
 11
79.1831460333
 21
103.1797392464
  0
LINE
  5
344
100
AcDbEntity
  8
DEF_LAYER_ASSEM_MEMBER
100
AcDbLine
 62
7
  6
CONTINUOUS
 10
66.7900735838
 20
111.0797392464
 11
86.7487920892
 21
111.0797392464
  0
LINE
  5
345
100
AcDbEntity
  8
DEF_LAYER_ASSEM_MEMBER
100
AcDbLine
 62
7
  6
CONTINUOUS
 10
215.1079718811
 20
111.0797392464
 11
235.2889201844
 21
111.0797392464
  0
LINE
  5
346
100
AcDbEntity
  8
DEF_LAYER_ASSEM_MEMBER
100
AcDbLine
 62
7
  6
CONTINUOUS
 10
236.4009424321
 20
112.6797392464
 11
214.4009424321
 21
112.6797392464
  0
LINE
  5
347
100
AcDbEntity
  8
DEF_LAYER_ASSEM_MEMBER
100
AcDbLine
 62
7
  6
CONTINUOUS
 10
65.2489589566
 20
112.6797392464
 11
87.2489589566
 21
112.6797392464
  0
LINE
  5
348
100
AcDbEntity
  8
DEF_LAYER_ASSEM_MEMBER
100
AcDbLine
 62
9
  6
CONTINUOUS
 10
88.2489589566
 20
114.1797392464
 11
87.2489589566
 21
114.1797392464
  0
LINE
  5
349
100
AcDbEntity
  8
DEF_LAYER_ASSEM_MEMBER
100
AcDbLine
 62
9
  6
CONTINUOUS
 10
65.2489589566
 20
114.1797392464
 11
64.2489589566
 21
114.1797392464
  0
LINE
  5
34A
100
AcDbEntity
  8
DEF_LAYER_ASSEM_MEMBER
100
AcDbLine
 62
7
  6
CONTINUOUS
 10
241.2009424321
 20
114.6797392464
 11
191.4009424321
 21
114.6797392464
  0
LINE
  5
34B
100
AcDbEntity
  8
DEF_LAYER_ASSEM_MEMBER
100
AcDbLine
 62
7
  6
CONTINUOUS
 10
63.9489589566
 20
114.6797392464
 11
88.5489589566
 21
114.6797392464
  0
LINE
  5
34C
100
AcDbEntity
  8
DEF_LAYER_ASSEM_MEMBER
100
AcDbLine
 62
9
  6
CONTINUOUS
 10
241.4009424321
 20
114.8797392464
 11
191.4009424321
 21
114.8797392464
  0
LINE
  5
34D
100
AcDbEntity
  8
DEF_LAYER_ASSEM_MEMBER
100
AcDbLine
 62
9
  6
CONTINUOUS
 10
63.7489589566
 20
114.8797392464
 11
88.7489589566
 21
114.8797392464
  0
LINE
  5
34E
100
AcDbEntity
  8
DEF_LAYER_ASSEM_MEMBER
100
AcDbLine
 62
9
  6
CONTINUOUS
 10
89.2489589566
 20
115.1797392464
 11
88.7489589566
 21
115.1797392464
  0
LINE
  5
34F
100
AcDbEntity
  8
DEF_LAYER_ASSEM_MEMBER
100
AcDbLine
 62
9
  6
CONTINUOUS
 10
63.2489589566
 20
115.1797392464
 11
63.7489589566
 21
115.1797392464
  0
LINE
  5
350
100
AcDbEntity
  8
DEF_LAYER_ASSEM_MEMBER
100
AcDbLine
 62
7
  6
CONTINUOUS
 10
183.7153761888
 20
116.6797392464
 11
183.5030894291
 21
116.6797392464
  0
LINE
  5
351
100
AcDbEntity
  8
DEF_LAYER_ASSEM_MEMBER
100
AcDbLine
 62
7
  6
CONTINUOUS
 10
181.9153761888
 20
116.6797392464
 11
181.7030894291
 21
116.6797392464
  0
LINE
  5
352
100
AcDbEntity
  8
DEF_LAYER_ASSEM_MEMBER
100
AcDbLine
 62
7
  6
CONTINUOUS
 10
180.1153761888
 20
116.6797392464
 11
179.9030894291
 21
116.6797392464
  0
LINE
  5
353
100
AcDbEntity
  8
DEF_LAYER_ASSEM_MEMBER
100
AcDbLine
 62
7
  6
CONTINUOUS
 10
178.3153761888
 20
116.6797392464
 11
178.1030894291
 21
116.6797392464
  0
LINE
  5
354
100
AcDbEntity
  8
DEF_LAYER_ASSEM_MEMBER
100
AcDbLine
 62
7
  6
CONTINUOUS
 10
176.5153761888
 20
116.6797392464
 11
176.3030894291
 21
116.6797392464
  0
LINE
  5
355
100
AcDbEntity
  8
DEF_LAYER_ASSEM_MEMBER
100
AcDbLine
 62
7
  6
CONTINUOUS
 10
174.7153761888
 20
116.6797392464
 11
174.5030894291
 21
116.6797392464
  0
LINE
  5
356
100
AcDbEntity
  8
DEF_LAYER_ASSEM_MEMBER
100
AcDbLine
 62
7
  6
CONTINUOUS
 10
172.9153761888
 20
116.6797392464
 11
172.7030894291
 21
116.6797392464
  0
LINE
  5
357
100
AcDbEntity
  8
DEF_LAYER_ASSEM_MEMBER
100
AcDbLine
 62
7
  6
CONTINUOUS
 10
171.1153761888
 20
116.6797392464
 11
170.9030894291
 21
116.6797392464
  0
LINE
  5
358
100
AcDbEntity
  8
DEF_LAYER_ASSEM_MEMBER
100
AcDbLine
 62
7
  6
CONTINUOUS
 10
169.3153761888
 20
116.6797392464
 11
169.1030894291
 21
116.6797392464
  0
LINE
  5
359
100
AcDbEntity
  8
DEF_LAYER_ASSEM_MEMBER
100
AcDbLine
 62
7
  6
CONTINUOUS
 10
167.5153761888
 20
116.6797392464
 11
167.3030894291
 21
116.6797392464
  0
LINE
  5
35A
100
AcDbEntity
  8
DEF_LAYER_ASSEM_MEMBER
100
AcDbLine
 62
7
  6
CONTINUOUS
 10
165.7153761888
 20
116.6797392464
 11
165.5030894291
 21
116.6797392464
  0
LINE
  5
35B
100
AcDbEntity
  8
DEF_LAYER_ASSEM_MEMBER
100
AcDbLine
 62
7
  6
CONTINUOUS
 10
163.9153761888
 20
116.6797392464
 11
163.7030894291
 21
116.6797392464
  0
LINE
  5
35C
100
AcDbEntity
  8
DEF_LAYER_ASSEM_MEMBER
100
AcDbLine
 62
7
  6
CONTINUOUS
 10
162.1153761888
 20
116.6797392464
 11
161.9030894291
 21
116.6797392464
  0
LINE
  5
35D
100
AcDbEntity
  8
DEF_LAYER_ASSEM_MEMBER
100
AcDbLine
 62
7
  6
CONTINUOUS
 10
169.3289041746
 20
116.691443928
 11
170.1092328153
 21
118.0412830154
  0
LINE
  5
35E
100
AcDbEntity
  8
DEF_LAYER_ASSEM_MEMBER
100
AcDbLine
 62
7
  6
CONTINUOUS
 10
182.5895614424
 20
137.6680345633
 11
181.8092328153
 21
136.3181954775
  0
LINE
  5
35F
100
AcDbEntity
  8
DEF_LAYER_ASSEM_MEMBER
100
AcDbLine
 62
7
  6
CONTINUOUS
 10
171.1289041746
 20
116.691443928
 11
171.9092328153
 21
118.0412830154
  0
LINE
  5
360
100
AcDbEntity
  8
DEF_LAYER_ASSEM_MEMBER
100
AcDbLine
 62
7
  6
CONTINUOUS
 10
184.3895614424
 20
137.6680345633
 11
183.6092328153
 21
136.3181954775
  0
LINE
  5
361
100
AcDbEntity
  8
DEF_LAYER_ASSEM_MEMBER
100
AcDbLine
 62
7
  6
CONTINUOUS
 10
172.9289041746
 20
116.691443928
 11
173.7092328153
 21
118.0412830154
  0
LINE
  5
362
100
AcDbEntity
  8
DEF_LAYER_ASSEM_MEMBER
100
AcDbLine
 62
7
  6
CONTINUOUS
 10
174.7289041746
 20
116.691443928
 11
175.5092328153
 21
118.0412830154
  0
LINE
  5
363
100
AcDbEntity
  8
DEF_LAYER_ASSEM_MEMBER
100
AcDbLine
 62
7
  6
CONTINUOUS
 10
176.5289041746
 20
116.691443928
 11
177.3092328153
 21
118.0412830154
  0
LINE
  5
364
100
AcDbEntity
  8
DEF_LAYER_ASSEM_MEMBER
100
AcDbLine
 62
7
  6
CONTINUOUS
 10
178.3289041746
 20
116.691443928
 11
179.1092328153
 21
118.0412830154
  0
LINE
  5
365
100
AcDbEntity
  8
DEF_LAYER_ASSEM_MEMBER
100
AcDbLine
 62
7
  6
CONTINUOUS
 10
180.1289041746
 20
116.691443928
 11
180.9092328153
 21
118.0412830154
  0
LINE
  5
366
100
AcDbEntity
  8
DEF_LAYER_ASSEM_MEMBER
100
AcDbLine
 62
7
  6
CONTINUOUS
 10
180.1289041746
 20
116.691443928
 11
180.1153761888
 21
116.6797392464
  0
LINE
  5
367
100
AcDbEntity
  8
DEF_LAYER_ASSEM_MEMBER
100
AcDbLine
 62
7
  6
CONTINUOUS
 10
181.9289041746
 20
116.691443928
 11
181.9153761888
 21
116.6797392464
  0
LINE
  5
368
100
AcDbEntity
  8
DEF_LAYER_ASSEM_MEMBER
100
AcDbLine
 62
7
  6
CONTINUOUS
 10
183.7289041746
 20
116.691443928
 11
183.7153761888
 21
116.6797392464
  0
LINE
  5
369
100
AcDbEntity
  8
DEF_LAYER_ASSEM_MEMBER
100
AcDbLine
 62
7
  6
CONTINUOUS
 10
161.9030894291
 20
116.6797392464
 11
161.8895614424
 21
116.6914439296
  0
LINE
  5
36A
100
AcDbEntity
  8
DEF_LAYER_ASSEM_MEMBER
100
AcDbLine
 62
7
  6
CONTINUOUS
 10
163.6895614424
 20
116.6914439296
 11
163.7030894291
 21
116.6797392464
  0
LINE
  5
36B
100
AcDbEntity
  8
DEF_LAYER_ASSEM_MEMBER
100
AcDbLine
 62
7
  6
CONTINUOUS
 10
165.4895614424
 20
116.6914439296
 11
165.5030894291
 21
116.6797392464
  0
LINE
  5
36C
100
AcDbEntity
  8
DEF_LAYER_ASSEM_MEMBER
100
AcDbLine
 62
7
  6
CONTINUOUS
 10
167.2895614424
 20
116.6914439296
 11
167.3030894291
 21
116.6797392464
  0
LINE
  5
36D
100
AcDbEntity
  8
DEF_LAYER_ASSEM_MEMBER
100
AcDbLine
 62
7
  6
CONTINUOUS
 10
159.4009424321
 20
118.1797392464
 11
160.5297083094
 21
117.0509733691
  0
LINE
  5
36E
100
AcDbEntity
  8
DEF_LAYER_ASSEM_MEMBER
100
AcDbLine
 62
7
  6
CONTINUOUS
 10
161.0936701032
 20
118.0682003606
 11
161.8895614424
 21
116.6914439296
  0
LINE
  5
36F
100
AcDbEntity
  8
DEF_LAYER_ASSEM_MEMBER
100
AcDbLine
 62
7
  6
CONTINUOUS
 10
162.8936701032
 20
118.0682003606
 11
163.6895614424
 21
116.6914439296
  0
LINE
  5
370
100
AcDbEntity
  8
DEF_LAYER_ASSEM_MEMBER
100
AcDbLine
 62
7
  6
CONTINUOUS
 10
164.6936701032
 20
118.0682003606
 11
165.4895614424
 21
116.6914439296
  0
LINE
  5
371
100
AcDbEntity
  8
DEF_LAYER_ASSEM_MEMBER
100
AcDbLine
 62
7
  6
CONTINUOUS
 10
181.9289041746
 20
116.691443928
 11
182.7092328153
 21
118.0412830154
  0
LINE
  5
372
100
AcDbEntity
  8
DEF_LAYER_ASSEM_MEMBER
100
AcDbLine
 62
7
  6
CONTINUOUS
 10
183.7289041746
 20
116.691443928
 11
184.4009424321
 21
117.8539832699
  0
LINE
  5
373
100
AcDbEntity
  8
DEF_LAYER_ASSEM_MEMBER
100
AcDbLine
 62
7
  6
CONTINUOUS
 10
216.1265162149
 20
110.5589185432
 11
214.9111822296
 21
109.8078255667
  0
LINE
  5
374
100
AcDbEntity
  8
DEF_LAYER_ASSEM_MEMBER
100
AcDbLine
 62
7
  6
CONTINUOUS
 10
216.1265162149
 20
108.7589185432
 11
214.9111822296
 21
108.0078255667
  0
LINE
  5
375
100
AcDbEntity
  8
DEF_LAYER_AXIS
100
AcDbLine
 62
7
  6
CENTER
 10
110.4989589566
 20
127.1797392464
 11
41.9989589566
 21
127.1797392464
  0
LINE
  5
376
100
AcDbEntity
  8
DEF_LAYER_AXIS
100
AcDbLine
 62
7
  6
CENTER
 10
155.2081916491
 20
127.1797392464
 11
245.4009424321
 21
127.1797392464
  0
LINE
  5
377
100
AcDbEntity
  8
DEF_LAYER_ASSEM_MEMBER
100
AcDbLine
 62
7
  6
CONTINUOUS
 10
214.9143832689
 20
103.9841066043
 11
216.1016882318
 21
103.3435730042
  0
LINE
  5
378
100
AcDbEntity
  8
DEF_LAYER_ASSEM_MEMBER
100
AcDbLine
 62
7
  6
CONTINUOUS
 10
214.9143832689
 20
105.7841066043
 11
216.1016882318
 21
105.1435730042
  0
LINE
  5
379
100
AcDbEntity
  8
DEF_LAYER_ASSEM_MEMBER
100
AcDbLine
 62
7
  6
CONTINUOUS
 10
169.0895614424
 20
116.6914439296
 11
169.1030894291
 21
116.6797392464
  0
LINE
  5
37A
100
AcDbEntity
  8
DEF_LAYER_ASSEM_MEMBER
100
AcDbLine
 62
7
  6
CONTINUOUS
 10
170.8895614424
 20
116.6914439296
 11
170.9030894291
 21
116.6797392464
  0
LINE
  5
37B
100
AcDbEntity
  8
DEF_LAYER_ASSEM_MEMBER
100
AcDbLine
 62
7
  6
CONTINUOUS
 10
172.6895614424
 20
116.6914439296
 11
172.7030894291
 21
116.6797392464
  0
LINE
  5
37C
100
AcDbEntity
  8
DEF_LAYER_ASSEM_MEMBER
100
AcDbLine
 62
7
  6
CONTINUOUS
 10
174.4895614424
 20
116.6914439296
 11
174.5030894291
 21
116.6797392464
  0
LINE
  5
37D
100
AcDbEntity
  8
DEF_LAYER_ASSEM_MEMBER
100
AcDbLine
 62
7
  6
CONTINUOUS
 10
176.2895614424
 20
116.6914439296
 11
176.3030894291
 21
116.6797392464
  0
LINE
  5
37E
100
AcDbEntity
  8
DEF_LAYER_ASSEM_MEMBER
100
AcDbLine
 62
7
  6
CONTINUOUS
 10
178.0895614424
 20
116.6914439296
 11
178.1030894291
 21
116.6797392464
  0
LINE
  5
37F
100
AcDbEntity
  8
DEF_LAYER_ASSEM_MEMBER
100
AcDbLine
 62
7
  6
CONTINUOUS
 10
179.8895614424
 20
116.6914439296
 11
179.9030894291
 21
116.6797392464
  0
LINE
  5
380
100
AcDbEntity
  8
DEF_LAYER_ASSEM_MEMBER
100
AcDbLine
 62
7
  6
CONTINUOUS
 10
181.6895614424
 20
116.6914439296
 11
181.7030894291
 21
116.6797392464
  0
LINE
  5
381
100
AcDbEntity
  8
DEF_LAYER_ASSEM_MEMBER
100
AcDbLine
 62
7
  6
CONTINUOUS
 10
183.4895614424
 20
116.6914439296
 11
183.5030894291
 21
116.6797392464
  0
LINE
  5
382
100
AcDbEntity
  8
DEF_LAYER_ASSEM_MEMBER
100
AcDbLine
 62
7
  6
CONTINUOUS
 10
166.4936701032
 20
118.0682003606
 11
167.2895614424
 21
116.6914439296
  0
LINE
  5
383
100
AcDbEntity
  8
DEF_LAYER_ASSEM_MEMBER
100
AcDbLine
 62
7
  6
CONTINUOUS
 10
168.2936701032
 20
118.0682003606
 11
169.0895614424
 21
116.6914439296
  0
LINE
  5
384
100
AcDbEntity
  8
DEF_LAYER_ASSEM_MEMBER
100
AcDbLine
 62
7
  6
CONTINUOUS
 10
170.0936701032
 20
118.0682003606
 11
170.8895614424
 21
116.6914439296
  0
LINE
  5
385
100
AcDbEntity
  8
DEF_LAYER_ASSEM_MEMBER
100
AcDbLine
 62
7
  6
CONTINUOUS
 10
160.2247955156
 20
136.2912781307
 11
159.9685419593
 21
136.7344977788
  0
LINE
  5
386
100
AcDbEntity
  8
DEF_LAYER_ASSEM_MEMBER
100
AcDbLine
 62
7
  6
CONTINUOUS
 10
171.8936701032
 20
118.0682003606
 11
172.6895614424
 21
116.6914439296
  0
LINE
  5
387
100
AcDbEntity
  8
DEF_LAYER_ASSEM_MEMBER
100
AcDbLine
 62
7
  6
CONTINUOUS
 10
162.0247955156
 20
136.2912781307
 11
161.2289041746
 21
137.6680345649
  0
LINE
  5
388
100
AcDbEntity
  8
DEF_LAYER_ASSEM_MEMBER
100
AcDbLine
 62
7
  6
CONTINUOUS
 10
173.6936701032
 20
118.0682003606
 11
174.4895614424
 21
116.6914439296
  0
LINE
  5
389
100
AcDbEntity
  8
DEF_LAYER_ASSEM_MEMBER
100
AcDbLine
 62
7
  6
CONTINUOUS
 10
163.8247955156
 20
136.2912781307
 11
163.0289041746
 21
137.6680345649
  0
LINE
  5
38A
100
AcDbEntity
  8
DEF_LAYER_ASSEM_MEMBER
100
AcDbLine
 62
7
  6
CONTINUOUS
 10
175.4936701032
 20
118.0682003606
 11
176.2895614424
 21
116.6914439296
  0
LINE
  5
38B
100
AcDbEntity
  8
DEF_LAYER_ASSEM_MEMBER
100
AcDbLine
 62
7
  6
CONTINUOUS
 10
165.6247955156
 20
136.2912781307
 11
164.8289041746
 21
137.6680345649
  0
LINE
  5
38C
100
AcDbEntity
  8
DEF_LAYER_ASSEM_MEMBER
100
AcDbLine
 62
7
  6
CONTINUOUS
 10
177.2936701032
 20
118.0682003606
 11
178.0895614424
 21
116.6914439296
  0
LINE
  5
38D
100
AcDbEntity
  8
DEF_LAYER_ASSEM_MEMBER
100
AcDbLine
 62
7
  6
CONTINUOUS
 10
167.4247955156
 20
136.2912781307
 11
166.6289041746
 21
137.6680345649
  0
LINE
  5
38E
100
AcDbEntity
  8
DEF_LAYER_ASSEM_MEMBER
100
AcDbLine
 62
7
  6
CONTINUOUS
 10
184.4009424321
 20
96.9297392464
 11
184.4009424321
 21
157.4297392464
  0
LINE
  5
38F
100
AcDbEntity
  8
DEF_LAYER_ASSEM_MEMBER
100
AcDbLine
 62
9
  6
CONTINUOUS
 10
190.9009424321
 20
157.4297392464
 11
190.9009424321
 21
96.9297392464
  0
LINE
  5
390
100
AcDbEntity
  8
DEF_LAYER_ASSEM_MEMBER
100
AcDbLine
 62
7
  6
CONTINUOUS
 10
216.1265162149
 20
103.3589185432
 11
215.264881115
 21
102.8263958692
  0
LINE
  5
391
100
AcDbEntity
  8
DEF_LAYER_ASSEM_MEMBER
100
AcDbLine
 62
7
  6
CONTINUOUS
 10
216.1265162149
 20
106.9589185432
 11
214.9111822296
 21
106.2078255667
  0
LINE
  5
392
100
AcDbEntity
  8
DEF_LAYER_ASSEM_MEMBER
100
AcDbLine
 62
7
  6
CONTINUOUS
 10
216.1265162149
 20
105.1589185432
 11
214.9111822296
 21
104.4078255667
  0
LINE
  5
393
100
AcDbEntity
  8
DEF_LAYER_ASSEM_MEMBER
100
AcDbLine
 62
7
  6
CONTINUOUS
 10
234.6717525296
 20
109.6282257785
 11
235.8875015953
 21
110.2841066043
  0
LINE
  5
394
100
AcDbEntity
  8
DEF_LAYER_ASSEM_MEMBER
100
AcDbLine
 62
7
  6
CONTINUOUS
 10
234.6717525296
 20
107.8282257785
 11
235.8875015953
 21
108.4841066043
  0
LINE
  5
395
100
AcDbEntity
  8
DEF_LAYER_ASSEM_MEMBER
100
AcDbLine
 62
7
  6
CONTINUOUS
 10
234.6717525296
 20
106.0282257785
 11
235.8875015953
 21
106.6841066043
  0
LINE
  5
396
100
AcDbEntity
  8
DEF_LAYER_ASSEM_MEMBER
100
AcDbLine
 62
7
  6
CONTINUOUS
 10
234.6717525296
 20
104.2282257785
 11
235.8875015953
 21
104.8841066043
  0
LINE
  5
397
100
AcDbEntity
  8
DEF_LAYER_ASSEM_MEMBER
100
AcDbLine
 62
7
  6
CONTINUOUS
 10
182.8153761888
 20
137.6797392464
 11
182.6030894291
 21
137.6797392464
  0
LINE
  5
398
100
AcDbEntity
  8
DEF_LAYER_ASSEM_MEMBER
100
AcDbLine
 62
7
  6
CONTINUOUS
 10
181.0153761888
 20
137.6797392464
 11
180.8030894291
 21
137.6797392464
  0
LINE
  5
399
100
AcDbEntity
  8
DEF_LAYER_ASSEM_MEMBER
100
AcDbLine
 62
7
  6
CONTINUOUS
 10
179.2153761888
 20
137.6797392464
 11
179.0030894291
 21
137.6797392464
  0
LINE
  5
39A
100
AcDbEntity
  8
DEF_LAYER_ASSEM_MEMBER
100
AcDbLine
 62
7
  6
CONTINUOUS
 10
177.4153761888
 20
137.6797392464
 11
177.2030894291
 21
137.6797392464
  0
LINE
  5
39B
100
AcDbEntity
  8
DEF_LAYER_ASSEM_MEMBER
100
AcDbLine
 62
7
  6
CONTINUOUS
 10
175.6153761888
 20
137.6797392464
 11
175.4030894291
 21
137.6797392464
  0
LINE
  5
39C
100
AcDbEntity
  8
DEF_LAYER_ASSEM_MEMBER
100
AcDbLine
 62
7
  6
CONTINUOUS
 10
173.8153761888
 20
137.6797392464
 11
173.6030894291
 21
137.6797392464
  0
LINE
  5
39D
100
AcDbEntity
  8
DEF_LAYER_ASSEM_MEMBER
100
AcDbLine
 62
7
  6
CONTINUOUS
 10
172.0153761888
 20
137.6797392464
 11
171.8030894291
 21
137.6797392464
  0
LINE
  5
39E
100
AcDbEntity
  8
DEF_LAYER_ASSEM_MEMBER
100
AcDbLine
 62
7
  6
CONTINUOUS
 10
170.2153761888
 20
137.6797392464
 11
170.0030894291
 21
137.6797392464
  0
LINE
  5
39F
100
AcDbEntity
  8
DEF_LAYER_ASSEM_MEMBER
100
AcDbLine
 62
7
  6
CONTINUOUS
 10
168.4153761888
 20
137.6797392464
 11
168.2030894291
 21
137.6797392464
  0
LINE
  5
3A0
100
AcDbEntity
  8
DEF_LAYER_ASSEM_MEMBER
100
AcDbLine
 62
7
  6
CONTINUOUS
 10
166.6153761888
 20
137.6797392464
 11
166.4030894291
 21
137.6797392464
  0
LINE
  5
3A1
100
AcDbEntity
  8
DEF_LAYER_ASSEM_MEMBER
100
AcDbLine
 62
7
  6
CONTINUOUS
 10
164.8153761888
 20
137.6797392464
 11
164.6030894291
 21
137.6797392464
  0
LINE
  5
3A2
100
AcDbEntity
  8
DEF_LAYER_ASSEM_MEMBER
100
AcDbLine
 62
7
  6
CONTINUOUS
 10
163.0153761888
 20
137.6797392464
 11
162.8030894291
 21
137.6797392464
  0
LINE
  5
3A3
100
AcDbEntity
  8
DEF_LAYER_ASSEM_MEMBER
100
AcDbLine
 62
7
  6
CONTINUOUS
 10
161.2153761888
 20
137.6797392464
 11
160.9009424321
 21
137.6797392464
  0
LINE
  5
3A4
100
AcDbEntity
  8
DEF_LAYER_ASSEM_MEMBER
100
AcDbLine
 62
9
  6
CONTINUOUS
 10
89.2489589566
 20
139.1797392464
 11
88.7489589566
 21
139.1797392464
  0
LINE
  5
3A5
100
AcDbEntity
  8
DEF_LAYER_ASSEM_MEMBER
100
AcDbLine
 62
9
  6
CONTINUOUS
 10
63.2489589566
 20
139.1797392464
 11
63.7489589566
 21
139.1797392464
  0
LINE
  5
3A6
100
AcDbEntity
  8
DEF_LAYER_ASSEM_MEMBER
100
AcDbLine
 62
9
  6
CONTINUOUS
 10
241.4009424321
 20
139.4797392464
 11
191.4009424321
 21
139.4797392464
  0
LINE
  5
3A7
100
AcDbEntity
  8
DEF_LAYER_ASSEM_MEMBER
100
AcDbLine
 62
9
  6
CONTINUOUS
 10
63.7489589566
 20
139.4797392464
 11
88.7489589566
 21
139.4797392464
  0
LINE
  5
3A8
100
AcDbEntity
  8
DEF_LAYER_ASSEM_MEMBER
100
AcDbLine
 62
7
  6
CONTINUOUS
 10
241.2009424321
 20
139.6797392464
 11
191.4009424321
 21
139.6797392464
  0
LINE
  5
3A9
100
AcDbEntity
  8
DEF_LAYER_ASSEM_MEMBER
100
AcDbLine
 62
7
  6
CONTINUOUS
 10
88.5489589566
 20
139.6797392464
 11
63.9489589566
 21
139.6797392464
  0
LINE
  5
3AA
100
AcDbEntity
  8
DEF_LAYER_ASSEM_MEMBER
100
AcDbLine
 62
9
  6
CONTINUOUS
 10
64.2489589566
 20
140.1797392464
 11
88.2489589566
 21
140.1797392464
  0
LINE
  5
3AB
100
AcDbEntity
  8
DEF_LAYER_ASSEM_MEMBER
100
AcDbLine
 62
7
  6
CONTINUOUS
 10
159.9685419593
 20
136.7344977788
 11
159.9591311729
 21
136.7379279872
  0
LINE
  5
3AC
100
AcDbEntity
  8
DEF_LAYER_ASSEM_MEMBER
100
AcDbLine
 62
7
  6
CONTINUOUS
 10
214.9143832689
 20
107.5841066043
 11
216.1016882318
 21
106.9435730042
  0
LINE
  5
3AD
100
AcDbEntity
  8
DEF_LAYER_ASSEM_MEMBER
100
AcDbLine
 62
7
  6
CONTINUOUS
 10
214.9143832689
 20
109.3841066043
 11
216.1016882318
 21
108.7435730042
  0
LINE
  5
3AE
100
AcDbEntity
  8
DEF_LAYER_ASSEM_MEMBER
100
AcDbLine
 62
7
  6
CONTINUOUS
 10
215.1078676471
 20
111.0797392464
 11
216.1016882318
 21
110.5435730042
  0
LINE
  5
3AF
100
AcDbEntity
  8
DEF_LAYER_ASSEM_MEMBER
100
AcDbLine
 62
7
  6
CONTINUOUS
 10
161.2153761888
 20
137.6797392464
 11
161.2289041746
 21
137.6680345649
  0
LINE
  5
3B0
100
AcDbEntity
  8
DEF_LAYER_ASSEM_MEMBER
100
AcDbLine
 62
7
  6
CONTINUOUS
 10
163.0289041746
 20
137.6680345649
 11
163.0153761888
 21
137.6797392464
  0
LINE
  5
3B1
100
AcDbEntity
  8
DEF_LAYER_ASSEM_MEMBER
100
AcDbLine
 62
7
  6
CONTINUOUS
 10
164.8289041746
 20
137.6680345649
 11
164.8153761888
 21
137.6797392464
  0
LINE
  5
3B2
100
AcDbEntity
  8
DEF_LAYER_ASSEM_MEMBER
100
AcDbLine
 62
7
  6
CONTINUOUS
 10
166.6289041746
 20
137.6680345649
 11
166.6153761888
 21
137.6797392464
  0
LINE
  5
3B3
100
AcDbEntity
  8
DEF_LAYER_ASSEM_MEMBER
100
AcDbLine
 62
7
  6
CONTINUOUS
 10
168.4289041746
 20
137.6680345649
 11
168.4153761888
 21
137.6797392464
  0
LINE
  5
3B4
100
AcDbEntity
  8
DEF_LAYER_ASSEM_MEMBER
100
AcDbLine
 62
7
  6
CONTINUOUS
 10
170.2289041746
 20
137.6680345649
 11
170.2153761888
 21
137.6797392464
  0
LINE
  5
3B5
100
AcDbEntity
  8
DEF_LAYER_ASSEM_MEMBER
100
AcDbLine
 62
7
  6
CONTINUOUS
 10
172.0289041746
 20
137.6680345649
 11
172.0153761888
 21
137.6797392464
  0
LINE
  5
3B6
100
AcDbEntity
  8
DEF_LAYER_ASSEM_MEMBER
100
AcDbLine
 62
7
  6
CONTINUOUS
 10
173.8289041746
 20
137.6680345649
 11
173.8153761888
 21
137.6797392464
  0
LINE
  5
3B7
100
AcDbEntity
  8
DEF_LAYER_ASSEM_MEMBER
100
AcDbLine
 62
7
  6
CONTINUOUS
 10
175.6289041746
 20
137.6680345649
 11
175.6153761888
 21
137.6797392464
  0
LINE
  5
3B8
100
AcDbEntity
  8
DEF_LAYER_ASSEM_MEMBER
100
AcDbLine
 62
7
  6
CONTINUOUS
 10
179.0936701032
 20
118.0682003606
 11
179.8895614424
 21
116.6914439296
  0
LINE
  5
3B9
100
AcDbEntity
  8
DEF_LAYER_ASSEM_MEMBER
100
AcDbLine
 62
7
  6
CONTINUOUS
 10
169.2247955156
 20
136.2912781307
 11
168.4289041746
 21
137.6680345649
  0
LINE
  5
3BA
100
AcDbEntity
  8
DEF_LAYER_ASSEM_MEMBER
100
AcDbLine
 62
7
  6
CONTINUOUS
 10
180.8936701032
 20
118.0682003606
 11
181.6895614424
 21
116.6914439296
  0
LINE
  5
3BB
100
AcDbEntity
  8
DEF_LAYER_ASSEM_MEMBER
100
AcDbLine
 62
7
  6
CONTINUOUS
 10
171.0247955156
 20
136.2912781307
 11
170.2289041746
 21
137.6680345649
  0
LINE
  5
3BC
100
AcDbEntity
  8
DEF_LAYER_ASSEM_MEMBER
100
AcDbLine
 62
7
  6
CONTINUOUS
 10
182.6936701032
 20
118.0682003606
 11
183.4895614424
 21
116.6914439296
  0
LINE
  5
3BD
100
AcDbEntity
  8
DEF_LAYER_ASSEM_MEMBER
100
AcDbLine
 62
7
  6
CONTINUOUS
 10
172.8247955156
 20
136.2912781307
 11
172.0289041746
 21
137.6680345649
  0
LINE
  5
3BE
100
AcDbEntity
  8
DEF_LAYER_ASSEM_MEMBER
100
AcDbLine
 62
7
  6
CONTINUOUS
 10
174.6247955156
 20
136.2912781307
 11
173.8289041746
 21
137.6680345649
  0
LINE
  5
3BF
100
AcDbEntity
  8
DEF_LAYER_ASSEM_MEMBER
100
AcDbLine
 62
7
  6
CONTINUOUS
 10
176.4247955156
 20
136.2912781307
 11
175.6289041746
 21
137.6680345649
  0
LINE
  5
3C0
100
AcDbEntity
  8
DEF_LAYER_ASSEM_MEMBER
100
AcDbLine
 62
7
  6
CONTINUOUS
 10
178.2247955156
 20
136.2912781307
 11
177.4289041746
 21
137.6680345649
  0
LINE
  5
3C1
100
AcDbEntity
  8
DEF_LAYER_ASSEM_MEMBER
100
AcDbLine
 62
7
  6
CONTINUOUS
 10
191.4009424321
 20
156.9297392464
 11
191.4009424321
 21
97.4297392464
  0
LINE
  5
3C2
100
AcDbEntity
  8
DEF_LAYER_ASSEM_MEMBER
100
AcDbLine
 62
7
  6
CONTINUOUS
 10
214.9009424321
 20
109.7951725532
 11
214.9111822296
 21
109.8078255667
  0
LINE
  5
3C3
100
AcDbEntity
  8
DEF_LAYER_ASSEM_MEMBER
100
AcDbLine
 62
7
  6
CONTINUOUS
 10
214.9111822296
 20
108.0078255667
 11
214.9009424321
 21
107.9951725532
  0
LINE
  5
3C4
100
AcDbEntity
  8
DEF_LAYER_ASSEM_MEMBER
100
AcDbLine
 62
7
  6
CONTINUOUS
 10
214.9111822296
 20
106.2078255667
 11
214.9009424321
 21
106.1951725532
  0
LINE
  5
3C5
100
AcDbEntity
  8
DEF_LAYER_ASSEM_MEMBER
100
AcDbLine
 62
7
  6
CONTINUOUS
 10
214.9111822296
 20
104.4078255667
 11
214.9009424321
 21
104.3951725532
  0
LINE
  5
3C6
100
AcDbEntity
  8
DEF_LAYER_ASSEM_MEMBER
100
AcDbLine
 62
9
  6
CONTINUOUS
 10
191.4009424321
 20
156.9297392464
 11
184.4009424321
 21
156.9297392464
  0
LINE
  5
3C7
100
AcDbEntity
  8
DEF_LAYER_ASSEM_MEMBER
100
AcDbLine
 62
9
  6
CONTINUOUS
 10
45.9989589566
 20
156.9297392464
 11
106.4989589566
 21
156.9297392464
  0
LINE
  5
3C8
100
AcDbEntity
  8
DEF_LAYER_ASSEM_MEMBER
100
AcDbLine
 62
7
  6
CONTINUOUS
 10
190.9009424321
 20
157.4297392464
 11
184.4009424321
 21
157.4297392464
  0
LINE
  5
3C9
100
AcDbEntity
  8
DEF_LAYER_ASSEM_MEMBER
100
AcDbLine
 62
7
  6
CONTINUOUS
 10
105.9989589566
 20
157.4297392464
 11
46.4989589566
 21
157.4297392464
  0
LINE
  5
3CA
100
AcDbEntity
  8
DEF_LAYER_ASSEM_MEMBER
100
AcDbLine
 62
7
  6
CONTINUOUS
 10
235.8907026346
 20
103.5078255667
 11
234.7001966324
 21
104.2435730042
  0
LINE
  5
3CB
100
AcDbEntity
  8
DEF_LAYER_ASSEM_MEMBER
100
AcDbLine
 62
7
  6
CONTINUOUS
 10
235.8907026346
 20
105.3078255667
 11
234.7001966324
 21
106.0435730042
  0
LINE
  5
3CC
100
AcDbEntity
  8
DEF_LAYER_ASSEM_MEMBER
100
AcDbLine
 62
7
  6
CONTINUOUS
 10
235.8907026346
 20
107.1078255667
 11
234.7001966324
 21
107.8435730042
  0
LINE
  5
3CD
100
AcDbEntity
  8
DEF_LAYER_ASSEM_MEMBER
100
AcDbLine
 62
7
  6
CONTINUOUS
 10
235.8907026346
 20
108.9078255667
 11
234.7001966324
 21
109.6435730042
  0
LINE
  5
3CE
100
AcDbEntity
  8
DEF_LAYER_ASSEM_MEMBER
100
AcDbLine
 62
7
  6
CONTINUOUS
 10
235.8907026346
 20
110.7078255667
 11
235.2888727873
 21
111.0797392464
  0
LINE
  5
3CF
100
AcDbEntity
  8
DEF_LAYER_ASSEM_MEMBER
100
AcDbLine
 62
7
  6
CONTINUOUS
 10
177.4289041746
 20
137.6680345649
 11
177.4153761888
 21
137.6797392464
  0
LINE
  5
3D0
100
AcDbEntity
  8
DEF_LAYER_ASSEM_MEMBER
100
AcDbLine
 62
7
  6
CONTINUOUS
 10
179.2289041746
 20
137.6680345649
 11
179.2153761888
 21
137.6797392464
  0
LINE
  5
3D1
100
AcDbEntity
  8
DEF_LAYER_ASSEM_MEMBER
100
AcDbLine
 62
7
  6
CONTINUOUS
 10
181.0289041746
 20
137.6680345649
 11
181.0153761888
 21
137.6797392464
  0
LINE
  5
3D2
100
AcDbEntity
  8
DEF_LAYER_ASSEM_MEMBER
100
AcDbLine
 62
7
  6
CONTINUOUS
 10
182.8289041746
 20
137.6680345649
 11
182.8153761888
 21
137.6797392464
  0
LINE
  5
3D3
100
AcDbEntity
  8
DEF_LAYER_ASSEM_MEMBER
100
AcDbLine
 62
7
  6
CONTINUOUS
 10
216.4009424323
 20
101.6797392462
 11
215.2623812678
 21
102.8183004107
  0
LINE
  5
3D4
100
AcDbEntity
  8
DEF_LAYER_ASSEM_MEMBER
100
AcDbLine
 62
7
  6
CONTINUOUS
 10
214.9143832689
 20
103.9841066043
 11
214.9009424321
 21
103.9986034154
  0
LINE
  5
3D5
100
AcDbEntity
  8
DEF_LAYER_ASSEM_MEMBER
100
AcDbLine
 62
7
  6
CONTINUOUS
 10
214.9143832689
 20
105.7841066043
 11
214.9009424321
 21
105.7986034154
  0
LINE
  5
3D6
100
AcDbEntity
  8
DEF_LAYER_ASSEM_MEMBER
100
AcDbLine
 62
7
  6
CONTINUOUS
 10
214.9143832689
 20
107.5841066043
 11
214.9009424321
 21
107.5986034154
  0
LINE
  5
3D7
100
AcDbEntity
  8
DEF_LAYER_ASSEM_MEMBER
100
AcDbLine
 62
7
  6
CONTINUOUS
 10
214.9143832689
 20
109.3841066043
 11
214.9009424321
 21
109.3986034154
  0
LINE
  5
3D8
100
AcDbEntity
  8
DEF_LAYER_ASSEM_MEMBER
100
AcDbLine
 62
7
  6
CONTINUOUS
 10
180.0247955156
 20
136.2912781307
 11
179.2289041746
 21
137.6680345649
  0
LINE
  5
3D9
100
AcDbEntity
  8
DEF_LAYER_ASSEM_MEMBER
100
AcDbLine
 62
7
  6
CONTINUOUS
 10
181.8247955156
 20
136.2912781307
 11
181.0289041746
 21
137.6680345649
  0
LINE
  5
3DA
100
AcDbEntity
  8
DEF_LAYER_ASSEM_MEMBER
100
AcDbLine
 62
7
  6
CONTINUOUS
 10
183.6247955156
 20
136.2912781307
 11
182.8289041746
 21
137.6680345649
  0
LINE
  5
3DB
100
AcDbEntity
  8
DEF_LAYER_ASSEM_MEMBER
100
AcDbLine
 62
7
  6
CONTINUOUS
 10
235.9009424321
 20
110.2986034154
 11
235.8875015953
 21
110.2841066043
  0
LINE
  5
3DC
100
AcDbEntity
  8
DEF_LAYER_ASSEM_MEMBER
100
AcDbLine
 62
7
  6
CONTINUOUS
 10
235.8875015953
 20
108.4841066043
 11
235.9009424321
 21
108.4986034154
  0
LINE
  5
3DD
100
AcDbEntity
  8
DEF_LAYER_ASSEM_MEMBER
100
AcDbLine
 62
7
  6
CONTINUOUS
 10
235.8875015953
 20
106.6841066043
 11
235.9009424321
 21
106.6986034154
  0
LINE
  5
3DE
100
AcDbEntity
  8
DEF_LAYER_ASSEM_MEMBER
100
AcDbLine
 62
7
  6
CONTINUOUS
 10
234.4009424319
 20
101.6797392462
 11
235.9009424321
 21
103.1797392464
  0
LINE
  5
3DF
100
AcDbEntity
  8
DEF_LAYER_ASSEM_MEMBER
100
AcDbLine
 62
7
  6
CONTINUOUS
 10
214.4009424321
 20
114.6797392464
 11
214.4009424321
 21
112.6797392464
  0
LINE
  5
3E0
100
AcDbEntity
  8
DEF_LAYER_ASSEM_MEMBER
100
AcDbLine
 62
7
  6
CONTINUOUS
 10
214.9009424321
 20
109.7951725532
 11
214.9009424321
 21
109.3986034154
  0
LINE
  5
3E1
100
AcDbEntity
  8
DEF_LAYER_ASSEM_MEMBER
100
AcDbLine
 62
7
  6
CONTINUOUS
 10
214.9009424321
 20
107.9951725532
 11
214.9009424321
 21
107.5986034154
  0
LINE
  5
3E2
100
AcDbEntity
  8
DEF_LAYER_ASSEM_MEMBER
100
AcDbLine
 62
7
  6
CONTINUOUS
 10
214.9009424321
 20
106.1951725532
 11
214.9009424321
 21
105.7986034154
  0
LINE
  5
3E3
100
AcDbEntity
  8
DEF_LAYER_ASSEM_MEMBER
100
AcDbLine
 62
7
  6
CONTINUOUS
 10
214.9009424321
 20
104.3951725532
 11
214.9009424321
 21
103.9986034154
  0
LINE
  5
3E4
100
AcDbEntity
  8
DEF_LAYER_ASSEM_MEMBER
100
AcDbLine
 62
7
  6
CONTINUOUS
 10
216.4009424321
 20
112.6797392464
 11
216.4009424321
 21
111.0797392464
  0
LINE
  5
3E5
100
AcDbEntity
  8
DEF_LAYER_ASSEM_MEMBER
100
AcDbLine
 62
7
  6
CONTINUOUS
 10
215.264881115
 20
102.8263958692
 11
215.2623812678
 21
102.8183004107
  0
LINE
  5
3E6
100
AcDbEntity
  8
DEF_LAYER_ASSEM_MEMBER
100
AcDbLine
 62
7
  6
CONTINUOUS
 10
235.8875015953
 20
104.8841066043
 11
235.9009424321
 21
104.8986034154
  0
LINE
  5
3E7
100
AcDbEntity
  8
DEF_LAYER_ASSEM_MEMBER
100
AcDbLine
 62
7
  6
CONTINUOUS
 10
235.9009424321
 20
103.4951725532
 11
235.8907026346
 21
103.5078255667
  0
LINE
  5
3E8
100
AcDbEntity
  8
DEF_LAYER_ASSEM_MEMBER
100
AcDbLine
 62
7
  6
CONTINUOUS
 10
235.8907026346
 20
105.3078255667
 11
235.9009424321
 21
105.2951725532
  0
LINE
  5
3E9
100
AcDbEntity
  8
DEF_LAYER_ASSEM_MEMBER
100
AcDbLine
 62
7
  6
CONTINUOUS
 10
235.8907026346
 20
107.1078255667
 11
235.9009424321
 21
107.0951725532
  0
LINE
  5
3EA
100
AcDbEntity
  8
DEF_LAYER_ASSEM_MEMBER
100
AcDbLine
 62
7
  6
CONTINUOUS
 10
235.8907026346
 20
108.9078255667
 11
235.9009424321
 21
108.8951725532
  0
LINE
  5
3EB
100
AcDbEntity
  8
DEF_LAYER_ASSEM_MEMBER
100
AcDbLine
 62
7
  6
CONTINUOUS
 10
235.9009424321
 20
110.6951725532
 11
235.8907026346
 21
110.7078255667
  0
LINE
  5
3EC
100
AcDbEntity
  8
DEF_LAYER_AXIS
100
AcDbLine
 62
7
  6
CENTER
 10
225.4009424321
 20
97.6797392464
 11
225.4009424321
 21
116.1252506307
  0
LINE
  5
3ED
100
AcDbEntity
  8
DEF_LAYER_ASSEM_MEMBER
100
AcDbLine
 62
7
  6
CONTINUOUS
 10
234.4009424321
 20
112.6797392464
 11
234.4009424321
 21
111.0797392464
  0
LINE
  5
3EE
100
AcDbEntity
  8
DEF_LAYER_ASSEM_MEMBER
100
AcDbLine
 62
7
  6
CONTINUOUS
 10
235.9009424321
 20
110.6951725532
 11
235.9009424321
 21
110.2986034154
  0
LINE
  5
3EF
100
AcDbEntity
  8
DEF_LAYER_ASSEM_MEMBER
100
AcDbLine
 62
7
  6
CONTINUOUS
 10
235.9009424321
 20
108.8951725532
 11
235.9009424321
 21
108.4986034154
  0
LINE
  5
3F0
100
AcDbEntity
  8
DEF_LAYER_ASSEM_MEMBER
100
AcDbLine
 62
7
  6
CONTINUOUS
 10
235.9009424321
 20
107.0951725532
 11
235.9009424321
 21
106.6986034154
  0
LINE
  5
3F1
100
AcDbEntity
  8
DEF_LAYER_ASSEM_MEMBER
100
AcDbLine
 62
7
  6
CONTINUOUS
 10
235.9009424321
 20
105.2951725532
 11
235.9009424321
 21
104.8986034154
  0
LINE
  5
3F2
100
AcDbEntity
  8
DEF_LAYER_ASSEM_MEMBER
100
AcDbLine
 62
7
  6
CONTINUOUS
 10
235.9009424321
 20
103.4951725532
 11
235.9009424321
 21
103.1797392464
  0
LINE
  5
3F3
100
AcDbEntity
  8
DEF_LAYER_ASSEM_MEMBER
100
AcDbLine
 62
7
  6
CONTINUOUS
 10
236.4009424321
 20
114.6797392464
 11
236.4009424321
 21
112.6797392464
  0
LINE
  5
3F4
100
AcDbEntity
  8
DEF_LAYER_ASSEM_MEMBER
100
AcDbLine
 62
9
  6
CONTINUOUS
 10
241.2009424321
 20
139.6797392464
 11
241.2009424321
 21
114.6797392464
  0
LINE
  5
3F5
100
AcDbEntity
  8
DEF_LAYER_ASSEM_MEMBER
100
AcDbLine
 62
7
  6
CONTINUOUS
 10
241.4009424321
 20
139.4797392464
 11
241.4009424321
 21
114.8797392464
  0
LINE
  5
3F6
100
AcDbEntity
  8
0
100
AcDbLine
 62
7
  6
CONTINUOUS
 10
0.0
 20
210.0
 11
297.0
 21
210.0
  0
LINE
  5
3F7
100
AcDbEntity
  8
0
100
AcDbLine
 62
7
  6
CONTINUOUS
 10
0.0
 20
210.0
 11
297.0
 21
210.0
  0
LINE
  5
3F8
100
AcDbEntity
  8
0
100
AcDbLine
 62
7
  6
CONTINUOUS
 10
297.0
 20
0.0
 11
297.0
 21
210.0
  0
LINE
  5
3F9
100
AcDbEntity
  8
0
100
AcDbLine
 62
7
  6
CONTINUOUS
 10
297.0
 20
0.0
 11
297.0
 21
210.0
  0
ARC
  5
3FA
100
AcDbEntity
  8
DEF_LAYER_ASSEM_MEMBER
100
AcDbCircle
 62
7
  6
CONTINUOUS
 10
-1349.2434320462
 20
86.3885225367
 40
1529.2406540931
100
AcDbArc
 50
1.5284983395
 51
1.679887018
  0
ARC
  5
3FB
100
AcDbEntity
  8
DEF_LAYER_ASSEM_MEMBER
100
AcDbCircle
 62
9
  6
CONTINUOUS
 10
88.2489589566
 20
115.1797392464
 40
1.0
100
AcDbArc
 50
270.0
 51
360.0
  0
ARC
  5
3FC
100
AcDbEntity
  8
DEF_LAYER_ASSEM_MEMBER
100
AcDbCircle
 62
9
  6
CONTINUOUS
 10
88.2489589566
 20
139.1797392464
 40
1.0
100
AcDbArc
 50
0.0
 51
90.0
  0
ARC
  5
3FD
100
AcDbEntity
  8
DEF_LAYER_ASSEM_MEMBER
100
AcDbCircle
 62
9
  6
CONTINUOUS
 10
64.2489589566
 20
139.1797392464
 40
1.0
100
AcDbArc
 50
90.0
 51
180.0
  0
ARC
  5
3FE
100
AcDbEntity
  8
DEF_LAYER_ASSEM_MEMBER
100
AcDbCircle
 62
9
  6
CONTINUOUS
 10
64.2489589566
 20
115.1797392464
 40
1.0
100
AcDbArc
 50
180.0
 51
270.0
  0
ARC
  5
3FF
100
AcDbEntity
  8
DEF_LAYER_ASSEM_MEMBER
100
AcDbCircle
 62
7
  6
CONTINUOUS
 10
46.4989589566
 20
97.4297392464
 40
0.5
100
AcDbArc
 50
180.0
 51
270.0
  0
ARC
  5
400
100
AcDbEntity
  8
DEF_LAYER_ASSEM_MEMBER
100
AcDbCircle
 62
7
  6
CONTINUOUS
 10
105.9989589566
 20
97.4297392464
 40
0.5
100
AcDbArc
 50
270.0
 51
360.0
  0
ARC
  5
401
100
AcDbEntity
  8
DEF_LAYER_ASSEM_MEMBER
100
AcDbCircle
 62
7
  6
CONTINUOUS
 10
46.4989589566
 20
156.9297392464
 40
0.5
100
AcDbArc
 50
90.0
 51
180.0
  0
ARC
  5
402
100
AcDbEntity
  8
DEF_LAYER_ASSEM_MEMBER
100
AcDbCircle
 62
7
  6
CONTINUOUS
 10
105.9989589566
 20
156.9297392464
 40
0.5
100
AcDbArc
 50
0.0
 51
90.0
  0
ARC
  5
403
100
AcDbEntity
  8
DEF_LAYER_ASSEM_MEMBER
100
AcDbCircle
 62
7
  6
CONTINUOUS
 10
190.9009424321
 20
97.4297392464
 40
0.5
100
AcDbArc
 50
270.0
 51
360.0
  0
ARC
  5
404
100
AcDbEntity
  8
DEF_LAYER_ASSEM_MEMBER
100
AcDbCircle
 62
7
  6
CONTINUOUS
 10
190.9009424321
 20
156.9297392464
 40
0.5
100
AcDbArc
 50
0.0
 51
90.0
  0
ARC
  5
405
100
AcDbEntity
  8
DEF_LAYER_ASSEM_MEMBER
100
AcDbCircle
 62
7
  6
CONTINUOUS
 10
88.5489589566
 20
114.8797392464
 40
0.2
100
AcDbArc
 50
270.0
 51
360.0
  0
ARC
  5
406
100
AcDbEntity
  8
DEF_LAYER_ASSEM_MEMBER
100
AcDbCircle
 62
7
  6
CONTINUOUS
 10
63.9489589566
 20
114.8797392464
 40
0.2
100
AcDbArc
 50
180.0
 51
270.0
  0
ARC
  5
407
100
AcDbEntity
  8
DEF_LAYER_ASSEM_MEMBER
100
AcDbCircle
 62
7
  6
CONTINUOUS
 10
88.5489589566
 20
139.4797392464
 40
0.2
100
AcDbArc
 50
0.0
 51
90.0
  0
ARC
  5
408
100
AcDbEntity
  8
DEF_LAYER_ASSEM_MEMBER
100
AcDbCircle
 62
7
  6
CONTINUOUS
 10
63.9489589566
 20
139.4797392464
 40
0.2
100
AcDbArc
 50
90.0
 51
180.0
  0
ARC
  5
409
100
AcDbEntity
  8
DEF_LAYER_ASSEM_MEMBER
100
AcDbCircle
 62
7
  6
CONTINUOUS
 10
241.2009424321
 20
139.4797392464
 40
0.2
100
AcDbArc
 50
0.0
 51
90.0
  0
ARC
  5
40A
100
AcDbEntity
  8
DEF_LAYER_ASSEM_MEMBER
100
AcDbCircle
 62
7
  6
CONTINUOUS
 10
241.2009424321
 20
114.8797392464
 40
0.2
100
AcDbArc
 50
270.0
 51
360.0
  0
SPLINE
  5
40B
100
AcDbEntity
  8
DEF_LAYER_ASSEM_MEMBER
100
AcDbSpline
 62
7
  6
CONTINUOUS
 70
0
 71
3
 72
9
 73
5
 74
0
 42
0.0000001
 43
0.0000001
 44
0.0000000001
 40
0.0
 40
0.0
 40
0.0
 40
0.0
 40
0.3428763613
 40
1.0
 40
1.0
 40
1.0
 40
1.0
 10
86.7355106501
 20
103.5341065824
 30
0.0
 10
86.7375382705
 20
103.5351995849
 30
0.0
 10
86.7431155837
 20
103.5384714799
 30
0.0
 10
86.7489603415
 20
103.5441888564
 30
0.0
 10
86.748956261
 20
103.548603431
 30
0.0
  0
SPLINE
  5
40C
100
AcDbEntity
  8
DEF_LAYER_ASSEM_MEMBER
100
AcDbSpline
 62
7
  6
CONTINUOUS
 70
0
 71
3
 72
9
 73
5
 74
0
 42
0.0000001
 43
0.0000001
 44
0.0000000001
 40
0.0
 40
0.0
 40
0.0
 40
0.0
 40
0.1826092575
 40
1.0
 40
1.0
 40
1.0
 40
1.0
 10
65.7489621968
 20
109.848603438
 30
0.0
 10
65.7489607739
 20
109.8473635477
 30
0.0
 10
65.7508137279
 20
109.8405632669
 30
0.0
 10
65.7575236052
 20
109.8367396953
 30
0.0
 10
65.7624091752
 20
109.83410657
 30
0.0
  0
SPLINE
  5
40D
100
AcDbEntity
  8
DEF_LAYER_ASSEM_MEMBER
100
AcDbSpline
 62
7
  6
CONTINUOUS
 70
0
 71
3
 72
12
 73
8
 74
0
 42
0.0000001
 43
0.0000001
 44
0.0000000001
 40
0.0
 40
0.0
 40
0.0
 40
0.0
 40
0.0514343237
 40
0.1233368771
 40
0.3306594328
 40
0.6231407504
 40
1.0
 40
1.0
 40
1.0
 40
1.0
 10
66.974531101
 20
111.0089184197
 30
0.0
 10
66.9804080635
 20
111.0125520538
 30
0.0
 10
66.9957256836
 20
111.0191774934
 30
0.0
 10
67.0381891041
 20
111.0322084508
 30
0.0
 10
67.1137004515
 20
111.0471221769
 30
0.0
 10
67.2301862263
 20
111.0642442484
 30
0.0
 10
67.3195538495
 20
111.0744342323
 30
0.0
 10
67.3699014547
 20
111.0797392464
 30
0.0
  0
SPLINE
  5
40E
100
AcDbEntity
  8
DEF_LAYER_ASSEM_MEMBER
100
AcDbSpline
 62
7
  6
CONTINUOUS
 70
0
 71
3
 72
39
 73
35
 74
0
 42
0.0000001
 43
0.0000001
 44
0.0000000001
 40
0.0
 40
0.0
 40
0.0
 40
0.0
 40
0.0018898166
 40
0.004843652
 40
0.0088847293
 40
0.0140132094
 40
0.0202233362
 40
0.0275060666
 40
0.0452224631
 40
0.0670117709
 40
0.0926817861
 40
0.1220060343
 40
0.1547205742
 40
0.1905353216
 40
0.2291266147
 40
0.3132385776
 40
0.4040448384
 40
0.4982926657
 40
0.5926055607
 40
0.6836047252
 40
0.7680306048
 40
0.8068224234
 40
0.8428604155
 40
0.8758248927
 40
0.905417574
 40
0.931377424
 40
0.9534709313
 40
0.9715058958
 40
0.9789505154
 40
0.9853271687
 40
0.9906231639
 40
0.9948297115
 40
0.9979490223
 40
1.0
 40
1.0
 40
1.0
 40
1.0
 10
66.9745536659
 20
105.6089185169
 30
0.0
 10
66.9845063661
 20
105.615073516
 30
0.0
 10
67.0131537944
 20
105.6251878043
 30
0.0
 10
67.0664880458
 20
105.6381430447
 30
0.0
 10
67.1405191889
 20
105.6512204184
 30
0.0
 10
67.2347991079
 20
105.6645273794
 30
0.0
 10
67.3493476148
 20
105.6778993436
 30
0.0
 10
67.5416490879
 20
105.6970790201
 30
0.0
 10
67.8304658899
 20
105.7202990139
 30
0.0
 10
68.2331722799
 20
105.7469362083
 30
0.0
 10
68.7078856556
 20
105.7736938303
 30
0.0
 10
69.2503354122
 20
105.8005490995
 30
0.0
 10
69.8556693736
 20
105.8274638332
 30
0.0
 10
70.5184361065
 20
105.8544184574
 30
0.0
 10
71.4993149693
 20
105.8914682764
 30
0.0
 10
72.8206322634
 20
105.9369402597
 30
0.0
 10
74.4865140788
 20
105.9902339714
 30
0.0
 10
76.2155910862
 20
106.0435904925
 30
0.0
 10
77.945863094
 20
106.09694863
 30
0.0
 10
79.6152878372
 20
106.150245689
 30
0.0
 10
80.9409879451
 20
106.195708412
 30
0.0
 10
81.9264386539
 20
106.2327390054
 30
0.0
 10
82.5933802635
 20
106.2596998638
 30
0.0
 10
83.2033108997
 20
106.2866141979
 30
0.0
 10
83.7507708013
 20
106.3134790079
 30
0.0
 10
84.2308324372
 20
106.3402415113
 30
0.0
 10
84.6392011993
 20
106.3668956494
 30
0.0
 10
84.9328902941
 20
106.3901100485
 30
0.0
 10
85.1292203128
 20
106.4092743423
 30
0.0
 10
85.2468545782
 20
106.4226548468
 30
0.0
 10
85.3442657354
 20
106.4359698649
 30
0.0
 10
85.4213928563
 20
106.4490918503
 30
0.0
 10
85.4778983762
 20
106.4620923341
 30
0.0
 10
85.5085823736
 20
106.4721983807
 30
0.0
 10
85.5197610699
 20
106.4782257417
 30
0.0
  0
SPLINE
  5
40F
100
AcDbEntity
  8
DEF_LAYER_ASSEM_MEMBER
100
AcDbSpline
 62
7
  6
CONTINUOUS
 70
0
 71
3
 72
23
 73
19
 74
0
 42
0.0000001
 43
0.0000001
 44
0.0000000001
 40
0.0
 40
0.0
 40
0.0
 40
0.0
 40
0.1896709611
 40
0.3724515895
 40
0.5417285056
 40
0.6193542694
 40
0.6913519531
 40
0.7570694581
 40
0.815910409
 40
0.8673388225
 40
0.910895513
 40
0.9461853475
 40
0.9606343259
 40
0.9729076324
 40
0.9829838599
 40
0.9908513197
 40
0.9965090615
 40
1.0
 40
1.0
 40
1.0
 40
1.0
 10
76.2489589566
 20
107.0951725532
 30
0.0
 10
75.5850838804
 20
107.0770595818
 30
0.0
 10
74.2814506198
 20
107.0414971512
 30
0.0
 10
72.3853763974
 20
106.9878838848
 30
0.0
 10
70.8815576461
 20
106.9421350542
 30
0.0
 10
69.7655676645
 20
106.9048545206
 30
0.0
 10
69.0120504038
 20
106.8777339845
 30
0.0
 10
68.3243511441
 20
106.8506577727
 30
0.0
 10
67.7087334784
 20
106.8236407611
 30
0.0
 10
67.1707868045
 20
106.796725185
 30
0.0
 10
66.7154205835
 20
106.7699371667
 30
0.0
 10
66.3895630623
 20
106.7465756818
 30
0.0
 10
66.1732940954
 20
106.72725585
 30
0.0
 10
66.0451243353
 20
106.7138192132
 30
0.0
 10
65.9402068414
 20
106.7004349754
 30
0.0
 10
65.8584660391
 20
106.687350297
 30
0.0
 10
65.8005356772
 20
106.6743246432
 30
0.0
 10
65.7696137851
 20
106.6642528522
 30
0.0
 10
65.7592167006
 20
106.6578255458
 30
0.0
  0
SPLINE
  5
410
100
AcDbEntity
  8
DEF_LAYER_ASSEM_MEMBER
100
AcDbSpline
 62
7
  6
CONTINUOUS
 70
0
 71
3
 72
17
 73
13
 74
0
 42
0.0000001
 43
0.0000001
 44
0.0000000001
 40
0.0
 40
0.0
 40
0.0
 40
0.0
 40
0.2179167838
 40
0.4102991939
 40
0.5764706854
 40
0.7158314015
 40
0.8280362684
 40
0.9128157265
 40
0.9448629362
 40
0.9700224961
 40
0.9883451323
 40
1.0
 40
1.0
 40
1.0
 40
1.0
 10
66.886191096
 20
103.1797392464
 30
0.0
 10
66.8095633962
 20
103.1767852313
 30
0.0
 10
66.6652975735
 20
103.170939276
 30
0.0
 10
66.4626497625
 20
103.1616435004
 30
0.0
 10
66.2876793213
 20
103.1523674764
 30
0.0
 10
66.1409608161
 20
103.1431453234
 30
0.0
 10
66.0229608681
 20
103.1339708136
 30
0.0
 10
65.9427351383
 20
103.1259409964
 30
0.0
 10
65.8932463276
 20
103.1191302532
 30
0.0
 10
65.8670194204
 20
103.114586624
 30
0.0
 10
65.8481974995
 20
103.1100817927
 30
0.0
 10
65.8381021089
 20
103.1065700159
 30
0.0
 10
65.8346118053
 20
103.1044162507
 30
0.0
  0
SPLINE
  5
411
100
AcDbEntity
  8
DEF_LAYER_ASSEM_MEMBER
100
AcDbSpline
 62
7
  6
CONTINUOUS
 70
0
 71
3
 72
39
 73
35
 74
0
 42
0.0000001
 43
0.0000001
 44
0.0000000001
 40
0.0
 40
0.0
 40
0.0
 40
0.0
 40
0.0018910084
 40
0.0048454372
 40
0.0088852439
 40
0.0140132262
 40
0.020224935
 40
0.0275075584
 40
0.0452228161
 40
0.0670128725
 40
0.0926825512
 40
0.1220067598
 40
0.1547216448
 40
0.1905357666
 40
0.2291277713
 40
0.3132395955
 40
0.4040456134
 40
0.4982932178
 40
0.5926059938
 40
0.6836051765
 40
0.7680311913
 40
0.8068219617
 40
0.8428611849
 40
0.8758241533
 40
0.9054184679
 40
0.9313766087
 40
0.9534717649
 40
0.9715052176
 40
0.9789511967
 40
0.9853276664
 40
0.9906220733
 40
0.9948293374
 40
0.9979498942
 40
1.0
 40
1.0
 40
1.0
 40
1.0
 10
66.97453468
 20
109.2089185232
 30
0.0
 10
66.9844935528
 20
109.2150775952
 30
0.0
 10
67.0131577872
 20
109.225181388
 30
0.0
 10
67.0664926524
 20
109.2381410025
 30
0.0
 10
67.1405165058
 20
109.2512221592
 30
0.0
 10
67.23479504
 20
109.264530094
 30
0.0
 10
67.3493504749
 20
109.2778967167
 30
0.0
 10
67.5416538407
 20
109.2970795284
 30
0.0
 10
67.8304678717
 20
109.3203004451
 30
0.0
 10
68.233170308
 20
109.3469351902
 30
0.0
 10
68.7078864138
 20
109.3736942356
 30
0.0
 10
69.2503365621
 20
109.4005492768
 30
0.0
 10
69.8556692035
 20
109.4274633185
 30
0.0
 10
70.5184392531
 20
109.454419174
 30
0.0
 10
71.4993188737
 20
109.4914675355
 30
0.0
 10
72.8206395604
 20
109.5369404849
 30
0.0
 10
74.4865193868
 20
109.5902339443
 30
0.0
 10
76.2155945782
 20
109.6435906098
 30
0.0
 10
77.9458664
 20
109.6969485907
 30
0.0
 10
79.6152930839
 20
109.7502461806
 30
0.0
 10
80.940989105
 20
109.7957071578
 30
0.0
 10
81.9264427105
 20
109.8327404468
 30
0.0
 10
82.5933769449
 20
109.8596980071
 30
0.0
 10
83.2033164166
 20
109.8866166987
 30
0.0
 10
83.7507673575
 20
109.9134760794
 30
0.0
 10
84.2308388497
 20
109.9402451424
 30
0.0
 10
84.6391988416
 20
109.9668914889
 30
0.0
 10
84.932896871
 20
109.9901141271
 30
0.0
 10
85.129225461
 20
110.009273139
 30
0.0
 10
85.2468575627
 20
110.0226522151
 30
0.0
 10
85.3442612574
 20
110.0359733035
 30
0.0
 10
85.4213912479
 20
110.049094304
 30
0.0
 10
85.4779040775
 20
110.0620883786
 30
0.0
 10
85.5085926743
 20
110.0721941262
 30
0.0
 10
85.5197629172
 20
110.078225812
 30
0.0
  0
SPLINE
  5
412
100
AcDbEntity
  8
DEF_LAYER_ASSEM_MEMBER
100
AcDbSpline
 62
7
  6
CONTINUOUS
 70
0
 71
3
 72
39
 73
35
 74
0
 42
0.0000001
 43
0.0000001
 44
0.0000000001
 40
0.0
 40
0.0
 40
0.0
 40
0.0
 40
0.0018913815
 40
0.0048455388
 40
0.0088850558
 40
0.0140134027
 40
0.0202252755
 40
0.0275075676
 40
0.0452231137
 40
0.0670128181
 40
0.0926828807
 40
0.1220066858
 40
0.1547219482
 40
0.1905357186
 40
0.2291280229
 40
0.3132397974
 40
0.4040457872
 40
0.4982933938
 40
0.5926061993
 40
0.6836054257
 40
0.7680314776
 40
0.8068220336
 40
0.8428614769
 40
0.8758242618
 40
0.9054187091
 40
0.9313767781
 40
0.9534718886
 40
0.9715054587
 40
0.9789515598
 40
0.9853276923
 40
0.9906221231
 40
0.9948296416
 40
0.9979502074
 40
1.0
 40
1.0
 40
1.0
 40
1.0
 10
66.9745327398
 20
103.8089185428
 30
0.0
 10
66.9844950818
 20
103.8150763954
 30
0.0
 10
67.0131593047
 20
103.8251798365
 30
0.0
 10
67.0664929114
 20
103.8381414624
 30
0.0
 10
67.1405152875
 20
103.8512232254
 30
0.0
 10
67.2347955933
 20
103.864529594
 30
0.0
 10
67.3493522031
 20
103.8778962436
 30
0.0
 10
67.5416561718
 20
103.8970805609
 30
0.0
 10
67.8304678859
 20
103.9202995188
 30
0.0
 10
68.2331721448
 20
103.9469360132
 30
0.0
 10
68.7078859947
 20
103.9736935483
 30
0.0
 10
69.2503382397
 20
104.0005498992
 30
0.0
 10
69.8556685355
 20
104.0274628321
 30
0.0
 10
70.5184405022
 20
104.0544195794
 30
0.0
 10
71.4993194316
 20
104.0914671783
 30
0.0
 10
72.8206413493
 20
104.1369406224
 30
0.0
 10
74.4865205556
 20
104.190233932
 30
0.0
 10
76.2155956032
 20
104.243590645
 30
0.0
 10
77.9458677296
 20
104.2969485837
 30
0.0
 10
79.6152949364
 20
104.3502462642
 30
0.0
 10
80.9409900169
 20
104.395706922
 30
0.0
 10
81.9264437757
 20
104.4327406969
 30
0.0
 10
82.5933768649
 20
104.4596977635
 30
0.0
 10
83.203317307
 20
104.4866169252
 30
0.0
 10
83.7507674556
 20
104.5134759322
 30
0.0
 10
84.2308389817
 20
104.5402452068
 30
0.0
 10
84.63919895
 20
104.566891467
 30
0.0
 10
84.9328980979
 20
104.5901145532
 30
0.0
 10
85.1292261821
 20
104.6092724926
 30
0.0
 10
85.2468569368
 20
104.6226526928
 30
0.0
 10
85.3442603132
 20
104.6359736303
 30
0.0
 10
85.4213920121
 20
104.6490943845
 30
0.0
 10
85.4779051913
 20
104.6620866114
 30
0.0
 10
85.5085908761
 20
104.6721947926
 30
0.0
 10
85.5197592706
 20
104.6782258173
 30
0.0
  0
SPLINE
  5
413
100
AcDbEntity
  8
DEF_LAYER_ASSEM_MEMBER
100
AcDbSpline
 62
7
  6
CONTINUOUS
 70
0
 71
3
 72
23
 73
19
 74
0
 42
0.0000001
 43
0.0000001
 44
0.0000000001
 40
0.0
 40
0.0
 40
0.0
 40
0.0
 40
0.1896692923
 40
0.3724481802
 40
0.5417264642
 40
0.6193532541
 40
0.6913504709
 40
0.7570675822
 40
0.8159062604
 40
0.8673341618
 40
0.9108908484
 40
0.9461814303
 40
0.9606309154
 40
0.9729057823
 40
0.9829820976
 40
0.9908494505
 40
0.9965086416
 40
1.0
 40
1.0
 40
1.0
 40
1.0
 10
76.2489589566
 20
105.2951725532
 30
0.0
 10
75.5850894076
 20
105.2770597326
 30
0.0
 10
74.2814674644
 20
105.2414975958
 30
0.0
 10
72.3853994864
 20
105.1878846205
 30
0.0
 10
70.8815777434
 20
105.1421355126
 30
0.0
 10
69.7655804745
 20
105.1048551702
 30
0.0
 10
69.012062299
 20
105.0777340658
 30
0.0
 10
68.3243736423
 20
105.0506591053
 30
0.0
 10
67.7087668368
 20
105.0236418948
 30
0.0
 10
67.1708296095
 20
104.996727717
 30
0.0
 10
66.7154623807
 20
104.9699396283
 30
0.0
 10
66.3896002335
 20
104.9465788648
 30
0.0
 10
66.1733214329
 20
104.9272575896
 30
0.0
 10
66.0451438265
 20
104.9138223808
 30
0.0
 10
65.9402210661
 20
104.9004372488
 30
0.0
 10
65.8584752389
 20
104.887349706
 30
0.0
 10
65.8005394607
 20
104.874324635
 30
0.0
 10
65.7696084431
 20
104.8642556079
 30
0.0
 10
65.7592113338
 20
104.8578255348
 30
0.0
  0
SPLINE
  5
414
100
AcDbEntity
  8
DEF_LAYER_ASSEM_MEMBER
100
AcDbSpline
 62
7
  6
CONTINUOUS
 70
0
 71
3
 72
23
 73
19
 74
0
 42
0.0000001
 43
0.0000001
 44
0.0000000001
 40
0.0
 40
0.0
 40
0.0
 40
0.0
 40
0.1896695098
 40
0.372444737
 40
0.5417214273
 40
0.6193484878
 40
0.6913466004
 40
0.7570649832
 40
0.8159052053
 40
0.8673337206
 40
0.9108901558
 40
0.946180722
 40
0.960630316
 40
0.9729052927
 40
0.9829817303
 40
0.990849222
 40
0.9965085608
 40
1.0
 40
1.0
 40
1.0
 40
1.0
 10
76.2489589566
 20
108.8951725532
 30
0.0
 10
75.5850886397
 20
108.8770597117
 30
0.0
 10
74.281478735
 20
108.84149791
 30
0.0
 10
72.385428368
 20
108.7878854374
 30
0.0
 10
70.8816240492
 20
108.7421369794
 30
0.0
 10
69.7656282616
 20
108.7048567899
 30
0.0
 10
69.0121015396
 20
108.6777356081
 30
0.0
 10
68.3243998909
 20
108.6506601446
 30
0.0
 10
67.7087810794
 20
108.6236425121
 30
0.0
 10
67.1708371691
 20
108.5967282084
 30
0.0
 10
66.7154687248
 20
108.5699400298
 30
0.0
 10
66.3896071227
 20
108.5465793787
 30
0.0
 10
66.1733275987
 20
108.5272582064
 30
0.0
 10
66.0451487927
 20
108.5138229456
 30
0.0
 10
65.9402247438
 20
108.5004377071
 30
0.0
 10
65.8584774622
 20
108.4873500484
 30
0.0
 10
65.8005404578
 20
108.4743248015
 30
0.0
 10
65.7696085156
 20
108.4642558239
 30
0.0
 10
65.7592112068
 20
108.4578255357
 30
0.0
  0
SPLINE
  5
415
100
AcDbEntity
  8
DEF_LAYER_ASSEM_MEMBER
100
AcDbSpline
 62
7
  6
CONTINUOUS
 70
0
 71
3
 72
39
 73
35
 74
0
 42
0.0000001
 43
0.0000001
 44
0.0000000001
 40
0.0
 40
0.0
 40
0.0
 40
0.0
 40
0.0018911962
 40
0.004844215
 40
0.008883924
 40
0.0140135549
 40
0.0202247715
 40
0.0275061163
 40
0.0452232798
 40
0.0670114758
 40
0.0926829081
 40
0.1220056507
 40
0.1547218086
 40
0.1905351086
 40
0.2291277605
 40
0.3132395163
 40
0.4040456126
 40
0.4982934283
 40
0.5926064769
 40
0.68360587
 40
0.7680319026
 40
0.8068225213
 40
0.8428616978
 40
0.8758251005
 40
0.9054186515
 40
0.9313779813
 40
0.9534716534
 40
0.9715069459
 40
0.9789522148
 40
0.9853274721
 40
0.9906229711
 40
0.9948312253
 40
0.9979504373
 40
1.0
 40
1.0
 40
1.0
 40
1.0
 10
66.9745468405
 20
107.408918569
 30
0.0
 10
66.9845106869
 20
107.4150717725
 30
0.0
 10
67.0131620423
 20
107.4251806466
 30
0.0
 10
67.066489619
 20
107.4381443065
 30
0.0
 10
67.1405136981
 20
107.4512246209
 30
0.0
 10
67.2347998207
 20
107.4645265612
 30
0.0
 10
67.3493537413
 20
107.4778966376
 30
0.0
 10
67.5416573707
 20
107.4970833885
 30
0.0
 10
67.8304639675
 20
107.5202958289
 30
0.0
 10
68.2331763606
 20
107.5469391296
 30
0.0
 10
68.707882421
 20
107.5736913274
 30
0.0
 10
69.2503411471
 20
107.600551565
 30
0.0
 10
69.8556667708
 20
107.6274618426
 30
0.0
 10
70.5184425217
 20
107.6544202019
 30
0.0
 10
71.49931924
 20
107.6914667271
 30
0.0
 10
72.8206419697
 20
107.7369408579
 30
0.0
 10
74.4865206834
 20
107.7902339438
 30
0.0
 10
76.2155967609
 20
107.843590684
 30
0.0
 10
77.9458702905
 20
107.8969485991
 30
0.0
 10
79.6152975751
 20
107.9502461404
 30
0.0
 10
80.9409920801
 20
107.9957071183
 30
0.0
 10
81.9264430902
 20
108.0327403982
 30
0.0
 10
82.5933777593
 20
108.0596984768
 30
0.0
 10
83.2033140629
 20
108.0866156229
 30
0.0
 10
83.7507693493
 20
108.1134779481
 30
0.0
 10
84.2308338402
 20
108.1402423396
 30
0.0
 10
84.6392023646
 20
108.1668951021
 30
0.0
 10
84.9328981776
 20
108.190111987
 30
0.0
 10
85.1292259314
 20
108.2092719301
 30
0.0
 10
85.2468521398
 20
108.2226551895
 30
0.0
 10
85.3442614612
 20
108.235974256
 30
0.0
 10
85.4213965433
 20
108.249089617
 30
0.0
 10
85.4779042782
 20
108.2620868239
 30
0.0
 10
85.5085769002
 20
108.2721986327
 30
0.0
 10
85.5197457475
 20
108.2782257841
 30
0.0
  0
SPLINE
  5
416
100
AcDbEntity
  8
DEF_LAYER_ASSEM_MEMBER
100
AcDbSpline
 62
7
  6
CONTINUOUS
 70
0
 71
3
 72
42
 73
38
 74
0
 42
0.0000001
 43
0.0000001
 44
0.0000000001
 40
0.0
 40
0.0
 40
0.0
 40
0.0
 40
0.001918595
 40
0.0049519269
 40
0.0091164424
 40
0.0144129034
 40
0.0208336189
 40
0.0283639193
 40
0.0466881679
 40
0.0692231467
 40
0.0957620935
 40
0.1260584753
 40
0.1598333691
 40
0.1967701828
 40
0.2365281054
 40
0.3229984888
 40
0.4160313298
 40
0.5121683904
 40
0.6078355039
 40
0.6994759755
 40
0.7427124153
 40
0.7836834704
 40
0.8220085255
 40
0.8573292622
 40
0.8893197948
 40
0.9176797948
 40
0.942150045
 40
0.9625018167
 40
0.9710755572
 40
0.9785527856
 40
0.9849186982
 40
0.9901620762
 40
0.9942736588
 40
0.9972518426
 40
0.998321725
 40
0.9991205243
 40
1.0
 40
1.0
 40
1.0
 40
1.0
 10
86.7355180793
 20
110.7341066068
 30
0.0
 10
86.7236861139
 20
110.7277239007
 30
0.0
 10
86.6901258811
 20
110.7175195386
 30
0.0
 10
86.6277740257
 20
110.7043007644
 30
0.0
 10
86.5411312166
 20
110.6910091452
 30
0.0
 10
86.4306987761
 20
110.6774522581
 30
0.0
 10
86.2964997424
 20
110.663841816
 30
0.0
 10
86.0711902588
 20
110.6442982404
 30
0.0
 10
85.7329237848
 20
110.6206540211
 30
0.0
 10
85.2614358425
 20
110.5935219654
 30
0.0
 10
84.705943868
 20
110.5662713993
 30
0.0
 10
84.0716183319
 20
110.5389149595
 30
0.0
 10
83.3643757976
 20
110.5115047812
 30
0.0
 10
82.590792505
 20
110.4840469362
 30
0.0
 10
81.4481025984
 20
110.4463410733
 30
0.0
 10
79.9124168479
 20
110.4000666627
 30
0.0
 10
77.9817455331
 20
110.3458061068
 30
0.0
 10
75.9866091193
 20
110.2914893195
 30
0.0
 10
74.0012328687
 20
110.237175106
 30
0.0
 10
72.3864474209
 20
110.191146101
 30
0.0
 10
71.1548343876
 20
110.1537358012
 30
0.0
 10
70.2966789561
 20
110.1262399295
 30
0.0
 10
69.4940186799
 20
110.0987714196
 30
0.0
 10
68.7543238753
 20
110.0713353082
 30
0.0
 10
68.0845052133
 20
110.0439520296
 30
0.0
 10
67.4907831081
 20
110.0166450091
 30
0.0
 10
66.9787078062
 20
109.9894437462
 30
0.0
 10
66.605295797
 20
109.9658013192
 30
0.0
 10
66.3509517713
 20
109.946390989
 30
0.0
 10
66.1944738351
 20
109.9327201037
 30
0.0
 10
66.0614025822
 20
109.9190811218
 30
0.0
 10
65.9521198505
 20
109.9056151757
 30
0.0
 10
65.8665770419
 20
109.8921204246
 30
0.0
 10
65.8108915412
 20
109.8805611153
 30
0.0
 10
65.7779385775
 20
109.8701945735
 30
0.0
 10
65.7611801248
 20
109.8631621404
 30
0.0
 10
65.748969269
 20
109.8547659901
 30
0.0
 10
65.7489621968
 20
109.848603438
 30
0.0
  0
SPLINE
  5
417
100
AcDbEntity
  8
DEF_LAYER_ASSEM_MEMBER
100
AcDbSpline
 62
7
  6
CONTINUOUS
 70
0
 71
3
 72
32
 73
28
 74
0
 42
0.0000001
 43
0.0000001
 44
0.0000000001
 40
0.0
 40
0.0
 40
0.0
 40
0.0
 40
0.0016319047
 40
0.0042289975
 40
0.0078140986
 40
0.0123891569
 40
0.0179477133
 40
0.0244812245
 40
0.0404284135
 40
0.06010584
 40
0.0833628107
 40
0.1100106928
 40
0.1398405326
 40
0.1726101568
 40
0.2080602737
 40
0.2858397307
 40
0.3706883154
 40
0.4598878464
 40
0.5505802455
 40
0.6398594501
 40
0.7248647953
 40
0.8028730725
 40
0.8713861281
 40
0.9282124176
 40
0.9715382661
 40
0.9876959054
 40
1.0
 40
1.0
 40
1.0
 40
1.0
 10
65.7592196421
 20
110.2578255927
 30
0.0
 10
65.7688186768
 20
110.26375354
 30
0.0
 10
65.7968962202
 20
110.2732698086
 30
0.0
 10
65.8493507554
 20
110.2855188124
 30
0.0
 10
65.9228084202
 20
110.2978491509
 30
0.0
 10
66.0167874975
 20
110.3104242602
 30
0.0
 10
66.1313388182
 20
110.3230588983
 30
0.0
 10
66.3243316102
 20
110.3412172133
 30
0.0
 10
66.6149813215
 20
110.3631706731
 30
0.0
 10
67.0212739802
 20
110.3883609327
 30
0.0
 10
67.5016617311
 20
110.4136543573
 30
0.0
 10
68.0523126435
 20
110.4390529558
 30
0.0
 10
68.6687880806
 20
110.4644992286
 30
0.0
 10
69.3461610016
 20
110.4899924617
 30
0.0
 10
70.3548950452
 20
110.5251079317
 30
0.0
 10
71.7236034038
 20
110.5682279172
 30
0.0
 10
73.4638459803
 20
110.618676735
 30
0.0
 10
75.2933934517
 20
110.6692016359
 30
0.0
 10
77.1535818137
 20
110.7197547458
 30
0.0
 10
78.9847640132
 20
110.770284671
 30
0.0
 10
80.7282257389
 20
110.8207234994
 30
0.0
 10
82.328060988
 20
110.8710265853
 30
0.0
 10
83.7330020316
 20
110.9209421776
 30
0.0
 10
84.8979838583
 20
110.9705383169
 30
0.0
 10
85.7009834702
 20
111.0137293752
 30
0.0
 10
86.1959017096
 20
111.0507398878
 30
0.0
 10
86.3918087159
 20
111.0695629917
 30
0.0
 10
86.4762603699
 20
111.0797392464
 30
0.0
  0
SPLINE
  5
418
100
AcDbEntity
  8
DEF_LAYER_ASSEM_MEMBER
100
AcDbSpline
 62
7
  6
CONTINUOUS
 70
0
 71
3
 72
27
 73
23
 74
0
 42
0.0000001
 43
0.0000001
 44
0.0000000001
 40
0.0
 40
0.0
 40
0.0
 40
0.0
 40
0.0008475193
 40
0.0022306503
 40
0.0041770885
 40
0.0066951914
 40
0.013456203
 40
0.0225202816
 40
0.0338742442
 40
0.0474923348
 40
0.0633470768
 40
0.0814079507
 40
0.1239701177
 40
0.1747940502
 40
0.2334063717
 40
0.2992651916
 40
0.3717435759
 40
0.4501608055
 40
0.5337672126
 40
0.6217602549
 40
0.8074441769
 40
1.0
 40
1.0
 40
1.0
 40
1.0
 10
86.1092839178
 20
102.5400644459
 30
0.0
 10
86.1073121371
 20
102.5380938556
 30
0.0
 10
86.1004820664
 20
102.5348371681
 30
0.0
 10
86.0874481454
 20
102.5307921541
 30
0.0
 10
86.0685961197
 20
102.5266652947
 30
0.0
 10
86.0322202373
 20
102.5204505198
 30
0.0
 10
85.9722866671
 20
102.5131316254
 30
0.0
 10
85.8832884042
 20
102.5047690743
 30
0.0
 10
85.7716437785
 20
102.496346617
 30
0.0
 10
85.6376242457
 20
102.4878513853
 30
0.0
 10
85.4815061866
 20
102.4793205808
 30
0.0
 10
85.2302431519
 20
102.4672397845
 30
0.0
 10
84.8639620411
 20
102.4524769982
 30
0.0
 10
84.3642944454
 20
102.4354444767
 30
0.0
 10
83.7879631965
 20
102.4183211711
 30
0.0
 10
83.1403804714
 20
102.401123586
 30
0.0
 10
82.4276358682
 20
102.3838644746
 30
0.0
 10
81.6565010483
 20
102.3665558807
 30
0.0
 10
80.8343241644
 20
102.3491995453
 30
0.0
 10
79.6593777734
 20
102.3255796568
 30
0.0
 10
78.1261119759
 20
102.2964454536
 30
0.0
 10
76.8822092257
 20
102.2735344879
 30
0.0
 10
76.2489589345
 20
102.2618284871
 30
0.0
  0
SPLINE
  5
419
100
AcDbEntity
  8
DEF_LAYER_ASSEM_MEMBER
100
AcDbSpline
 62
7
  6
CONTINUOUS
 70
0
 71
3
 72
23
 73
19
 74
0
 42
0.0000001
 43
0.0000001
 44
0.0000000001
 40
0.0
 40
0.0
 40
0.0
 40
0.0
 40
0.1881616345
 40
0.369604855
 40
0.5378788724
 40
0.6151748995
 40
0.686976238
 40
0.7526454362
 40
0.8115937282
 40
0.8633020632
 40
0.9073068537
 40
0.9432306834
 40
0.9580596374
 40
0.9707599099
 40
0.9813106536
 40
0.9896951609
 40
0.9959114491
 40
1.0
 40
1.0
 40
1.0
 40
1.0
 10
76.2489589566
 20
102.4446139314
 30
0.0
 10
76.8311198547
 20
102.4625739585
 30
0.0
 10
77.9746555392
 20
102.4978474867
 30
0.0
 10
79.6387636044
 20
102.5510213764
 30
0.0
 10
80.9597702444
 20
102.5963792059
 30
0.0
 10
81.941471571
 20
102.6333263354
 30
0.0
 10
82.6057195059
 20
102.6602216107
 30
0.0
 10
83.2131255651
 20
102.6870726506
 30
0.0
 10
83.7582707944
 20
102.7138730923
 30
0.0
 10
84.2362728636
 20
102.7405712612
 30
0.0
 10
84.6428796005
 20
102.7671635969
 30
0.0
 10
84.9353001773
 20
102.7903216936
 30
0.0
 10
85.1307835905
 20
102.8094386028
 30
0.0
 10
85.2479129319
 20
102.8227894477
 30
0.0
 10
85.3449220702
 20
102.8360753151
 30
0.0
 10
85.4217476164
 20
102.8491605541
 30
0.0
 10
85.4780438902
 20
102.8621305499
 30
0.0
 10
85.508608136
 20
102.8722174204
 30
0.0
 10
85.5197467131
 20
102.8782257597
 30
0.0
  0
SPLINE
  5
41A
100
AcDbEntity
  8
DEF_LAYER_ASSEM_MEMBER
100
AcDbSpline
 62
7
  6
CONTINUOUS
 70
0
 71
3
 72
26
 73
22
 74
0
 42
0.0000001
 43
0.0000001
 44
0.0000000001
 40
0.0
 40
0.0
 40
0.0
 40
0.0
 40
0.0017969714
 40
0.0034403423
 40
0.0056458041
 40
0.0117907397
 40
0.0202709055
 40
0.0310851078
 40
0.0442193508
 40
0.0596434229
 40
0.0773221685
 40
0.1192848118
 40
0.1697074501
 40
0.2281153667
 40
0.2939438929
 40
0.3665627129
 40
0.4452755024
 40
0.5293261997
 40
0.6179108985
 40
0.8052101567
 40
1.0
 40
1.0
 40
1.0
 40
1.0
 10
86.7489398008
 20
105.7451725531
 30
0.0
 10
86.7489399728
 20
105.7388708544
 30
0.0
 10
86.7362820232
 20
105.7303514223
 30
0.0
 10
86.719042676
 20
105.7232235304
 30
0.0
 10
86.6849716829
 20
105.7126865856
 30
0.0
 10
86.6274624638
 20
105.7009495092
 30
0.0
 10
86.5391173104
 20
105.6872272745
 30
0.0
 10
86.4262748283
 20
105.6735395715
 30
0.0
 10
86.2888693179
 20
105.6596822283
 30
0.0
 10
86.1273229218
 20
105.6457890513
 30
0.0
 10
85.8648136376
 20
105.6260574083
 30
0.0
 10
85.4795730037
 20
105.6020393535
 30
0.0
 10
84.9514832382
 20
105.5743871018
 30
0.0
 10
84.3396061103
 20
105.5466399906
 30
0.0
 10
83.6498247537
 20
105.5188067279
 30
0.0
 10
82.8887872295
 20
105.4909256817
 30
0.0
 10
82.0638095792
 20
105.463009285
 30
0.0
 10
81.1828132428
 20
105.4350650991
 30
0.0
 10
79.9211498754
 20
105.3970774229
 30
0.0
 10
78.2712309194
 20
105.3503461965
 30
0.0
 10
76.9318024664
 20
105.3138030538
 30
0.0
 10
76.2489589566
 20
105.2951725532
 30
0.0
  0
SPLINE
  5
41B
100
AcDbEntity
  8
DEF_LAYER_ASSEM_MEMBER
100
AcDbSpline
 62
7
  6
CONTINUOUS
 70
0
 71
3
 72
26
 73
22
 74
0
 42
0.0000001
 43
0.0000001
 44
0.0000000001
 40
0.0
 40
0.0
 40
0.0
 40
0.0
 40
0.0017971773
 40
0.0034405503
 40
0.0056459413
 40
0.0117915355
 40
0.0202728182
 40
0.0310876269
 40
0.0442223223
 40
0.0596474992
 40
0.0773269323
 40
0.119289396
 40
0.169711747
 40
0.2281197078
 40
0.2939490809
 40
0.3665701747
 40
0.4452843166
 40
0.529335379
 40
0.6179195107
 40
0.8052128757
 40
1.0
 40
1.0
 40
1.0
 40
1.0
 10
86.748937137
 20
107.5451725481
 30
0.0
 10
86.748936096
 20
107.5388701293
 30
0.0
 10
86.7362777673
 20
107.530351356
 30
0.0
 10
86.7190380531
 20
107.5232222254
 30
0.0
 10
86.6849654837
 20
107.5126838307
 30
0.0
 10
86.6274498873
 20
107.5009473272
 30
0.0
 10
86.5390964208
 20
107.4872250116
 30
0.0
 10
86.4262463507
 20
107.4735364874
 30
0.0
 10
86.2888333326
 20
107.4596784168
 30
0.0
 10
86.1272790263
 20
107.4457857774
 30
0.0
 10
85.864764134
 20
107.4260543031
 30
0.0
 10
85.4795228249
 20
107.4020362517
 30
0.0
 10
84.9514346414
 20
107.3743847744
 30
0.0
 10
84.3395555459
 20
107.3466378983
 30
0.0
 10
83.6497632775
 20
107.3188042511
 30
0.0
 10
82.8887102593
 20
107.2909231122
 30
0.0
 10
82.0637188368
 20
107.2630062371
 30
0.0
 10
81.1827186907
 20
107.2350621898
 30
0.0
 10
79.9210770143
 20
107.1970753411
 30
0.0
 10
78.2711906672
 20
107.1503450871
 30
0.0
 10
76.9317927556
 20
107.1138027889
 30
0.0
 10
76.2489589566
 20
107.0951725532
 30
0.0
  0
SPLINE
  5
41C
100
AcDbEntity
  8
DEF_LAYER_ASSEM_MEMBER
100
AcDbSpline
 62
7
  6
CONTINUOUS
 70
0
 71
3
 72
33
 73
29
 74
0
 42
0.0000001
 43
0.0000001
 44
0.0000000001
 40
0.0
 40
0.0
 40
0.0
 40
0.0
 40
0.0463302203
 40
0.1044579702
 40
0.1727716694
 40
0.2493754668
 40
0.3321406424
 40
0.4187668884
 40
0.5068460338
 40
0.5939294415
 40
0.6775962141
 40
0.7555207732
 40
0.7916447112
 40
0.8255378675
 40
0.8569629496
 40
0.8857032595
 40
0.9115578308
 40
0.934349118
 40
0.9539187069
 40
0.9701340746
 40
0.9828861215
 40
0.9879375597
 40
0.9920977028
 40
0.9953628804
 40
0.9977356455
 40
0.9985940438
 40
0.9992426123
 40
1.0
 40
1.0
 40
1.0
 40
1.0
 10
66.886191096
 20
103.1797392464
 30
0.0
 10
67.1927900354
 20
103.1982199644
 30
0.0
 10
67.8844826685
 20
103.2327466565
 30
0.0
 10
69.0289680814
 20
103.2791866842
 30
0.0
 10
70.3742917111
 20
103.3259360562
 30
0.0
 10
71.8830291474
 20
103.3729178551
 30
0.0
 10
73.5132242904
 20
103.4200111481
 30
0.0
 10
75.2195251865
 20
103.4671690638
 30
0.0
 10
76.954464714
 20
103.5143482682
 30
0.0
 10
78.6697770947
 20
103.5615115084
 30
0.0
 10
80.3177428237
 20
103.6086259782
 30
0.0
 10
81.6279234865
 20
103.6487396106
 30
0.0
 10
82.6081922046
 20
103.6812963308
 30
0.0
 10
83.2803033941
 20
103.7050764244
 30
0.0
 10
83.9034314764
 20
103.7288349361
 30
0.0
 10
84.4732256165
 20
103.752561224
 30
0.0
 10
84.9857281498
 20
103.776243598
 30
0.0
 10
85.4373621117
 20
103.7998643086
 30
0.0
 10
85.8250002249
 20
103.8233664108
 30
0.0
 10
86.1459445415
 20
103.8467470904
 30
0.0
 10
86.3705749709
 20
103.8671741781
 30
0.0
 10
86.5152055756
 20
103.8842460882
 30
0.0
 10
86.5970810957
 20
103.895899531
 30
0.0
 10
86.6610850033
 20
103.9075627901
 30
0.0
 10
86.7028352561
 20
103.9175897494
 30
0.0
 10
86.7273210732
 20
103.9265296386
 30
0.0
 10
86.7402795062
 20
103.9327639451
 30
0.0
 10
86.7489386931
 20
103.940151273
 30
0.0
 10
86.7489457158
 20
103.9451725204
 30
0.0
  0
SPLINE
  5
41D
100
AcDbEntity
  8
DEF_LAYER_ASSEM_MEMBER
100
AcDbSpline
 62
7
  6
CONTINUOUS
 70
0
 71
3
 72
26
 73
22
 74
0
 42
0.0000001
 43
0.0000001
 44
0.0000000001
 40
0.0
 40
0.0
 40
0.0
 40
0.0
 40
0.001796905
 40
0.0034402984
 40
0.0056458291
 40
0.0117907279
 40
0.0202707904
 40
0.0310850537
 40
0.0442193128
 40
0.0596432273
 40
0.0773219392
 40
0.119284868
 40
0.169707976
 40
0.228116764
 40
0.2939470363
 40
0.3665678077
 40
0.4452807718
 40
0.5293304336
 40
0.6179139639
 40
0.8052112437
 40
1.0
 40
1.0
 40
1.0
 40
1.0
 10
86.7489378164
 20
109.3451725542
 30
0.0
 10
86.748938761
 20
109.3388710894
 30
0.0
 10
86.736281143
 20
109.3303506802
 30
0.0
 10
86.719041683
 20
109.3232232022
 30
0.0
 10
86.6849703941
 20
109.312686372
 30
0.0
 10
86.6274615241
 20
109.3009491384
 30
0.0
 10
86.5391166297
 20
109.2872269223
 30
0.0
 10
86.4262742226
 20
109.2735395701
 30
0.0
 10
86.2888690011
 20
109.2596823447
 30
0.0
 10
86.1273232554
 20
109.2457890331
 30
0.0
 10
85.8648136748
 20
109.2260573663
 30
0.0
 10
85.4795705606
 20
109.2020392546
 30
0.0
 10
84.9514751683
 20
109.1743867023
 30
0.0
 10
84.3395873023
 20
109.1466391632
 30
0.0
 10
83.6497900203
 20
109.1188054088
 30
0.0
 10
82.8887390196
 20
109.090924036
 30
0.0
 10
82.0637576546
 20
109.0630075307
 30
0.0
 10
81.1827685413
 20
109.0350637426
 30
0.0
 10
79.9211199979
 20
108.997076562
 30
0.0
 10
78.2712160985
 20
108.9503457929
 30
0.0
 10
76.9317985665
 20
108.9138029474
 30
0.0
 10
76.2489589566
 20
108.8951725532
 30
0.0
  0
SPLINE
  5
41E
100
AcDbEntity
  8
DEF_LAYER_ASSEM_MEMBER
100
AcDbSpline
 62
7
  6
CONTINUOUS
 70
0
 71
3
 72
22
 73
18
 74
0
 42
0.0000001
 43
0.0000001
 44
0.0000000001
 40
0.0
 40
0.0
 40
0.0
 40
0.0
 40
0.2006919983
 40
0.3873508581
 40
0.5555187224
 40
0.6314015128
 40
0.7012040512
 40
0.7645071394
 40
0.8209406273
 40
0.870164151
 40
0.9118937278
 40
0.9458842293
 40
0.9719528405
 40
0.9819762027
 40
0.9899800685
 40
0.9959747079
 40
1.0
 40
1.0
 40
1.0
 40
1.0
 10
79.1831460333
 20
103.1797392464
 30
0.0
 10
79.6890461313
 20
103.1941147778
 30
0.0
 10
80.6654554833
 20
103.2224520595
 30
0.0
 10
82.0656824589
 20
103.266069178
 30
0.0
 10
83.1512045196
 20
103.3034482092
 30
0.0
 10
83.9420949995
 20
103.3338566843
 30
0.0
 10
84.4686633574
 20
103.35585004
 30
0.0
 10
84.9461390593
 20
103.3778135795
 30
0.0
 10
85.371661683
 20
103.3997245486
 30
0.0
 10
85.7427001878
 20
103.4215769761
 30
0.0
 10
86.0570465825
 20
103.4432898045
 30
0.0
 10
86.3128272043
 20
103.4648779032
 30
0.0
 10
86.488604146
 20
103.483768507
 30
0.0
 10
86.5986566865
 20
103.4996770413
 30
0.0
 10
86.6583316682
 20
103.5104096273
 30
0.0
 10
86.7024784067
 20
103.5210283897
 30
0.0
 10
86.7265752389
 20
103.5292898885
 30
0.0
 10
86.7355106501
 20
103.5341065824
 30
0.0
  0
SPLINE
  5
41F
100
AcDbEntity
  8
DEF_LAYER_ASSEM_MEMBER
100
AcDbSpline
 62
7
  6
CONTINUOUS
 70
0
 71
3
 72
23
 73
19
 74
0
 42
0.0000001
 43
0.0000001
 44
0.0000000001
 40
0.0
 40
0.0
 40
0.0
 40
0.0
 40
0.1889465953
 40
0.3710878812
 40
0.5398885329
 40
0.617358697
 40
0.6892638325
 40
0.7549612021
 40
0.8138571338
 40
0.8654238576
 40
0.9092017701
 40
0.9447979466
 40
0.9594311319
 40
0.9719111025
 40
0.9822119994
 40
0.9903223895
 40
0.9962414964
 40
1.0
 40
1.0
 40
1.0
 40
1.0
 10
76.2489589566
 20
104.8986034154
 30
0.0
 10
76.9100682701
 20
104.9166409265
 30
0.0
 10
78.2084758897
 20
104.9520609356
 30
0.0
 10
80.0974523088
 20
105.0054575809
 30
0.0
 10
81.5963009325
 20
105.0510141994
 30
0.0
 10
82.709370187
 20
105.0881296992
 30
0.0
 10
83.4616889311
 20
105.1151392291
 30
0.0
 10
84.1489504478
 20
105.1421034968
 30
0.0
 10
84.7649646544
 20
105.1690126773
 30
0.0
 10
85.3041809753
 20
105.1958219878
 30
0.0
 10
85.7617291521
 20
105.2225102977
 30
0.0
 10
86.0899745208
 20
105.2457736618
 30
0.0
 10
86.3086285744
 20
105.2649938
 30
0.0
 10
86.438917892
 20
105.2783839961
 30
0.0
 10
86.5461974489
 20
105.2917220162
 30
0.0
 10
86.6304517389
 20
105.3048048514
 30
0.0
 10
86.6912071676
 20
105.3178020578
 30
0.0
 10
86.7239334011
 20
105.3278578324
 30
0.0
 10
86.735510205
 20
105.3341066325
 30
0.0
  0
SPLINE
  5
420
100
AcDbEntity
  8
DEF_LAYER_ASSEM_MEMBER
100
AcDbSpline
 62
7
  6
CONTINUOUS
 70
0
 71
3
 72
23
 73
19
 74
0
 42
0.0000001
 43
0.0000001
 44
0.0000000001
 40
0.0
 40
0.0
 40
0.0
 40
0.0
 40
0.1889457468
 40
0.3710859873
 40
0.5398866996
 40
0.6173572174
 40
0.6892629522
 40
0.7549605932
 40
0.8138564713
 40
0.8654230019
 40
0.9092011294
 40
0.9447974495
 40
0.9594308322
 40
0.9719108137
 40
0.9822118114
 40
0.9903224061
 40
0.9962415886
 40
1.0
 40
1.0
 40
1.0
 40
1.0
 10
76.2489589566
 20
106.6986034154
 30
0.0
 10
76.9100652424
 20
106.7166408439
 30
0.0
 10
78.2084661202
 20
106.7520606651
 30
0.0
 10
80.0974359571
 20
106.805457122
 30
0.0
 10
81.5962822419
 20
106.8510135982
 30
0.0
 10
82.709354944
 20
106.8881291798
 30
0.0
 10
83.461677906
 20
106.9151388084
 30
0.0
 10
84.1489422188
 20
106.9421031958
 30
0.0
 10
84.7649564652
 20
106.9690122054
 30
0.0
 10
85.3041726182
 20
106.9958216477
 30
0.0
 10
85.7617213539
 20
107.0225096657
 30
0.0
 10
86.0899686193
 20
107.0457733241
 30
0.0
 10
86.3086239133
 20
107.0649932212
 30
0.0
 10
86.43891428
 20
107.0783836568
 30
0.0
 10
86.5461949378
 20
107.0917217729
 30
0.0
 10
86.6304505451
 20
107.1048046108
 30
0.0
 10
86.6912067526
 20
107.1178014949
 30
0.0
 10
86.7239327227
 20
107.1278578844
 30
0.0
 10
86.7355091855
 20
107.1341066342
 30
0.0
  0
SPLINE
  5
421
100
AcDbEntity
  8
DEF_LAYER_ASSEM_MEMBER
100
AcDbSpline
 62
7
  6
CONTINUOUS
 70
0
 71
3
 72
26
 73
22
 74
0
 42
0.0000001
 43
0.0000001
 44
0.0000000001
 40
0.0
 40
0.0
 40
0.0
 40
0.0
 40
0.0017978451
 40
0.0034411745
 40
0.0056457344
 40
0.0117899326
 40
0.0202712695
 40
0.0310855991
 40
0.0442186026
 40
0.0596434448
 40
0.0773228122
 40
0.1192843985
 40
0.1697073438
 40
0.22811556
 40
0.2939437354
 40
0.3665633724
 40
0.4452759114
 40
0.5293264627
 40
0.6179111192
 40
0.8052101768
 40
1.0
 40
1.0
 40
1.0
 40
1.0
 10
65.7489736536
 20
108.0486034294
 30
0.0
 10
65.7489799659
 20
108.0549081891
 30
0.0
 10
65.7616426025
 20
108.0634204739
 30
0.0
 10
65.7788813346
 20
108.0705520202
 30
0.0
 10
65.812944662
 20
108.0810914866
 30
0.0
 10
65.8704530474
 20
108.0928279956
 30
0.0
 10
65.9588003404
 20
108.1065474435
 30
0.0
 10
66.071643043
 20
108.1202356499
 30
0.0
 10
66.2090471239
 20
108.1340950428
 30
0.0
 10
66.3705942298
 20
108.1479865516
 30
0.0
 10
66.6331047091
 20
108.1677179102
 30
0.0
 10
67.0183448369
 20
108.1917372699
 30
0.0
 10
67.5464330958
 20
108.2193886723
 30
0.0
 10
68.1583111479
 20
108.2471358195
 30
0.0
 10
68.8480952057
 20
108.2749696615
 30
0.0
 10
69.6091335476
 20
108.3028501185
 30
0.0
 10
70.4341126991
 20
108.3307669865
 30
0.0
 10
71.3151075489
 20
108.3587109291
 30
0.0
 10
72.5767696155
 20
108.3966986226
 30
0.0
 10
74.2266877352
 20
108.443429776
 30
0.0
 10
75.5661154825
 20
108.4799729158
 30
0.0
 10
76.2489589566
 20
108.4986034154
 30
0.0
  0
SPLINE
  5
422
100
AcDbEntity
  8
DEF_LAYER_ASSEM_MEMBER
100
AcDbSpline
 62
7
  6
CONTINUOUS
 70
0
 71
3
 72
26
 73
22
 74
0
 42
0.0000001
 43
0.0000001
 44
0.0000000001
 40
0.0
 40
0.0
 40
0.0
 40
0.0
 40
0.0017969292
 40
0.0034403225
 40
0.0056458367
 40
0.011790733
 40
0.0202708022
 40
0.0310850394
 40
0.0442193232
 40
0.0596433194
 40
0.0773220405
 40
0.1192847153
 40
0.169707342
 40
0.2281151766
 40
0.293943698
 40
0.3665624266
 40
0.4452752349
 40
0.5293259702
 40
0.6179106819
 40
0.8052100377
 40
1.0
 40
1.0
 40
1.0
 40
1.0
 10
65.7489786149
 20
106.2486034146
 30
0.0
 10
65.7489779834
 20
106.2549049651
 30
0.0
 10
65.7616358783
 20
106.2634248985
 30
0.0
 10
65.7788753519
 20
106.2705524815
 30
0.0
 10
65.8129465732
 20
106.2810892724
 30
0.0
 10
65.8704554093
 20
106.2928265174
 30
0.0
 10
65.9588002228
 20
106.3065487903
 30
0.0
 10
66.0716426406
 20
106.3202363202
 30
0.0
 10
66.2090481551
 20
106.334093601
 30
0.0
 10
66.3705943268
 20
106.3479868876
 30
0.0
 10
66.6331033638
 20
106.3677185224
 30
0.0
 10
67.0183439726
 20
106.3917365543
 30
0.0
 10
67.5464335081
 20
106.4193887878
 30
0.0
 10
68.1583102737
 20
106.4471359368
 30
0.0
 10
68.848090991
 20
106.4749691284
 30
0.0
 10
69.609128223
 20
106.5028502218
 30
0.0
 10
70.4341057327
 20
106.5307665876
 30
0.0
 10
71.3151022911
 20
106.5587107964
 30
0.0
 10
72.5767661477
 20
106.5966984914
 30
0.0
 10
74.2266858673
 20
106.6434297416
 30
0.0
 10
75.5661150464
 20
106.6799729039
 30
0.0
 10
76.2489589566
 20
106.6986034154
 30
0.0
  0
SPLINE
  5
423
100
AcDbEntity
  8
DEF_LAYER_ASSEM_MEMBER
100
AcDbSpline
 62
7
  6
CONTINUOUS
 70
0
 71
3
 72
23
 73
19
 74
0
 42
0.0000001
 43
0.0000001
 44
0.0000000001
 40
0.0
 40
0.0
 40
0.0
 40
0.0
 40
0.1889455478
 40
0.3710853292
 40
0.5398860294
 40
0.6173566584
 40
0.6892625981
 40
0.7549603493
 40
0.8138562604
 40
0.8654227437
 40
0.9092009182
 40
0.9447972772
 40
0.9594307295
 40
0.971910712
 40
0.982211749
 40
0.9903224188
 40
0.9962416248
 40
1.0
 40
1.0
 40
1.0
 40
1.0
 10
76.2489589566
 20
108.4986034154
 30
0.0
 10
76.9100645221
 20
108.5166408243
 30
0.0
 10
78.2084630499
 20
108.5520605794
 30
0.0
 10
80.0974304731
 20
108.6054569691
 30
0.0
 10
81.5962754448
 20
108.6510133789
 30
0.0
 10
82.7093491705
 20
108.688128985
 30
0.0
 10
83.4616735973
 20
108.7151386403
 30
0.0
 10
84.1489391016
 20
108.7421030825
 30
0.0
 10
84.7649536639
 20
108.7690120476
 30
0.0
 10
85.304169909
 20
108.7958215342
 30
0.0
 10
85.7617187701
 20
108.8225094534
 30
0.0
 10
86.0899665604
 20
108.8457732104
 30
0.0
 10
86.3086222403
 20
108.8649930123
 30
0.0
 10
86.4389129788
 20
108.8783835392
 30
0.0
 10
86.5461940392
 20
108.8917216817
 30
0.0
 10
86.6304501234
 20
108.9048045146
 30
0.0
 10
86.6912065943
 20
108.917801281
 30
0.0
 10
86.7239324385
 20
108.9278579068
 30
0.0
 10
86.7355087685
 20
108.9341066348
 30
0.0
  0
SPLINE
  5
424
100
AcDbEntity
  8
DEF_LAYER_ASSEM_MEMBER
100
AcDbSpline
 62
7
  6
CONTINUOUS
 70
0
 71
3
 72
26
 73
22
 74
0
 42
0.0000001
 43
0.0000001
 44
0.0000000001
 40
0.0
 40
0.0
 40
0.0
 40
0.0
 40
0.0017969713
 40
0.0034403505
 40
0.0056458287
 40
0.0117908046
 40
0.0202710155
 40
0.031085263
 40
0.0442195684
 40
0.0596437153
 40
0.0773225117
 40
0.1192851662
 40
0.1697076293
 40
0.2281150889
 40
0.2939431396
 40
0.3665615687
 40
0.4452743563
 40
0.5293252309
 40
0.61791007
 40
0.8052097049
 40
1.0
 40
1.0
 40
1.0
 40
1.0
 10
65.7489781408
 20
104.4486034151
 30
0.0
 10
65.7489779218
 20
104.4549051134
 30
0.0
 10
65.7616359225
 20
104.4634246062
 30
0.0
 10
65.7788753476
 20
104.470552482
 30
0.0
 10
65.8129465853
 20
104.4810894473
 30
0.0
 10
65.8704561525
 20
104.4928265555
 30
0.0
 10
65.9588017663
 20
104.5065488334
 30
0.0
 10
66.0716447793
 20
104.5202365912
 30
0.0
 10
66.2090509306
 20
104.5340939628
 30
0.0
 10
66.3705979873
 20
104.5479871463
 30
0.0
 10
66.6331077522
 20
104.5677187902
 30
0.0
 10
67.018347991
 20
104.5917367917
 30
0.0
 10
67.5464355823
 20
104.6193888994
 30
0.0
 10
68.1583088273
 20
104.6471358689
 30
0.0
 10
68.8480855465
 20
104.6749689268
 30
0.0
 10
69.6091200245
 20
104.7028499306
 30
0.0
 10
70.4340969189
 20
104.7307662977
 30
0.0
 10
71.3150943596
 20
104.7587105543
 30
0.0
 10
72.5767601587
 20
104.7966983199
 30
0.0
 10
74.2266825084
 20
104.8434296495
 30
0.0
 10
75.566113864
 20
104.8799728716
 30
0.0
 10
76.2489589566
 20
104.8986034154
 30
0.0
  0
SPLINE
  5
425
100
AcDbEntity
  8
DEF_LAYER_ASSEM_MEMBER
100
AcDbSpline
 62
7
  6
CONTINUOUS
 70
0
 71
3
 72
42
 73
38
 74
0
 42
0.0000001
 43
0.0000001
 44
0.0000000001
 40
0.0
 40
0.0
 40
0.0
 40
0.0
 40
0.000881458
 40
0.001683237
 40
0.0027573137
 40
0.0057471097
 40
0.0098743723
 40
0.0151381859
 40
0.0215290449
 40
0.0290354069
 40
0.0376423343
 40
0.0580722659
 40
0.0826344267
 40
0.1110988764
 40
0.1432035785
 40
0.1786471853
 40
0.2170993394
 40
0.25820159
 40
0.3015681998
 40
0.3934584301
 40
0.4893425249
 40
0.5856380091
 40
0.6787492372
 40
0.7652053791
 40
0.8049153898
 40
0.8417782835
 40
0.875447041
 40
0.9056093951
 40
0.9319837586
 40
0.9543256037
 40
0.9724314255
 40
0.9798415796
 40
0.9861353125
 40
0.9913010622
 40
0.9953295458
 40
0.9982212578
 40
1.0
 40
1.0
 40
1.0
 40
1.0
 10
235.9009424321
 20
105.2951725532
 30
0.0
 10
235.9009424321
 20
105.2889950378
 30
0.0
 10
235.8886639526
 20
105.280588284
 30
0.0
 10
235.8718497307
 20
105.2735458114
 30
0.0
 10
235.8387533501
 20
105.2631555524
 30
0.0
 10
235.782843168
 20
105.2515675418
 30
0.0
 10
235.6969493734
 20
105.2380401768
 30
0.0
 10
235.58722041
 20
105.224547306
 30
0.0
 10
235.4536033593
 20
105.2108815615
 30
0.0
 10
235.2964866694
 20
105.1971837067
 30
0.0
 10
235.0411139794
 20
105.1777333736
 30
0.0
 10
234.6662128793
 20
105.1540416203
 30
0.0
 10
234.1521250343
 20
105.1267837928
 30
0.0
 10
233.5561238736
 20
105.0994217493
 30
0.0
 10
232.8837961392
 20
105.0719811372
 30
0.0
 10
232.1414213921
 20
105.0444899372
 30
0.0
 10
231.3359510808
 20
105.0169638134
 30
0.0
 10
230.4749248177
 20
104.9894127686
 30
0.0
 10
229.239516837
 20
104.9519285936
 30
0.0
 10
227.6202690829
 20
104.9058115762
 30
0.0
 10
225.6301688641
 20
104.8513879099
 30
0.0
 10
223.6315082007
 20
104.796963393
 30
0.0
 10
221.6989448889
 20
104.7425962346
 30
0.0
 10
220.162882107
 20
104.6962224258
 30
0.0
 10
219.0209513439
 20
104.6584238279
 30
0.0
 10
218.2488344553
 20
104.6309138926
 30
0.0
 10
217.5436742511
 20
104.6034471297
 30
0.0
 10
216.9120801047
 20
104.5760410752
 30
0.0
 10
216.3599439879
 20
104.5487436492
 30
0.0
 10
215.8924220642
 20
104.5215638068
 30
0.0
 10
215.5578326948
 20
104.4978750404
 30
0.0
 10
215.3357665853
 20
104.4782721074
 30
0.0
 10
215.2042015632
 20
104.4646429411
 30
0.0
 10
215.0965474438
 20
104.4510689665
 30
0.0
 10
215.0127407078
 20
104.4378009231
 30
0.0
 10
214.9534493119
 20
104.4245707298
 30
0.0
 10
214.9218178222
 20
104.4143705186
 30
0.0
 10
214.9112082394
 20
104.4078255552
 30
0.0
  0
SPLINE
  5
426
100
AcDbEntity
  8
DEF_LAYER_ASSEM_MEMBER
100
AcDbSpline
 62
7
  6
CONTINUOUS
 70
0
 71
3
 72
42
 73
38
 74
0
 42
0.0000001
 43
0.0000001
 44
0.0000000001
 40
0.0
 40
0.0
 40
0.0
 40
0.0
 40
0.0008789907
 40
0.0016778895
 40
0.0027479441
 40
0.005726266
 40
0.0098375399
 40
0.0150810393
 40
0.0214472346
 40
0.0289245426
 40
0.0374983939
 40
0.05785064
 40
0.0823206326
 40
0.1106801661
 40
0.1426693744
 40
0.1779895774
 40
0.2163135041
 40
0.257284724
 40
0.3005202797
 40
0.3921585729
 40
0.487823747
 40
0.5839586406
 40
0.6769901041
 40
0.7634615162
 40
0.8032191737
 40
0.8401579401
 40
0.8739317986
 40
0.9042293758
 40
0.9307690893
 40
0.9533051725
 40
0.9716326025
 40
0.9791634357
 40
0.9855837817
 40
0.9908819547
 40
0.9950482206
 40
0.9980811877
 40
1.0
 40
1.0
 40
1.0
 40
1.0
 10
214.9009424321
 20
103.9986034154
 30
0.0
 10
214.9009424321
 20
104.0047625638
 30
0.0
 10
214.9131621268
 20
104.0131550586
 30
0.0
 10
214.929915358
 20
104.020184885
 30
0.0
 10
214.9628728906
 20
104.0305535242
 30
0.0
 10
215.018555516
 20
104.042118167
 30
0.0
 10
215.1040978983
 20
104.0556181382
 30
0.0
 10
215.2133809801
 20
104.0690832704
 30
0.0
 10
215.3464556846
 20
104.0827208984
 30
0.0
 10
215.5029367677
 20
104.0963908384
 30
0.0
 10
215.7572851125
 20
104.1158011512
 30
0.0
 10
216.13069884
 20
104.1394441311
 30
0.0
 10
216.6427716398
 20
104.1666458407
 30
0.0
 10
217.2364786013
 20
104.1939511979
 30
0.0
 10
217.9062799937
 20
104.2213346975
 30
0.0
 10
218.6459528605
 20
104.2487691974
 30
0.0
 10
219.4486014645
 20
104.2762384596
 30
0.0
 10
220.3067427564
 20
104.3037330783
 30
0.0
 10
221.5383337034
 20
104.3411437255
 30
0.0
 10
223.1530818246
 20
104.3871711857
 30
0.0
 10
225.1384112068
 20
104.4414844589
 30
0.0
 10
227.133506365
 20
104.4957999208
 30
0.0
 10
229.0641572945
 20
104.5500600127
 30
0.0
 10
230.5998366284
 20
104.5963318749
 30
0.0
 10
231.7425438577
 20
104.6340402452
 30
0.0
 10
232.516130735
 20
104.6614948356
 30
0.0
 10
233.2233869794
 20
104.6889074089
 30
0.0
 10
233.8577182159
 20
104.7162612429
 30
0.0
 10
234.4132309513
 20
104.743511014
 30
0.0
 10
234.8847535138
 20
104.7706462107
 30
0.0
 10
235.2230533967
 20
104.7942886174
 30
0.0
 10
235.4483863758
 20
104.813829735
 30
0.0
 10
235.5825979601
 20
104.8274435145
 30
0.0
 10
235.6930525266
 20
104.8409989246
 30
0.0
 10
235.7797165762
 20
104.8542892134
 30
0.0
 10
235.8420806197
 20
104.8675155368
 30
0.0
 10
235.8756334146
 20
104.8777304657
 30
0.0
 10
235.8874706184
 20
104.8841066228
 30
0.0
  0
SPLINE
  5
427
100
AcDbEntity
  8
DEF_LAYER_ASSEM_MEMBER
100
AcDbSpline
 62
7
  6
CONTINUOUS
 70
0
 71
3
 72
18
 73
14
 74
0
 42
0.0000001
 43
0.0000001
 44
0.0000000001
 40
0.0
 40
0.0
 40
0.0
 40
0.0
 40
0.2120894976
 40
0.4027146945
 40
0.5697285806
 40
0.7114187271
 40
0.8262696671
 40
0.8732490821
 40
0.9130942732
 40
0.9457184987
 40
0.9710635947
 40
0.9891116081
 40
1.0
 40
1.0
 40
1.0
 40
1.0
 10
218.6516725304
 20
106.4451725532
 30
0.0
 10
218.3865832111
 20
106.4357310401
 30
0.0
 10
217.8832577827
 20
106.4170748734
 30
0.0
 10
217.1713072925
 20
106.3877652123
 30
0.0
 10
216.5474794119
 20
106.3585676835
 30
0.0
 10
216.0185404715
 20
106.3295075841
 30
0.0
 10
215.6397507886
 20
106.3041722536
 30
0.0
 10
215.3883958378
 20
106.2831996523
 30
0.0
 10
215.2396841318
 20
106.2686296299
 30
0.0
 10
215.1182664635
 20
106.2541035534
 30
0.0
 10
215.0240627916
 20
106.2399653455
 30
0.0
 10
214.9579568111
 20
106.2258027188
 30
0.0
 10
214.9227881522
 20
106.2149786909
 30
0.0
 10
214.9112001613
 20
106.2078255565
 30
0.0
  0
SPLINE
  5
428
100
AcDbEntity
  8
DEF_LAYER_ASSEM_MEMBER
100
AcDbSpline
 62
7
  6
CONTINUOUS
 70
0
 71
3
 72
28
 73
24
 74
0
 42
0.0000001
 43
0.0000001
 44
0.0000000001
 40
0.0
 40
0.0
 40
0.0
 40
0.0
 40
0.0007010732
 40
0.0019890257
 40
0.0067115197
 40
0.014401383
 40
0.0250512309
 40
0.0386197841
 40
0.0550453103
 40
0.0742454284
 40
0.0961287633
 40
0.1205833191
 40
0.1474904293
 40
0.2081071997
 40
0.276766482
 40
0.3520909881
 40
0.4325683569
 40
0.5165854616
 40
0.6024588416
 40
0.6884658097
 40
0.7728811807
 40
0.8540069506
 40
1.0
 40
1.0
 40
1.0
 40
1.0
 10
235.9009424321
 20
107.0951725532
 30
0.0
 10
235.9009424321
 20
107.0911359946
 30
0.0
 10
235.8917881474
 20
107.0815004199
 30
0.0
 10
235.8567415561
 20
107.0674600074
 30
0.0
 10
235.7785467975
 20
107.0498985617
 30
0.0
 10
235.647668112
 20
107.0312138525
 30
0.0
 10
235.4647171964
 20
107.0115034663
 30
0.0
 10
235.2316311768
 20
106.991727278
 30
0.0
 10
234.9490502326
 20
106.9717319576
 30
0.0
 10
234.6185483256
 20
106.9516713788
 30
0.0
 10
234.2417313447
 20
106.9315531254
 30
0.0
 10
233.820491435
 20
106.911393842
 30
0.0
 10
233.1763627325
 20
106.8833578217
 30
0.0
 10
232.2777630057
 20
106.8489426738
 30
0.0
 10
231.1004149431
 20
106.8089381521
 30
0.0
 10
229.8086591873
 20
106.7688414713
 30
0.0
 10
228.4284408213
 20
106.7286790801
 30
0.0
 10
226.9874620608
 20
106.6884805541
 30
0.0
 10
225.5146340943
 20
106.6482649559
 30
0.0
 10
224.039512488
 20
106.6080439908
 30
0.0
 10
222.5917349633
 20
106.5678528286
 30
0.0
 10
220.7987690998
 20
106.5160390114
 30
0.0
 10
219.4917218455
 20
106.475092041
 30
0.0
 10
218.6516725304
 20
106.4451725532
 30
0.0
  0
SPLINE
  5
429
100
AcDbEntity
  8
DEF_LAYER_ASSEM_MEMBER
100
AcDbSpline
 62
7
  6
CONTINUOUS
 70
0
 71
3
 72
42
 73
38
 74
0
 42
0.0000001
 43
0.0000001
 44
0.0000000001
 40
0.0
 40
0.0
 40
0.0
 40
0.0
 40
0.0017789465
 40
0.0046707047
 40
0.0086989397
 40
0.0138647945
 40
0.0201586863
 40
0.027568508
 40
0.0456742433
 40
0.0680158486
 40
0.094391508
 40
0.1245532343
 40
0.1582222495
 40
0.19508332
 40
0.2347921159
 40
0.3212462783
 40
0.4143587501
 40
0.5106537804
 40
0.6065365525
 40
0.6984278332
 40
0.7417959958
 40
0.7828979766
 40
0.8213513574
 40
0.8567954697
 40
0.8888999219
 40
0.91736586
 40
0.9419267369
 40
0.9623581393
 40
0.9709636238
 40
0.9784699675
 40
0.9848620007
 40
0.9901255295
 40
0.9942518203
 40
0.9972424324
 40
0.9983169917
 40
0.9991189489
 40
1.0
 40
1.0
 40
1.0
 40
1.0
 10
214.9112116235
 20
109.8078255553
 30
0.0
 10
214.9218232244
 20
109.8143699711
 30
0.0
 10
214.9534563679
 20
109.8245696334
 30
0.0
 10
215.0127478292
 20
109.8378002803
 30
0.0
 10
215.0965534137
 20
109.8510705693
 30
0.0
 10
215.20420777
 20
109.864643901
 30
0.0
 10
215.3357723189
 20
109.8782724928
 30
0.0
 10
215.5578365269
 20
109.8978759467
 30
0.0
 10
215.8924213604
 20
109.921562605
 30
0.0
 10
216.3599498645
 20
109.9487448435
 30
0.0
 10
216.9120889932
 20
109.9760403938
 30
0.0
 10
217.5436894197
 20
110.0034487786
 30
0.0
 10
218.2488342295
 20
110.030912878
 30
0.0
 10
219.0209314573
 20
110.0584236371
 30
0.0
 10
220.1628269148
 20
110.096220178
 30
0.0
 10
221.6988757401
 20
110.1425945351
 30
0.0
 10
223.6314303971
 20
110.1969612858
 30
0.0
 10
225.6300869851
 20
110.2513858035
 30
0.0
 10
227.6201817905
 20
110.3058089893
 30
0.0
 10
229.239438211
 20
110.3519272454
 30
0.0
 10
230.4748623847
 20
110.3894100938
 30
0.0
 10
231.3359060419
 20
110.4169629712
 30
0.0
 10
232.1413864845
 20
110.4444886176
 30
0.0
 10
232.8837715164
 20
110.4719796382
 30
0.0
 10
233.556111255
 20
110.499422669
 30
0.0
 10
234.1521121949
 20
110.5267810404
 30
0.0
 10
234.6662113221
 20
110.5540452925
 30
0.0
 10
235.041104117
 20
110.5777284903
 30
0.0
 10
235.2964764556
 20
110.5971838375
 30
0.0
 10
235.4535909597
 20
110.6108833977
 30
0.0
 10
235.5872141952
 20
110.6245475439
 30
0.0
 10
235.6969429575
 20
110.6380392711
 30
0.0
 10
235.7828324352
 20
110.6515709081
 30
0.0
 10
235.8387474912
 20
110.6631483852
 30
0.0
 10
235.8718545993
 20
110.6735378375
 30
0.0
 10
235.888675205
 20
110.6805708806
 30
0.0
 10
235.9009406133
 20
110.6889979327
 30
0.0
 10
235.9009312485
 20
110.6951725882
 30
0.0
  0
SPLINE
  5
42A
100
AcDbEntity
  8
DEF_LAYER_ASSEM_MEMBER
100
AcDbSpline
 62
7
  6
CONTINUOUS
 70
0
 71
3
 72
18
 73
14
 74
0
 42
0.0000001
 43
0.0000001
 44
0.0000000001
 40
0.0
 40
0.0
 40
0.0
 40
0.0
 40
0.0117459947
 40
0.0305071707
 40
0.0564376663
 40
0.089530444
 40
0.1297210851
 40
0.1769305652
 40
0.2919257077
 40
0.4333100103
 40
0.5996559591
 40
0.7893009028
 40
1.0
 40
1.0
 40
1.0
 40
1.0
 10
216.126535872
 20
106.9589185889
 30
0.0
 10
216.1375888069
 20
106.9657456178
 30
0.0
 10
216.1700294887
 20
106.9766465473
 30
0.0
 10
216.2306572462
 20
106.9906945717
 30
0.0
 10
216.3156599166
 20
107.0048260766
 30
0.0
 10
216.4244094507
 20
107.0192493753
 30
0.0
 10
216.5569114195
 20
107.0337398704
 30
0.0
 10
216.7797960687
 20
107.0545470715
 30
0.0
 10
217.1146559497
 20
107.0797047466
 30
0.0
 10
217.581312228
 20
107.1085807728
 30
0.0
 10
218.130663489
 20
107.1375868449
 30
0.0
 10
218.7567629351
 20
107.1666973683
 30
0.0
 10
219.1991668584
 20
107.1852364563
 30
0.0
 10
219.4320166885
 20
107.1946139314
 30
0.0
  0
SPLINE
  5
42B
100
AcDbEntity
  8
DEF_LAYER_ASSEM_MEMBER
100
AcDbSpline
 62
7
  6
CONTINUOUS
 70
0
 71
3
 72
42
 73
38
 74
0
 42
0.0000001
 43
0.0000001
 44
0.0000000001
 40
0.0
 40
0.0
 40
0.0
 40
0.0
 40
0.0008789786
 40
0.0016778606
 40
0.0027478941
 40
0.0057261696
 40
0.0098373857
 40
0.0150807671
 40
0.0214468343
 40
0.0289240638
 40
0.0374978057
 40
0.0578497785
 40
0.0823195817
 40
0.1106790312
 40
0.1426682401
 40
0.1779882682
 40
0.2163117263
 40
0.257282618
 40
0.3005179393
 40
0.3921561628
 40
0.4878217721
 40
0.5839568152
 40
0.6769882388
 40
0.7634601812
 40
0.8032182277
 40
0.8401574172
 40
0.8739315552
 40
0.9042292677
 40
0.9307690103
 40
0.9533051034
 40
0.9716325663
 40
0.9791634086
 40
0.9855837644
 40
0.9908819452
 40
0.9950482144
 40
0.9980811846
 40
1.0
 40
1.0
 40
1.0
 40
1.0
 10
214.9009424321
 20
105.7986034154
 30
0.0
 10
214.9009424321
 20
105.8047624797
 30
0.0
 10
214.9131616835
 20
105.8131550197
 30
0.0
 10
214.9299146276
 20
105.8201848162
 30
0.0
 10
214.962871521
 20
105.8305534003
 30
0.0
 10
215.0185533162
 20
105.8421178755
 30
0.0
 10
215.1040941527
 20
105.8556175517
 30
0.0
 10
215.2133751014
 20
105.8690826205
 30
0.0
 10
215.3464475281
 20
105.8827201622
 30
0.0
 10
215.5029264052
 20
105.896389927
 30
0.0
 10
215.7572715127
 20
105.9158002014
 30
0.0
 10
216.130681226
 20
105.9394431788
 30
0.0
 10
216.6427501981
 20
105.9666447711
 30
0.0
 10
217.2364552461
 20
105.9939501707
 30
0.0
 10
217.9062548288
 20
106.0213337242
 30
0.0
 10
218.6459231942
 20
106.0487681295
 30
0.0
 10
219.4485649931
 20
106.0762372891
 30
0.0
 10
220.3066990661
 20
106.1037316882
 30
0.0
 10
221.5382855863
 20
106.1411423429
 30
0.0
 10
223.153034632
 20
106.1871698614
 30
0.0
 10
225.138367629
 20
106.2414832825
 30
0.0
 10
227.1334666125
 20
106.2957988196
 30
0.0
 10
229.0641220327
 20
106.3500589945
 30
0.0
 10
230.5998075359
 20
106.3963309328
 30
0.0
 10
231.7425241727
 20
106.4340395877
 30
0.0
 10
232.5161187006
 20
106.4614943805
 30
0.0
 10
233.2233808161
 20
106.4889071617
 30
0.0
 10
233.8577151635
 20
106.5162611003
 30
0.0
 10
234.413229123
 20
106.5435109031
 30
0.0
 10
234.8847521891
 20
106.5706461446
 30
0.0
 10
235.2230524396
 20
106.5942885365
 30
0.0
 10
235.4483857819
 20
106.6138296789
 30
0.0
 10
235.5825975536
 20
106.6274434663
 30
0.0
 10
235.6930522671
 20
106.6409988819
 30
0.0
 10
235.7797164143
 20
106.6542891935
 30
0.0
 10
235.8420805238
 20
106.6675155316
 30
0.0
 10
235.8756333624
 20
106.6777304639
 30
0.0
 10
235.8874705897
 20
106.6841066228
 30
0.0
  0
SPLINE
  5
42C
100
AcDbEntity
  8
DEF_LAYER_ASSEM_MEMBER
100
AcDbSpline
 62
7
  6
CONTINUOUS
 70
0
 71
3
 72
28
 73
24
 74
0
 42
0.0000001
 43
0.0000001
 44
0.0000000001
 40
0.0
 40
0.0
 40
0.0
 40
0.0
 40
0.1631207751
 40
0.3349325671
 40
0.4208634298
 40
0.5050528787
 40
0.5862029772
 40
0.6630554637
 40
0.7344107541
 40
0.7991455219
 40
0.8562332449
 40
0.8816203983
 40
0.9047624562
 40
0.9255687625
 40
0.9439519524
 40
0.9598391229
 40
0.9731652998
 40
0.98387419
 40
0.9919271378
 40
0.9949477423
 40
0.9972956705
 40
0.9989747804
 40
1.0
 40
1.0
 40
1.0
 40
1.0
 10
230.1536866909
 20
103.1797392464
 30
0.0
 10
229.343886053
 20
103.1645490267
 30
0.0
 10
227.6811053885
 20
103.1351570957
 30
0.0
 10
225.5916921479
 20
103.0998352209
 30
0.0
 10
223.8941452621
 20
103.0708409844
 30
0.0
 10
222.6467032201
 20
103.0490554051
 30
0.0
 10
221.4443456095
 20
103.0272387876
 30
0.0
 10
220.3057248158
 20
103.0053985225
 30
0.0
 10
219.2486270324
 20
102.9835484901
 30
0.0
 10
218.289690041
 20
102.9617005168
 30
0.0
 10
217.5589910889
 20
102.9428671077
 30
0.0
 10
217.0347956715
 20
102.9275222322
 30
0.0
 10
216.6907011181
 20
102.9164675943
 30
0.0
 10
216.381403015
 20
102.9054211082
 30
0.0
 10
216.1081517006
 20
102.894388185
 30
0.0
 10
215.8720773648
 20
102.8833763978
 30
0.0
 10
215.6741446053
 20
102.8724382759
 30
0.0
 10
215.5151986233
 20
102.861546275
 30
0.0
 10
215.4074200921
 20
102.8520249912
 30
0.0
 10
215.3412961255
 20
102.8439097574
 30
0.0
 10
215.3066521962
 20
102.8385432703
 30
0.0
 10
215.2822409774
 20
102.8331876491
 30
0.0
 10
215.2692370511
 20
102.8290676974
 30
0.0
 10
215.26490407
 20
102.8263958687
 30
0.0
  0
SPLINE
  5
42D
100
AcDbEntity
  8
DEF_LAYER_ASSEM_MEMBER
100
AcDbSpline
 62
7
  6
CONTINUOUS
 70
0
 71
3
 72
21
 73
17
 74
0
 42
0.0000001
 43
0.0000001
 44
0.0000000001
 40
0.0
 40
0.0
 40
0.0
 40
0.0
 40
0.2150694224
 40
0.4105460669
 40
0.5826434648
 40
0.6589223284
 40
0.7281860685
 40
0.7901111019
 40
0.8444130396
 40
0.890832011
 40
0.9291695286
 40
0.9592488155
 40
0.9809677988
 40
0.9943252862
 40
0.9979797693
 40
1.0
 40
1.0
 40
1.0
 40
1.0
 10
230.1536866909
 20
103.1797392464
 30
0.0
 10
230.5668694087
 20
103.1923816756
 30
0.0
 10
231.3555704691
 20
103.2173054799
 30
0.0
 10
232.4747739374
 20
103.2561411581
 30
0.0
 10
233.3272354789
 20
103.2895689034
 30
0.0
 10
233.937152794
 20
103.3167963637
 30
0.0
 10
234.3354380947
 20
103.3363622149
 30
0.0
 10
234.691432721
 20
103.3558932729
 30
0.0
 10
235.0034344423
 20
103.375358876
 30
0.0
 10
235.2700451773
 20
103.3947694043
 30
0.0
 10
235.489851779
 20
103.4139704014
 30
0.0
 10
235.662297382
 20
103.4330819887
 30
0.0
 10
235.7857034671
 20
103.4512769874
 30
0.0
 10
235.8593231976
 20
103.4682313112
 30
0.0
 10
235.8924521063
 20
103.4819688166
 30
0.0
 10
235.9009198246
 20
103.4912895513
 30
0.0
 10
235.9009194999
 20
103.4951725536
 30
0.0
  0
SPLINE
  5
42E
100
AcDbEntity
  8
DEF_LAYER_ASSEM_MEMBER
100
AcDbSpline
 62
7
  6
CONTINUOUS
 70
0
 71
3
 72
39
 73
35
 74
0
 42
0.0000001
 43
0.0000001
 44
0.0000000001
 40
0.0
 40
0.0
 40
0.0
 40
0.0
 40
0.0018898939
 40
0.0048442654
 40
0.0088850413
 40
0.0140131236
 40
0.0202236088
 40
0.0275066321
 40
0.045222365
 40
0.0670122233
 40
0.0926817442
 40
0.122006346
 40
0.1547206437
 40
0.1905354979
 40
0.2291267854
 40
0.3132387483
 40
0.4040449344
 40
0.4982926621
 40
0.5926054721
 40
0.6836045916
 40
0.7680304755
 40
0.8068221481
 40
0.8428603329
 40
0.875824443
 40
0.9054175603
 40
0.9313768586
 40
0.9534709785
 40
0.9715052923
 40
0.9789502954
 40
0.9853272346
 40
0.990622682
 40
0.9948291481
 40
0.9979489081
 40
1.0
 40
1.0
 40
1.0
 40
1.0
 10
216.1265318847
 20
105.1589185047
 30
0.0
 10
216.1364842044
 20
105.1650750415
 30
0.0
 10
216.165136916
 20
105.1751879671
 30
0.0
 10
216.2184731393
 20
105.1881410042
 30
0.0
 10
216.2925030054
 20
105.2012207816
 30
0.0
 10
216.3867807459
 20
105.2145283496
 30
0.0
 10
216.5013310653
 20
105.2278990632
 30
0.0
 10
216.6936326154
 20
105.2470780844
 30
0.0
 10
216.9824505145
 20
105.2703004098
 30
0.0
 10
217.3851535399
 20
105.29693509
 30
0.0
 10
217.8598696061
 20
105.3236946242
 30
0.0
 10
218.4023173677
 20
105.3505485811
 30
0.0
 10
219.0076529833
 20
105.3774641126
 30
0.0
 10
219.6704192344
 20
105.4044183435
 30
0.0
 10
220.6512992698
 20
105.4414683325
 30
0.0
 10
221.9726168162
 20
105.48694021
 30
0.0
 10
223.6384984889
 20
105.5402339722
 30
0.0
 10
225.3675748641
 20
105.5935905017
 30
0.0
 10
227.097846425
 20
105.646948626
 30
0.0
 10
228.7672713267
 20
105.7002457751
 30
0.0
 10
230.0929710364
 20
105.745708217
 30
0.0
 10
231.0784225992
 20
105.7827392488
 30
0.0
 10
231.7453626286
 20
105.8096994515
 30
0.0
 10
232.3552951786
 20
105.8366148592
 30
0.0
 10
232.9027524798
 20
105.8634781076
 30
0.0
 10
233.3828173393
 20
105.8902427362
 30
0.0
 10
233.7911828578
 20
105.9168941835
 30
0.0
 10
234.0848740696
 20
105.9401111358
 30
0.0
 10
234.2812043762
 20
105.9592745151
 30
0.0
 10
234.3988396729
 20
105.972653556
 30
0.0
 10
234.4962484428
 20
105.9859704399
 30
0.0
 10
234.5733745145
 20
105.99909295
 30
0.0
 10
234.6298828636
 20
106.0120926126
 30
0.0
 10
234.6605716985
 20
106.0221968802
 30
0.0
 10
234.6717503882
 20
106.0282257574
 30
0.0
  0
SPLINE
  5
42F
100
AcDbEntity
  8
DEF_LAYER_ASSEM_MEMBER
100
AcDbSpline
 62
7
  6
CONTINUOUS
 70
0
 71
3
 72
24
 73
20
 74
0
 42
0.0000001
 43
0.0000001
 44
0.0000000001
 40
0.0
 40
0.0
 40
0.0
 40
0.0
 40
0.0015613166
 40
0.0037003588
 40
0.0097725937
 40
0.0182607752
 40
0.0291574231
 40
0.0424411323
 40
0.0580705916
 40
0.0961691926
 40
0.1429790462
 40
0.1979057993
 40
0.2602413911
 40
0.329188213
 40
0.4038590338
 40
0.4832901039
 40
0.6523023179
 40
0.8275304509
 40
1.0
 40
1.0
 40
1.0
 40
1.0
 10
216.1265340844
 20
110.5589185084
 30
0.0
 10
216.1318501106
 20
110.562206706
 30
0.0
 10
216.1454666604
 20
110.5682813151
 30
0.0
 10
216.1827321
 20
110.5802214655
 30
0.0
 10
216.2483044292
 20
110.5939796149
 30
0.0
 10
216.3489786892
 20
110.6097315825
 30
0.0
 10
216.4788372666
 20
110.6255874862
 30
0.0
 10
216.6374114348
 20
110.641603302
 30
0.0
 10
216.9047201273
 20
110.6645786671
 30
0.0
 10
217.3062881159
 20
110.6923573935
 30
0.0
 10
217.8652219807
 20
110.7242310565
 30
0.0
 10
218.5213160737
 20
110.7562515488
 30
0.0
 10
219.2661205222
 20
110.7883992854
 30
0.0
 10
220.0900342922
 20
110.8206134469
 30
0.0
 10
220.9824360879
 20
110.8528784643
 30
0.0
 10
222.2752887382
 20
110.8968531863
 30
0.0
 10
223.9706206857
 20
110.9506749574
 30
0.0
 10
226.0383144138
 20
111.014132918
 30
0.0
 10
227.4296610542
 20
111.057472528
 30
0.0
 10
228.1197903275
 20
111.0797392464
 30
0.0
  0
SPLINE
  5
430
100
AcDbEntity
  8
DEF_LAYER_ASSEM_MEMBER
100
AcDbSpline
 62
7
  6
CONTINUOUS
 70
0
 71
3
 72
21
 73
17
 74
0
 42
0.0000001
 43
0.0000001
 44
0.0000000001
 40
0.0
 40
0.0
 40
0.0
 40
0.0
 40
0.002316706
 40
0.006052705
 40
0.0116282368
 40
0.0191584179
 40
0.0402221226
 40
0.0693490557
 40
0.1064955903
 40
0.1515843003
 40
0.2044910638
 40
0.2650638552
 40
0.4084996272
 40
0.5801885354
 40
0.7781699873
 40
1.0
 40
1.0
 40
1.0
 40
1.0
 10
214.9009424321
 20
107.5986034154
 30
0.0
 10
214.9009424321
 20
107.6015138423
 30
0.0
 10
214.9056799275
 20
107.6085660471
 30
0.0
 10
214.9184771716
 20
107.6155404579
 30
0.0
 10
214.9382849542
 20
107.6232256038
 30
0.0
 10
214.9797191981
 20
107.6345214011
 30
0.0
 10
215.0510873295
 20
107.6478565014
 30
0.0
 10
215.1597640173
 20
107.662948498
 30
0.0
 10
215.2988519628
 20
107.6782066757
 30
0.0
 10
215.4679335351
 20
107.6935825429
 30
0.0
 10
215.6665451828
 20
107.7090241894
 30
0.0
 10
215.9885616713
 20
107.7309239944
 30
0.0
 10
216.4598016362
 20
107.7575853596
 30
0.0
 10
217.1036776762
 20
107.7882940031
 30
0.0
 10
217.8461311363
 20
107.8191100978
 30
0.0
 10
218.3731689361
 20
107.8386841348
 30
0.0
 10
218.6516725304
 20
107.8486034154
 30
0.0
  0
SPLINE
  5
431
100
AcDbEntity
  8
DEF_LAYER_ASSEM_MEMBER
100
AcDbSpline
 62
7
  6
CONTINUOUS
 70
0
 71
3
 72
39
 73
35
 74
0
 42
0.0000001
 43
0.0000001
 44
0.0000000001
 40
0.0
 40
0.0
 40
0.0
 40
0.0
 40
0.0018915325
 40
0.0048452534
 40
0.0088845929
 40
0.0140135593
 40
0.0202253488
 40
0.027507198
 40
0.0452233293
 40
0.0670124236
 40
0.0926830823
 40
0.1220063367
 40
0.1547220975
 40
0.1905354791
 40
0.2291281167
 40
0.3132398611
 40
0.4040458634
 40
0.4982935275
 40
0.5926064223
 40
0.6836057412
 40
0.7680318479
 40
0.8068222035
 40
0.8428618165
 40
0.8758245413
 40
0.9054189071
 40
0.9313771934
 40
0.9534719389
 40
0.9715060087
 40
0.9789521157
 40
0.9853276675
 40
0.9906223487
 40
0.9948302896
 40
0.9979505943
 40
1.0
 40
1.0
 40
1.0
 40
1.0
 10
216.1265189241
 20
103.3589185667
 30
0.0
 10
216.1364838359
 20
103.3650740285
 30
0.0
 10
216.1651441616
 20
103.3751796402
 30
0.0
 10
216.2184754878
 20
103.3881420824
 30
0.0
 10
216.2924974112
 20
103.4012245707
 30
0.0
 10
216.3867804298
 20
103.4145282759
 30
0.0
 10
216.5013373442
 20
103.427896124
 30
0.0
 10
216.6936414928
 20
103.4470818503
 30
0.0
 10
216.9824503752
 20
103.470298025
 30
0.0
 10
217.3851577926
 20
103.4969373164
 30
0.0
 10
217.8598680568
 20
103.5236925238
 30
0.0
 10
218.4023233152
 20
103.5505507489
 30
0.0
 10
219.0076506605
 20
103.5774622187
 30
0.0
 10
219.6704250108
 20
103.6044200439
 30
0.0
 10
220.6513029793
 20
103.6414667777
 30
0.0
 10
221.9726262035
 20
103.6869407812
 30
0.0
 10
223.638504874
 20
103.7402339189
 30
0.0
 10
225.3675800871
 20
103.7935906804
 30
0.0
 10
227.0978528776
 20
103.8469485762
 30
0.0
 10
228.7672807557
 20
103.9002463225
 30
0.0
 10
230.0929748884
 20
103.9457067171
 30
0.0
 10
231.0784283138
 20
103.9827408832
 30
0.0
 10
231.7453605352
 20
104.0096976645
 30
0.0
 10
232.3553008615
 20
104.0366168594
 30
0.0
 10
232.9027511994
 20
104.0634762386
 30
0.0
 10
233.382821125
 20
104.0902446503
 30
0.0
 10
233.7911830085
 20
104.1168921814
 30
0.0
 10
234.0848829134
 20
104.1401146017
 30
0.0
 10
234.2812105628
 20
104.1592715637
 30
0.0
 10
234.3988389784
 20
104.1726537944
 30
0.0
 10
234.4962430253
 20
104.1859740734
 30
0.0
 10
234.5733772863
 20
104.1990935473
 30
0.0
 10
234.6298897852
 20
104.2120846735
 30
0.0
 10
234.6605696114
 20
104.2221963628
 30
0.0
 10
234.6717361247
 20
104.2282258161
 30
0.0
  0
SPLINE
  5
432
100
AcDbEntity
  8
DEF_LAYER_ASSEM_MEMBER
100
AcDbSpline
 62
7
  6
CONTINUOUS
 70
0
 71
3
 72
42
 73
38
 74
0
 42
0.0000001
 43
0.0000001
 44
0.0000000001
 40
0.0
 40
0.0
 40
0.0
 40
0.0
 40
0.0008814777
 40
0.001683279
 40
0.0027573765
 40
0.0057471808
 40
0.009874375
 40
0.0151380752
 40
0.0215287956
 40
0.0290350059
 40
0.0376416931
 40
0.0580711303
 40
0.0826329631
 40
0.1110972697
 40
0.143202017
 40
0.1786462814
 40
0.2170992245
 40
0.2582016361
 40
0.301568004
 40
0.3934582932
 40
0.4893436137
 40
0.5856416227
 40
0.6787537238
 40
0.7652088145
 40
0.8049184266
 40
0.8417809608
 40
0.875449332
 40
0.9056115445
 40
0.9319856465
 40
0.9543270892
 40
0.9724321258
 40
0.9798420605
 40
0.9861355884
 40
0.9913011866
 40
0.9953296002
 40
0.9982212755
 40
1.0
 40
1.0
 40
1.0
 40
1.0
 10
235.9009424321
 20
108.8951725532
 30
0.0
 10
235.9009424321
 20
108.8889948999
 30
0.0
 10
235.8886632593
 20
108.8805882519
 30
0.0
 10
235.8718487034
 20
108.8735457304
 30
0.0
 10
235.8387518898
 20
108.8631554927
 30
0.0
 10
235.7828420376
 20
108.8515674424
 30
0.0
 10
235.6969494598
 20
108.8380400731
 30
0.0
 10
235.5872227339
 20
108.8245474398
 30
0.0
 10
235.4536084953
 20
108.8108819905
 30
0.0
 10
235.2964955056
 20
108.7971845146
 30
0.0
 10
235.041129031
 20
108.777734381
 30
0.0
 10
234.666235378
 20
108.7540428719
 30
0.0
 10
234.1521543003
 20
108.7267852464
 30
0.0
 10
233.5561561312
 20
108.6994231808
 30
0.0
 10
232.8838244889
 20
108.6719821645
 30
0.0
 10
232.1414392944
 20
108.6444906277
 30
0.0
 10
231.3359577295
 20
108.6169640315
 30
0.0
 10
230.4749265108
 20
108.5894127907
 30
0.0
 10
229.2395186867
 20
108.5519286707
 30
0.0
 10
227.6202636345
 20
108.5058114089
 30
0.0
 10
225.6301367347
 20
108.4513870461
 30
0.0
 10
223.6314436883
 20
108.3969616075
 30
0.0
 10
221.6988639465
 20
108.3425938876
 30
0.0
 10
220.1628052165
 20
108.2962199902
 30
0.0
 10
219.0208871374
 20
108.2584216142
 30
0.0
 10
218.2487782707
 20
108.2309118484
 30
0.0
 10
217.5436242953
 20
108.2034450329
 30
0.0
 10
216.9120356799
 20
108.1760391333
 30
0.0
 10
216.3599052383
 20
108.1487413256
 30
0.0
 10
215.892393438
 20
108.1215623001
 30
0.0
 10
215.5578139664
 20
108.0978734062
 30
0.0
 10
215.3357563094
 20
108.0782711457
 30
0.0
 10
215.2041953174
 20
108.0646422435
 30
0.0
 10
215.0965441861
 20
108.0510684694
 30
0.0
 10
215.0127392388
 20
108.0378007224
 30
0.0
 10
214.9534487019
 20
108.0245706717
 30
0.0
 10
214.9218176007
 20
108.0143704946
 30
0.0
 10
214.9112081485
 20
108.0078255553
 30
0.0
  0
SPLINE
  5
433
100
AcDbEntity
  8
DEF_LAYER_ASSEM_MEMBER
100
AcDbSpline
 62
7
  6
CONTINUOUS
 70
0
 71
3
 72
26
 73
22
 74
0
 42
0.0000001
 43
0.0000001
 44
0.0000000001
 40
0.0
 40
0.0
 40
0.0
 40
0.0
 40
0.1426422136
 40
0.304264802
 40
0.3883731007
 40
0.4725384686
 40
0.5551471916
 40
0.6346155739
 40
0.709421193
 40
0.778129062
 40
0.8394213417
 40
0.8921254446
 40
0.9149359421
 40
0.9352369521
 40
0.9529310409
 40
0.9679378541
 40
0.9801847445
 40
0.9896232591
 40
0.9962201289
 40
0.9984559772
 40
1.0
 40
1.0
 40
1.0
 40
1.0
 10
218.6516725304
 20
107.8486034154
 30
0.0
 10
219.4714839903
 20
107.8778021046
 30
0.0
 10
221.2204510939
 20
107.9327511035
 30
0.0
 10
223.4530926333
 20
107.9954424362
 30
0.0
 10
225.3496104022
 20
108.0472080482
 30
0.0
 10
226.7918914462
 20
108.0865445073
 30
0.0
 10
228.2074788888
 20
108.1258680066
 30
0.0
 10
229.5692183205
 20
108.1651601108
 30
0.0
 10
230.8509809755
 20
108.2044015444
 30
0.0
 10
232.0281644495
 20
108.2435522457
 30
0.0
 10
233.0781691171
 20
108.2825824145
 30
0.0
 10
233.8642262985
 20
108.3163204034
 30
0.0
 10
234.4145699356
 20
108.3439330919
 30
0.0
 10
234.7637094488
 20
108.3635950835
 30
0.0
 10
235.067899991
 20
108.3831886975
 30
0.0
 10
235.3256512471
 20
108.4027084124
 30
0.0
 10
235.5358292059
 20
108.421985975
 30
0.0
 10
235.6972982776
 20
108.4411645758
 30
0.0
 10
235.8012488602
 20
108.4577848714
 30
0.0
 10
235.8590623606
 20
108.4724716205
 30
0.0
 10
235.8796548848
 20
108.4798952924
 30
0.0
 10
235.8874723361
 20
108.484106622
 30
0.0
  0
SPLINE
  5
434
100
AcDbEntity
  8
DEF_LAYER_ASSEM_MEMBER
100
AcDbSpline
 62
7
  6
CONTINUOUS
 70
0
 71
3
 72
42
 73
38
 74
0
 42
0.0000001
 43
0.0000001
 44
0.0000000001
 40
0.0
 40
0.0
 40
0.0
 40
0.0
 40
0.0019187562
 40
0.0049516385
 40
0.0091160354
 40
0.0144131089
 40
0.0208336236
 40
0.028363507
 40
0.0466883712
 40
0.0692227569
 40
0.0957621764
 40
0.1260582797
 40
0.1598333119
 40
0.1967702356
 40
0.2365279659
 40
0.3229983487
 40
0.4160312505
 40
0.5121683668
 40
0.6078354604
 40
0.6994758964
 40
0.7427126533
 40
0.7836834268
 40
0.8220087394
 40
0.8573293398
 40
0.8893197824
 40
0.91768004
 40
0.9421498339
 40
0.9625022109
 40
0.9710756607
 40
0.9785525471
 40
0.9849188712
 40
0.9901624896
 40
0.9942734988
 40
0.9972518279
 40
0.9983219679
 40
0.9991209591
 40
1.0
 40
1.0
 40
1.0
 40
1.0
 10
235.8874989433
 20
110.2841065837
 30
0.0
 10
235.8756642261
 20
110.2777266067
 30
0.0
 10
235.8421081878
 20
110.2675195392
 30
0.0
 10
235.7797584828
 20
110.2543000843
 30
0.0
 10
235.6931158029
 20
110.2410079447
 30
0.0
 10
235.5826808513
 20
110.2274536925
 30
0.0
 10
235.4484821159
 20
110.2138417297
 30
0.0
 10
235.2231727422
 20
110.1942970849
 30
0.0
 10
234.8849089453
 20
110.1706554437
 30
0.0
 10
234.4134177769
 20
110.1435208128
 30
0.0
 10
233.8579286145
 20
110.1162721063
 30
0.0
 10
233.2236009292
 20
110.0889145516
 30
0.0
 10
232.5163587288
 20
110.0615048475
 30
0.0
 10
231.7427752025
 20
110.0340470215
 30
0.0
 10
230.6000861198
 20
109.9963408927
 30
0.0
 10
229.0644016043
 20
109.9500666552
 30
0.0
 10
227.1337298721
 20
109.895806082
 30
0.0
 10
225.1385931891
 20
109.841489304
 30
0.0
 10
223.1532173411
 20
109.7871751641
 30
0.0
 10
221.5384304023
 20
109.74114577
 30
0.0
 10
220.3068176036
 20
109.7037360544
 30
0.0
 10
219.4486603112
 20
109.6762396301
 30
0.0
 10
218.6460013072
 20
109.6487715984
 30
0.0
 10
217.9063064423
 20
109.6213352482
 30
0.0
 10
217.2364877167
 20
109.5939515957
 30
0.0
 10
216.6427676861
 20
109.5666460509
 30
0.0
 10
216.1306897536
 20
109.5394425227
 30
0.0
 10
215.7572787765
 20
109.5158009622
 30
0.0
 10
215.5029349453
 20
109.4963910709
 30
0.0
 10
215.3464585672
 20
109.4827210088
 30
0.0
 10
215.2133848614
 20
109.4690839581
 30
0.0
 10
215.1041016984
 20
109.4556195129
 30
0.0
 10
215.0185604102
 20
109.4421173144
 30
0.0
 10
214.96287937
 20
109.4305519832
 30
0.0
 10
214.9299200081
 20
109.420183753
 30
0.0
 10
214.9131656725
 20
109.4131540994
 30
0.0
 10
214.9009424321
 20
109.4047629237
 30
0.0
 10
214.9009424321
 20
109.3986034154
 30
0.0
  0
SPLINE
  5
435
100
AcDbEntity
  8
DEF_LAYER_ASSEM_MEMBER
100
AcDbSpline
 62
7
  6
CONTINUOUS
 70
0
 71
3
 72
39
 73
35
 74
0
 42
0.0000001
 43
0.0000001
 44
0.0000000001
 40
0.0
 40
0.0
 40
0.0
 40
0.0
 40
0.0018913935
 40
0.0048455279
 40
0.0088850326
 40
0.0140134171
 40
0.0202252894
 40
0.0275075506
 40
0.0452231414
 40
0.0670127972
 40
0.0926829171
 40
0.1220066666
 40
0.154721988
 40
0.1905357092
 40
0.229128063
 40
0.3132398382
 40
0.4040458331
 40
0.498293452
 40
0.5926062773
 40
0.6836055276
 40
0.7680315992
 40
0.8068220947
 40
0.8428616019
 40
0.8758243473
 40
0.9054188052
 40
0.9313768994
 40
0.9534719315
 40
0.9715056213
 40
0.9789517504
 40
0.9853276979
 40
0.9906221851
 40
0.9948298412
 40
0.9979503617
 40
1.0
 40
1.0
 40
1.0
 40
1.0
 10
216.1265162187
 20
108.758918544
 30
0.0
 10
216.1364787322
 20
108.765076258
 30
0.0
 10
216.1651427651
 20
108.775179818
 30
0.0
 10
216.2184762589
 20
108.7881414886
 30
0.0
 10
216.2924986122
 20
108.8012233118
 30
0.0
 10
216.3867790946
 20
108.8145295196
 30
0.0
 10
216.5013357201
 20
108.8278962241
 30
0.0
 10
216.6936397423
 20
108.8470806594
 30
0.0
 10
216.9824512267
 20
108.8702994009
 30
0.0
 10
217.3851557581
 20
108.8969361239
 30
0.0
 10
217.8598692802
 20
108.9236934502
 30
0.0
 10
218.4023218351
 20
108.950549988
 30
0.0
 10
219.0076517922
 20
108.9774627589
 30
0.0
 10
219.6704240519
 20
109.004419639
 30
0.0
 10
220.65130289
 20
109.041467123
 30
0.0
 10
221.9726250099
 20
109.0869406422
 30
0.0
 10
223.6385041563
 20
109.1402339297
 30
0.0
 10
225.3675792548
 20
109.1935906511
 30
0.0
 10
227.0978515484
 20
109.2469485799
 30
0.0
 10
228.7672789731
 20
109.300246285
 30
0.0
 10
230.0929738142
 20
109.3457068527
 30
0.0
 10
231.0784276081
 20
109.3827407633
 30
0.0
 10
231.7453604095
 20
109.4096977067
 30
0.0
 10
232.3553010011
 20
109.4366169506
 30
0.0
 10
232.9027510697
 20
109.4634759588
 30
0.0
 10
233.382822287
 20
109.4902451153
 30
0.0
 10
233.7911826155
 20
109.5168915937
 30
0.0
 10
234.0848821544
 20
109.5401146585
 30
0.0
 10
234.2812100386
 20
109.5592721696
 30
0.0
 10
234.3988400691
 20
109.5726530182
 30
0.0
 10
234.4962435399
 20
109.5859737693
 30
0.0
 10
234.5733761286
 20
109.5990942786
 30
0.0
 10
234.6298892509
 20
109.6120857611
 30
0.0
 10
234.6605730583
 20
109.6221952887
 30
0.0
 10
234.6717406325
 20
109.6282258181
 30
0.0
  0
SPLINE
  5
436
100
AcDbEntity
  8
DEF_LAYER_ASSEM_MEMBER
100
AcDbSpline
 62
7
  6
CONTINUOUS
 70
0
 71
3
 72
25
 73
21
 74
0
 42
0.0000001
 43
0.0000001
 44
0.0000000001
 40
0.0
 40
0.0
 40
0.0
 40
0.0
 40
0.1422059701
 40
0.3033086038
 40
0.471099688
 40
0.553516632
 40
0.6328441436
 40
0.7075709527
 40
0.7762726257
 40
0.837641245
 40
0.8905110828
 40
0.9134395512
 40
0.9338805583
 40
0.9517385777
 40
0.9669333861
 40
0.9793920439
 40
0.989067339
 40
0.9959279728
 40
0.9983060171
 40
1.0
 40
1.0
 40
1.0
 40
1.0
 10
219.4320166885
 20
107.1946139314
 30
0.0
 10
220.1547160801
 20
107.2237189365
 30
0.0
 10
221.6964384613
 20
107.2785093821
 30
0.0
 10
224.0913274566
 20
107.3545803897
 30
0.0
 10
226.1823523044
 20
107.4184776559
 30
0.0
 10
227.857604284
 20
107.4710703562
 30
0.0
 10
229.0597019884
 20
107.5102501648
 30
0.0
 10
230.1920042328
 20
107.5493792692
 30
0.0
 10
231.2329098259
 20
107.5884201907
 30
0.0
 10
232.1625650412
 20
107.6273438401
 30
0.0
 10
232.8594187429
 20
107.6609802866
 30
0.0
 10
233.3481385019
 20
107.6884955161
 30
0.0
 10
233.6589366175
 20
107.708104397
 30
0.0
 10
233.9303210215
 20
107.7276484719
 30
0.0
 10
234.1609791973
 20
107.7471178472
 30
0.0
 10
234.3498997434
 20
107.7663771036
 30
0.0
 10
234.4960928418
 20
107.7855186659
 30
0.0
 10
234.591011497
 20
107.802175485
 30
0.0
 10
234.6446688855
 20
107.8167438673
 30
0.0
 10
234.6641468635
 20
107.8241350678
 30
0.0
 10
234.6717297372
 20
107.8282257651
 30
0.0
  0
SPLINE
  5
437
100
AcDbEntity
  8
DEF_LAYER_ASSEM_MEMBER
100
AcDbSpline
 62
7
  6
CONTINUOUS
 70
0
 71
3
 72
25
 73
21
 74
0
 42
0.0000001
 43
0.0000001
 44
0.0000000001
 40
0.0
 40
0.0
 40
0.0
 40
0.0
 40
0.1893265034
 40
0.3718015874
 40
0.4584020403
 40
0.5408491378
 40
0.6183995663
 40
0.6903547393
 40
0.7560612101
 40
0.814926599
 40
0.8664215302
 40
0.9100808322
 40
0.9455185533
 40
0.9600540917
 40
0.9724269362
 40
0.9826108971
 40
0.9905931671
 40
0.9963755286
 40
0.998451433
 40
1.0
 40
1.0
 40
1.0
 40
1.0
 10
165.2653761888
 20
127.1797392464
 30
0.0
 10
165.2472988998
 20
127.8423064937
 30
0.0
 10
165.2117997263
 20
129.1434637348
 30
0.0
 10
165.1664616303
 20
130.7476452866
 30
0.0
 10
165.1296439801
 20
131.977741565
 30
0.0
 10
165.1025274358
 20
132.8406317254
 30
0.0
 10
165.0754324239
 20
133.6522242483
 30
0.0
 10
165.0483671687
 20
134.4051756816
 30
0.0
 10
165.021343443
 20
135.0926687123
 30
0.0
 10
164.9943768931
 20
135.7084738066
 30
0.0
 10
164.9675149338
 20
136.2470175042
 30
0.0
 10
164.9407716007
 20
136.7034302047
 30
0.0
 10
164.9174568726
 20
137.0304167869
 30
0.0
 10
164.8981886663
 20
137.2478403851
 30
0.0
 10
164.8847565715
 20
137.3770025234
 30
0.0
 10
164.871447687
 20
137.4831099218
 30
0.0
 10
164.8582254031
 20
137.5658936423
 30
0.0
 10
164.846651142
 20
137.6202346075
 30
0.0
 10
164.8366854958
 20
137.6516336646
 30
0.0
 10
164.8316183188
 20
137.6633361925
 30
0.0
 10
164.8289041564
 20
137.6680292427
 30
0.0
  0
SPLINE
  5
438
100
AcDbEntity
  8
DEF_LAYER_ASSEM_MEMBER
100
AcDbSpline
 62
7
  6
CONTINUOUS
 70
0
 71
3
 72
25
 73
21
 74
0
 42
0.0000001
 43
0.0000001
 44
0.0000000001
 40
0.0
 40
0.0
 40
0.0
 40
0.0
 40
0.1893248054
 40
0.3718000044
 40
0.4584014264
 40
0.5408497087
 40
0.6184004214
 40
0.6903550708
 40
0.7560611582
 40
0.8149270096
 40
0.8664228547
 40
0.9100822942
 40
0.9455199614
 40
0.9600551762
 40
0.9724277789
 40
0.9826116569
 40
0.9905935055
 40
0.9963755156
 40
0.998451408
 40
1.0
 40
1.0
 40
1.0
 40
1.0
 10
179.6653761888
 20
127.1797392464
 30
0.0
 10
179.6472990601
 20
127.8423006187
 30
0.0
 10
179.6118000319
 20
129.1434524525
 30
0.0
 10
179.5664620182
 20
130.7476320203
 30
0.0
 10
179.529644143
 20
131.9777363647
 30
0.0
 10
179.5025273079
 20
132.8406351439
 30
0.0
 10
179.4754322005
 20
133.6522310579
 30
0.0
 10
179.4483669898
 20
134.4051803875
 30
0.0
 10
179.4213433422
 20
135.0926719343
 30
0.0
 10
179.3943765157
 20
135.7084805585
 30
0.0
 10
179.3675143691
 20
136.2470296104
 30
0.0
 10
179.3407704667
 20
136.7034458204
 30
0.0
 10
179.317455897
 20
137.0304316079
 30
0.0
 10
179.2981873758
 20
137.2478530263
 30
0.0
 10
179.2847551589
 20
137.3770128807
 30
0.0
 10
179.2714468852
 20
137.4831177283
 30
0.0
 10
179.2582247035
 20
137.5658984667
 30
0.0
 10
179.2466502275
 20
137.620236557
 30
0.0
 10
179.2366851268
 20
137.6516345268
 30
0.0
 10
179.2316182474
 20
137.6633372291
 30
0.0
 10
179.2289041593
 20
137.6680304242
 30
0.0
  0
SPLINE
  5
439
100
AcDbEntity
  8
DEF_LAYER_ASSEM_MEMBER
100
AcDbSpline
 62
7
  6
CONTINUOUS
 70
0
 71
3
 72
11
 73
7
 74
0
 42
0.0000001
 43
0.0000001
 44
0.0000000001
 40
0.0
 40
0.0
 40
0.0
 40
0.0
 40
0.2005036418
 40
0.4426647121
 40
0.7138743086
 40
1.0
 40
1.0
 40
1.0
 40
1.0
 10
165.5276708911
 20
118.8541119697
 30
0.0
 10
165.5027677916
 20
119.4102754797
 30
0.0
 10
165.4562200774
 20
120.6385244174
 30
0.0
 10
165.3929148938
 20
122.6196659343
 30
0.0
 10
165.3292452309
 20
124.8386470072
 30
0.0
 10
165.2870439363
 20
126.3855748214
 30
0.0
 10
165.2653761888
 20
127.1797392464
 30
0.0
  0
SPLINE
  5
43A
100
AcDbEntity
  8
DEF_LAYER_ASSEM_MEMBER
100
AcDbSpline
 62
7
  6
CONTINUOUS
 70
0
 71
3
 72
25
 73
21
 74
0
 42
0.0000001
 43
0.0000001
 44
0.0000000001
 40
0.0
 40
0.0
 40
0.0
 40
0.0
 40
0.1893267057
 40
0.3718025156
 40
0.4584035256
 40
0.5408510209
 40
0.6184014648
 40
0.6903563811
 40
0.7560625886
 40
0.8149278549
 40
0.8664225579
 40
0.9100816206
 40
0.9455192038
 40
0.9600545474
 40
0.9724272515
 40
0.9826111705
 40
0.990593279
 40
0.9963755166
 40
0.9984514253
 40
1.0
 40
1.0
 40
1.0
 40
1.0
 10
165.0530894291
 20
127.1797392464
 30
0.0
 10
165.0711667379
 20
126.5171712727
 30
0.0
 10
165.1066659972
 20
125.2160107463
 30
0.0
 10
165.1520042625
 20
123.6118239519
 30
0.0
 10
165.1888220892
 20
122.3817217566
 30
0.0
 10
165.2159388003
 20
121.5188281784
 30
0.0
 10
165.2430338504
 20
120.7072350855
 30
0.0
 10
165.2700990808
 20
119.9542853975
 30
0.0
 10
165.2971228393
 20
119.2667946002
 30
0.0
 10
165.3240893145
 20
118.6509916376
 30
0.0
 10
165.3509512516
 20
118.1124499913
 30
0.0
 10
165.3776946703
 20
117.656039407
 30
0.0
 10
165.4010091955
 20
117.3290548076
 30
0.0
 10
165.420277481
 20
117.1116328719
 30
0.0
 10
165.4337095918
 20
116.9824720601
 30
0.0
 10
165.447018185
 20
116.8763658379
 30
0.0
 10
165.460240404
 20
116.7935832539
 30
0.0
 10
165.4718147692
 20
116.7392433255
 30
0.0
 10
165.4817802008
 20
116.7078446201
 30
0.0
 10
165.4868472961
 20
116.6961420073
 30
0.0
 10
165.4895614597
 20
116.6914489264
 30
0.0
  0
SPLINE
  5
43B
100
AcDbEntity
  8
DEF_LAYER_ASSEM_MEMBER
100
AcDbSpline
 62
7
  6
CONTINUOUS
 70
0
 71
3
 72
11
 73
7
 74
0
 42
0.0000001
 43
0.0000001
 44
0.0000000001
 40
0.0
 40
0.0
 40
0.0
 40
0.0
 40
0.2861256914
 40
0.5573352879
 40
0.7994963582
 40
1.0
 40
1.0
 40
1.0
 40
1.0
 10
166.8530894291
 20
127.1797392464
 30
0.0
 10
166.8747571766
 20
126.3855748214
 30
0.0
 10
166.9169584711
 20
124.8386470072
 30
0.0
 10
166.9806281341
 20
122.6196659343
 30
0.0
 10
167.0439333177
 20
120.6385244174
 30
0.0
 10
167.0904810319
 20
119.4102754797
 30
0.0
 10
167.1153841314
 20
118.8541119697
 30
0.0
  0
SPLINE
  5
43C
100
AcDbEntity
  8
DEF_LAYER_ASSEM_MEMBER
100
AcDbSpline
 62
7
  6
CONTINUOUS
 70
0
 71
3
 72
25
 73
21
 74
0
 42
0.0000001
 43
0.0000001
 44
0.0000000001
 40
0.0
 40
0.0
 40
0.0
 40
0.0
 40
0.1893256433
 40
0.3717983746
 40
0.4583976305
 40
0.5408446173
 40
0.6183954463
 40
0.6903515872
 40
0.7560597537
 40
0.8149269018
 40
0.8664231596
 40
0.910082459
 40
0.9455198105
 40
0.9600551066
 40
0.9724277506
 40
0.9826115527
 40
0.9905935226
 40
0.9963756117
 40
0.9984514464
 40
1.0
 40
1.0
 40
1.0
 40
1.0
 10
181.4653761888
 20
127.1797392464
 30
0.0
 10
181.4472989809
 20
127.8423035198
 30
0.0
 10
181.4118000954
 20
129.1434495884
 30
0.0
 10
181.3664625123
 20
130.7476157983
 30
0.0
 10
181.3296452395
 20
131.9776993351
 30
0.0
 10
181.3025289248
 20
132.8405863723
 30
0.0
 10
181.2754338452
 20
133.6521833432
 30
0.0
 10
181.2483682686
 20
134.4051455402
 30
0.0
 10
181.2213441203
 20
135.0926540881
 30
0.0
 10
181.1943767271
 20
135.7084759345
 30
0.0
 10
181.1675142924
 20
136.2470304464
 30
0.0
 10
181.1407705486
 20
136.7034464952
 30
0.0
 10
181.117455824
 20
137.0304309402
 30
0.0
 10
181.0981875341
 20
137.2478516886
 30
0.0
 10
181.0847554309
 20
137.3770117141
 30
0.0
 10
181.0714468433
 20
137.4831168277
 30
0.0
 10
181.0582246824
 20
137.5658979895
 30
0.0
 10
181.046650521
 20
137.6202366697
 30
0.0
 10
181.0366851463
 20
137.6516345102
 30
0.0
 10
181.0316181851
 20
137.6633367959
 30
0.0
 10
181.0289041586
 20
137.6680298709
 30
0.0
  0
SPLINE
  5
43D
100
AcDbEntity
  8
DEF_LAYER_ASSEM_MEMBER
100
AcDbSpline
 62
7
  6
CONTINUOUS
 70
0
 71
3
 72
18
 73
14
 74
0
 42
0.0000001
 43
0.0000001
 44
0.0000000001
 40
0.0
 40
0.0
 40
0.0
 40
0.0
 40
0.2126731504
 40
0.4021642406
 40
0.5671940781
 40
0.7068690827
 40
0.82043622
 40
0.8672441523
 40
0.9073134663
 40
0.9406017803
 40
0.9671050576
 40
0.986856847
 40
1.0
 40
1.0
 40
1.0
 40
1.0
 10
167.1153841314
 20
118.8541119697
 30
0.0
 10
167.1222744175
 20
118.7002304951
 30
0.0
 10
167.1359051777
 20
118.409267209
 30
0.0
 10
167.1574459121
 20
117.9990206325
 30
0.0
 10
167.1789163105
 20
117.6417214314
 30
0.0
 10
167.2002903418
 20
117.3395242527
 30
0.0
 10
167.2189264597
 20
117.1229836716
 30
0.0
 10
167.2342959754
 20
116.9786182062
 30
0.0
 10
167.2450250462
 20
116.8922362635
 30
0.0
 10
167.255704429
 20
116.8207076196
 30
0.0
 10
167.2662415859
 20
116.7640059578
 30
0.0
 10
167.2766655169
 20
116.722324934
 30
0.0
 10
167.284796154
 20
116.6996868592
 30
0.0
 10
167.2895614506
 20
116.6914460863
 30
0.0
  0
SPLINE
  5
43E
100
AcDbEntity
  8
DEF_LAYER_ASSEM_MEMBER
100
AcDbSpline
 62
7
  6
CONTINUOUS
 70
0
 71
3
 72
29
 73
25
 74
0
 42
0.0000001
 43
0.0000001
 44
0.0000000001
 40
0.0
 40
0.0
 40
0.0
 40
0.0
 40
0.0007326732
 40
0.0018544188
 40
0.0034979631
 40
0.0057034777
 40
0.0084852982
 40
0.011849024
 40
0.0203284808
 40
0.0311433789
 40
0.0442768182
 40
0.0596991492
 40
0.0773781835
 40
0.119337202
 40
0.1697592789
 40
0.2281622317
 40
0.2939895174
 40
0.3666067539
 40
0.4453153266
 40
0.5293610401
 40
0.6179371402
 40
0.7101868781
 40
0.805222699
 40
1.0
 40
1.0
 40
1.0
 40
1.0
 10
182.60308943
 20
137.6797264543
 30
0.0
 10
182.6056589527
 20
137.6797263638
 30
0.0
 10
182.6118491552
 20
137.6761106713
 30
0.0
 10
182.6183319821
 20
137.6656328709
 30
0.0
 10
182.6252159146
 20
137.6495606067
 30
0.0
 10
182.631992245
 20
137.6272893593
 30
0.0
 10
182.6389069947
 20
137.5988208219
 30
0.0
 10
182.6489283678
 20
137.5485073466
 30
0.0
 10
182.6609831336
 20
137.4699344432
 30
0.0
 10
182.6747413452
 20
137.3570366178
 30
0.0
 10
182.6885737134
 20
137.2196478707
 30
0.0
 10
182.7024772469
 20
137.0580936842
 30
0.0
 10
182.7222021377
 20
136.7955890245
 30
0.0
 10
182.7462262947
 20
136.410337852
 30
0.0
 10
182.7738736126
 20
135.8822492662
 30
0.0
 10
182.8016246202
 20
135.2703595425
 30
0.0
 10
182.8294565397
 20
134.5805646076
 30
0.0
 10
182.8573381403
 20
133.8195066621
 30
0.0
 10
182.8852558465
 20
132.9945179856
 30
0.0
 10
182.9131977481
 20
132.1135317988
 30
0.0
 10
182.9411577679
 20
131.1850341399
 30
0.0
 10
182.96913064
 20
130.2179773314
 30
0.0
 10
183.0067455082
 20
128.8785910563
 30
0.0
 10
183.0344590248
 20
127.8625792284
 30
0.0
 10
183.0530894291
 20
127.1797392464
 30
0.0
  0
SPLINE
  5
43F
100
AcDbEntity
  8
DEF_LAYER_ASSEM_MEMBER
100
AcDbSpline
 62
7
  6
CONTINUOUS
 70
0
 71
3
 72
25
 73
21
 74
0
 42
0.0000001
 43
0.0000001
 44
0.0000000001
 40
0.0
 40
0.0
 40
0.0
 40
0.0
 40
0.1893269389
 40
0.3718019005
 40
0.4584022191
 40
0.5408493171
 40
0.618399931
 40
0.6903553767
 40
0.7560619885
 40
0.8149275019
 40
0.8664224827
 40
0.9100817236
 40
0.9455194181
 40
0.9600548381
 40
0.9724275785
 40
0.9826114448
 40
0.9905934576
 40
0.9963755834
 40
0.9984514381
 40
1.0
 40
1.0
 40
1.0
 40
1.0
 10
168.6530894291
 20
127.1797392464
 30
0.0
 10
168.6711667607
 20
126.5171704372
 30
0.0
 10
168.7066659664
 20
125.2160120261
 30
0.0
 10
168.7520040868
 20
123.6118297569
 30
0.0
 10
168.7888217185
 20
122.3817343048
 30
0.0
 10
168.8159382702
 20
121.5188439141
 30
0.0
 10
168.8430333569
 20
120.707249741
 30
0.0
 10
168.8700986864
 20
119.9542961684
 30
0.0
 10
168.8971225347
 20
119.2668012177
 30
0.0
 10
168.9240891769
 20
118.6509949882
 30
0.0
 10
168.9509512061
 20
118.1124508665
 30
0.0
 10
168.9776946986
 20
117.6560382833
 30
0.0
 10
169.0010094086
 20
117.3290524031
 30
0.0
 10
169.0202778094
 20
117.1116296843
 30
0.0
 10
169.0337099652
 20
116.9824686623
 30
0.0
 10
169.0470186129
 20
116.876362838
 30
0.0
 10
169.0602408241
 20
116.7935811731
 30
0.0
 10
169.0718150565
 20
116.7392421528
 30
0.0
 10
169.0817804304
 20
116.7078440762
 30
0.0
 10
169.0868474088
 20
116.696141686
 30
0.0
 10
169.0895614588
 20
116.6914485908
 30
0.0
  0
SPLINE
  5
440
100
AcDbEntity
  8
DEF_LAYER_ASSEM_MEMBER
100
AcDbSpline
 62
7
  6
CONTINUOUS
 70
0
 71
3
 72
29
 73
25
 74
0
 42
0.0000001
 43
0.0000001
 44
0.0000000001
 40
0.0
 40
0.0
 40
0.0
 40
0.0
 40
0.0007326517
 40
0.0018543816
 40
0.0034979744
 40
0.0057035398
 40
0.0084853343
 40
0.0118489928
 40
0.0203283412
 40
0.0311433294
 40
0.0442767005
 40
0.0596989786
 40
0.0773782158
 40
0.1193374344
 40
0.169759391
 40
0.2281613122
 40
0.2939864864
 40
0.3666020782
 40
0.4453101019
 40
0.5293569671
 40
0.6179352574
 40
0.7101867859
 40
0.805223515
 40
1.0
 40
1.0
 40
1.0
 40
1.0
 10
180.8030894287
 20
137.6797261916
 30
0.0
 10
180.805658876
 20
137.6797263299
 30
0.0
 10
180.8118492917
 20
137.6761111226
 30
0.0
 10
180.8183321334
 20
137.6656331738
 30
0.0
 10
180.8252158777
 20
137.6495605478
 30
0.0
 10
180.8319921228
 20
137.6272890012
 30
0.0
 10
180.8389069471
 20
137.5988206416
 30
0.0
 10
180.8489283543
 20
137.5485078905
 30
0.0
 10
180.8609831969
 20
137.4699352993
 30
0.0
 10
180.8747410471
 20
137.3570377339
 30
0.0
 10
180.888573607
 20
137.2196491182
 30
0.0
 10
180.9024772579
 20
137.0580946506
 30
0.0
 10
180.922202019
 20
136.7955887486
 30
0.0
 10
180.9462264394
 20
136.4103365982
 30
0.0
 10
180.9738734868
 20
135.8822513354
 30
0.0
 10
181.0016239908
 20
135.2703730423
 30
0.0
 10
181.0294554463
 20
134.5805948886
 30
0.0
 10
181.0573364964
 20
133.8195520268
 30
0.0
 10
181.0852542424
 20
132.9945670032
 30
0.0
 10
181.113196559
 20
132.1135710242
 30
0.0
 10
181.1411571251
 20
131.1850553673
 30
0.0
 10
181.1691305365
 20
130.2179814146
 30
0.0
 10
181.2067455716
 20
128.8785885295
 30
0.0
 10
181.2344591027
 20
127.8625763721
 30
0.0
 10
181.2530894291
 20
127.1797392464
 30
0.0
  0
SPLINE
  5
441
100
AcDbEntity
  8
DEF_LAYER_ASSEM_MEMBER
100
AcDbSpline
 62
7
  6
CONTINUOUS
 70
0
 71
3
 72
25
 73
21
 74
0
 42
0.0000001
 43
0.0000001
 44
0.0000000001
 40
0.0
 40
0.0
 40
0.0
 40
0.0
 40
0.1893243414
 40
0.3717986271
 40
0.4583999447
 40
0.5408483702
 40
0.6183993962
 40
0.6903543841
 40
0.7560606142
 40
0.8149263382
 40
0.8664221106
 40
0.9100816838
 40
0.9455194479
 40
0.9600548549
 40
0.9724275817
 40
0.9826114474
 40
0.9905934494
 40
0.9963755719
 40
0.9984514335
 40
1.0
 40
1.0
 40
1.0
 40
1.0
 10
183.2653761888
 20
127.1797392464
 30
0.0
 10
183.2472991051
 20
127.8422989698
 30
0.0
 10
183.2118002068
 20
129.1434459344
 30
0.0
 10
183.1664623689
 20
130.7476202568
 30
0.0
 10
183.1296445833
 20
131.9777214937
 30
0.0
 10
183.1025277696
 20
132.8406214737
 30
0.0
 10
183.0754325722
 20
133.6522201387
 30
0.0
 10
183.048367282
 20
134.4051722207
 30
0.0
 10
183.0213436531
 20
135.0926649815
 30
0.0
 10
182.9943768464
 20
135.7084733821
 30
0.0
 10
182.9675147376
 20
136.2470221815
 30
0.0
 10
182.9407709985
 20
136.703438939
 30
0.0
 10
182.9174562144
 20
137.0304261816
 30
0.0
 10
182.8981877867
 20
137.2478490506
 30
0.0
 10
182.8847556276
 20
137.3770099775
 30
0.0
 10
182.8714470053
 20
137.4831157169
 30
0.0
 10
182.8582247899
 20
137.5658973313
 30
0.0
 10
182.8466505289
 20
137.6202363181
 30
0.0
 10
182.8366851822
 20
137.651634432
 30
0.0
 10
182.8316182118
 20
137.6633368705
 30
0.0
 10
182.8289041583
 20
137.6680299824
 30
0.0
  0
SPLINE
  5
442
100
AcDbEntity
  8
DEF_LAYER_ASSEM_MEMBER
100
AcDbSpline
 62
7
  6
CONTINUOUS
 70
0
 71
3
 72
24
 73
20
 74
0
 42
0.0000001
 43
0.0000001
 44
0.0000000001
 40
0.0
 40
0.0
 40
0.0
 40
0.0
 40
0.0019590272
 40
0.0035489456
 40
0.0056268735
 40
0.011324738
 40
0.0191341221
 40
0.0411298091
 40
0.0715934028
 40
0.1103934873
 40
0.1573326509
 40
0.2121690679
 40
0.2746076444
 40
0.3443197436
 40
0.4209277088
 40
0.5040242055
 40
0.5931486704
 40
0.787570261
 40
1.0
 40
1.0
 40
1.0
 40
1.0
 10
179.0030894493
 20
137.679728423
 30
0.0
 10
179.0073211301
 20
137.6797243065
 30
0.0
 10
179.0138412667
 20
137.6733384616
 30
0.0
 10
179.0194853299
 20
137.6630052144
 30
0.0
 10
179.0273233363
 20
137.6441196813
 30
0.0
 10
179.0361949891
 20
137.6116869044
 30
0.0
 10
179.0516792147
 20
137.5364938478
 30
0.0
 10
179.0693922303
 20
137.4074577664
 30
0.0
 10
179.0898110163
 20
137.2113789318
 30
0.0
 10
179.1103114342
 20
136.9611913527
 30
0.0
 10
179.1310371689
 20
136.6582387826
 30
0.0
 10
179.1518248136
 20
136.3041257168
 30
0.0
 10
179.1726814847
 20
135.9007527197
 30
0.0
 10
179.1935720471
 20
135.45029688
 30
0.0
 10
179.2144934429
 20
134.9551763058
 30
0.0
 10
179.2354326092
 20
134.4180896823
 30
0.0
 10
179.2642140488
 20
133.6266297474
 30
0.0
 10
179.2996978688
 20
132.5558607099
 30
0.0
 10
179.3264162037
 20
131.6774292118
 30
0.0
 10
179.339973536
 20
131.2187613263
 30
0.0
  0
SPLINE
  5
443
100
AcDbEntity
  8
DEF_LAYER_ASSEM_MEMBER
100
AcDbSpline
 62
7
  6
CONTINUOUS
 70
0
 71
3
 72
25
 73
21
 74
0
 42
0.0000001
 43
0.0000001
 44
0.0000000001
 40
0.0
 40
0.0
 40
0.0
 40
0.0
 40
0.1893242957
 40
0.3717982033
 40
0.4583994743
 40
0.5408479347
 40
0.618399043
 40
0.6903541465
 40
0.7560604834
 40
0.8149261863
 40
0.8664218966
 40
0.9100815024
 40
0.9455192913
 40
0.9600547598
 40
0.9724275221
 40
0.9826113826
 40
0.9905934387
 40
0.9963755968
 40
0.9984514438
 40
1.0
 40
1.0
 40
1.0
 40
1.0
 10
170.4530894291
 20
127.1797392464
 30
0.0
 10
170.4711665081
 20
126.5171796948
 30
0.0
 10
170.506665366
 20
125.2160342367
 30
0.0
 10
170.5520031486
 20
123.611861589
 30
0.0
 10
170.5888208944
 20
122.3817617381
 30
0.0
 10
170.6159376972
 20
121.5188615257
 30
0.0
 10
170.6430329173
 20
120.7072620605
 30
0.0
 10
170.6700982411
 20
119.9543089263
 30
0.0
 10
170.6971218802
 20
119.2668154731
 30
0.0
 10
170.7240886784
 20
118.6510070003
 30
0.0
 10
170.7509507834
 20
118.112458388
 30
0.0
 10
170.7776944526
 20
117.6560416505
 30
0.0
 10
170.8010093089
 20
117.3290540021
 30
0.0
 10
170.8202776982
 20
117.1116307055
 30
0.0
 10
170.8337098407
 20
116.9824694559
 30
0.0
 10
170.8470185742
 20
116.876363433
 30
0.0
 10
170.8602407917
 20
116.7935815271
 30
0.0
 10
170.8718149646
 20
116.7392422475
 30
0.0
 10
170.8817804139
 20
116.7078441218
 30
0.0
 10
170.8868474153
 20
116.6961417949
 30
0.0
 10
170.889561459
 20
116.6914487193
 30
0.0
  0
SPLINE
  5
444
100
AcDbEntity
  8
DEF_LAYER_ASSEM_MEMBER
100
AcDbSpline
 62
7
  6
CONTINUOUS
 70
0
 71
3
 72
29
 73
25
 74
0
 42
0.0000001
 43
0.0000001
 44
0.0000000001
 40
0.0
 40
0.0
 40
0.0
 40
0.0
 40
0.0007326693
 40
0.0018544043
 40
0.0034979606
 40
0.005703492
 40
0.0084853025
 40
0.0118490064
 40
0.0203284459
 40
0.0311434299
 40
0.044276908
 40
0.0596993303
 40
0.0773786526
 40
0.1193384567
 40
0.1697611302
 40
0.228164173
 40
0.2939909424
 40
0.366607434
 40
0.4453159149
 40
0.5293626785
 40
0.6179393483
 40
0.7101886649
 40
0.8052233541
 40
1.0
 40
1.0
 40
1.0
 40
1.0
 10
177.2030894304
 20
137.6797253882
 30
0.0
 10
177.2056589395
 20
137.6797254195
 30
0.0
 10
177.2118493015
 20
137.6761100596
 30
0.0
 10
177.2183322442
 20
137.6656322667
 30
0.0
 10
177.2252161551
 20
137.6495599473
 30
0.0
 10
177.2319924633
 20
137.6272886182
 30
0.0
 10
177.2389072363
 20
137.5988201471
 30
0.0
 10
177.2489285939
 20
137.5485068461
 30
0.0
 10
177.2609833288
 20
137.4699337769
 30
0.0
 10
177.2747413572
 20
137.3570355572
 30
0.0
 10
177.2885738566
 20
137.2196460728
 30
0.0
 10
177.3024775408
 20
137.0580904376
 30
0.0
 10
177.3222026015
 20
136.795581712
 30
0.0
 10
177.3462270328
 20
136.4103247142
 30
0.0
 10
177.373874512
 20
135.8822310021
 30
0.0
 10
177.4016254214
 20
135.2703407169
 30
0.0
 10
177.4294570951
 20
134.5805499294
 30
0.0
 10
177.4573384934
 20
133.8194967761
 30
0.0
 10
177.4852561949
 20
132.9945074063
 30
0.0
 10
177.5131982164
 20
132.1135159211
 30
0.0
 10
177.5411583781
 20
131.1850141235
 30
0.0
 10
177.5691310996
 20
130.2179608257
 30
0.0
 10
177.6067457526
 20
128.8785823816
 30
0.0
 10
177.6344590887
 20
127.862576886
 30
0.0
 10
177.6530894291
 20
127.1797392464
 30
0.0
  0
SPLINE
  5
445
100
AcDbEntity
  8
DEF_LAYER_ASSEM_MEMBER
100
AcDbSpline
 62
7
  6
CONTINUOUS
 70
0
 71
3
 72
25
 73
21
 74
0
 42
0.0000001
 43
0.0000001
 44
0.0000000001
 40
0.0
 40
0.0
 40
0.0
 40
0.0
 40
0.1893255288
 40
0.3717984642
 40
0.458397791
 40
0.5408446086
 40
0.6183953114
 40
0.6903514291
 40
0.7560595953
 40
0.8149268177
 40
0.8664231624
 40
0.9100825377
 40
0.9455199585
 40
0.960055179
 40
0.9724277707
 40
0.9826115857
 40
0.9905935009
 40
0.9963755639
 40
0.998451428
 40
1.0
 40
1.0
 40
1.0
 40
1.0
 10
172.2530894291
 20
127.1797392464
 30
0.0
 10
172.2711666265
 20
126.5171753571
 30
0.0
 10
172.3066655176
 20
125.2160289421
 30
0.0
 10
172.3520031301
 20
123.6118621303
 30
0.0
 10
172.3888204023
 20
122.3817781918
 30
0.0
 10
172.4159367026
 20
121.5188919184
 30
0.0
 10
172.4430317452
 20
120.7072960423
 30
0.0
 10
172.4700972895
 20
119.9543343497
 30
0.0
 10
172.4971214585
 20
119.2668256077
 30
0.0
 10
172.5240888592
 20
118.6510031822
 30
0.0
 10
172.550951314
 20
118.1124478261
 30
0.0
 10
172.5776951986
 20
117.6560309608
 30
0.0
 10
172.6010098351
 20
117.3290462563
 30
0.0
 10
172.6202781876
 20
117.1116257134
 30
0.0
 10
172.6337103171
 20
116.9824660923
 30
0.0
 10
172.6470187667
 20
116.876361293
 30
0.0
 10
172.6602409396
 20
116.7935803638
 30
0.0
 10
172.6718152413
 20
116.7392419047
 30
0.0
 10
172.6817804827
 20
116.7078439507
 30
0.0
 10
172.6868474088
 20
116.6961414612
 30
0.0
 10
172.6895614582
 20
116.6914483248
 30
0.0
  0
SPLINE
  5
446
100
AcDbEntity
  8
DEF_LAYER_ASSEM_MEMBER
100
AcDbSpline
 62
7
  6
CONTINUOUS
 70
0
 71
3
 72
29
 73
25
 74
0
 42
0.0000001
 43
0.0000001
 44
0.0000000001
 40
0.0
 40
0.0
 40
0.0
 40
0.0
 40
0.0007327025
 40
0.0018544743
 40
0.0034980293
 40
0.0057035969
 40
0.0084855856
 40
0.0118495481
 40
0.0203294812
 40
0.0311446131
 40
0.0442785362
 40
0.059701351
 40
0.077380464
 40
0.1193398162
 40
0.1697613597
 40
0.2281637354
 40
0.2939906362
 40
0.3666076333
 40
0.445316502
 40
0.5293631297
 40
0.6179393987
 40
0.710188559
 40
0.8052233585
 40
1.0
 40
1.0
 40
1.0
 40
1.0
 10
175.40308943
 20
137.6797247787
 30
0.0
 10
175.4056590554
 20
137.6797246148
 30
0.0
 10
175.4118493719
 20
137.6761087928
 30
0.0
 10
175.4183324676
 20
137.6656308971
 30
0.0
 10
175.4252167376
 20
137.6495584273
 30
0.0
 10
175.4319933205
 20
137.6272864
 30
0.0
 10
175.438908127
 20
137.5988162255
 30
0.0
 10
175.4489296093
 20
137.5484996295
 30
0.0
 10
175.4609843932
 20
137.4699233875
 30
0.0
 10
175.4747432516
 20
137.3570214398
 30
0.0
 10
175.4885754855
 20
137.2196284597
 30
0.0
 10
175.5024789346
 20
137.0580706094
 30
0.0
 10
175.5222041419
 20
136.7955628585
 30
0.0
 10
175.5462275426
 20
136.4103121169
 30
0.0
 10
175.5738748335
 20
135.8822263355
 30
0.0
 10
175.6016253365
 20
135.270341923
 30
0.0
 10
175.6294570354
 20
134.5805512939
 30
0.0
 10
175.6573385795
 20
133.8194946056
 30
0.0
 10
175.6852563539
 20
132.9945026413
 30
0.0
 10
175.7131983414
 20
132.1135117424
 30
0.0
 10
175.741158433
 20
131.1850124426
 30
0.0
 10
175.7691310985
 20
130.2179607818
 30
0.0
 10
175.8067457462
 20
128.8785826128
 30
0.0
 10
175.8344590905
 20
127.8625768204
 30
0.0
 10
175.8530894291
 20
127.1797392464
 30
0.0
  0
SPLINE
  5
447
100
AcDbEntity
  8
DEF_LAYER_ASSEM_MEMBER
100
AcDbSpline
 62
7
  6
CONTINUOUS
 70
0
 71
3
 72
28
 73
24
 74
0
 42
0.0000001
 43
0.0000001
 44
0.0000000001
 40
0.0
 40
0.0
 40
0.0
 40
0.0
 40
0.0017969876
 40
0.003441256
 40
0.0056471948
 40
0.00842897
 40
0.0117924618
 40
0.0202720584
 40
0.0310884879
 40
0.0442221645
 40
0.0596450809
 40
0.0773261869
 40
0.1192875935
 40
0.1697137363
 40
0.228120612
 40
0.2939514083
 40
0.3665726564
 40
0.4452855734
 40
0.529336928
 40
0.6179186923
 40
0.7101725965
 40
0.8052126162
 40
1.0
 40
1.0
 40
1.0
 40
1.0
 10
173.6030894151
 20
137.6797265933
 30
0.0
 10
173.6093911813
 20
137.6797312653
 30
0.0
 10
173.6179159105
 20
137.6670633019
 30
0.0
 10
173.625031184
 20
137.6498258058
 30
0.0
 10
173.6320627495
 20
137.6271809776
 30
0.0
 10
173.638882209
 20
137.5988532275
 30
0.0
 10
173.6489490548
 20
137.5484781665
 30
0.0
 10
173.6609750307
 20
137.4699470215
 30
0.0
 10
173.6747435106
 20
137.3570304659
 30
0.0
 10
173.6885729859
 20
137.2196480932
 30
0.0
 10
173.7024783322
 20
137.0580908285
 30
0.0
 10
173.7222011646
 20
136.795584379
 30
0.0
 10
173.7462279346
 20
136.4103249742
 30
0.0
 10
173.7738741836
 20
135.8822304353
 30
0.0
 10
173.8016255807
 20
135.2703353946
 30
0.0
 10
173.8294576185
 20
134.5805398769
 30
0.0
 10
173.8573388547
 20
133.8194839022
 30
0.0
 10
173.8852566376
 20
132.9944934066
 30
0.0
 10
173.9131986598
 20
132.1135028063
 30
0.0
 10
173.9411586253
 20
131.1850040739
 30
0.0
 10
173.9691313263
 20
130.2179534565
 30
0.0
 10
174.0067458272
 20
128.8785791986
 30
0.0
 10
174.0344591271
 20
127.8625754781
 30
0.0
 10
174.0530894291
 20
127.1797392464
 30
0.0
  0
SPLINE
  5
448
100
AcDbEntity
  8
DEF_LAYER_ASSEM_MEMBER
100
AcDbSpline
 62
7
  6
CONTINUOUS
 70
0
 71
3
 72
25
 73
21
 74
0
 42
0.0000001
 43
0.0000001
 44
0.0000000001
 40
0.0
 40
0.0
 40
0.0
 40
0.0
 40
0.1893246813
 40
0.371796557
 40
0.4583972915
 40
0.5408456986
 40
0.6183970384
 40
0.6903527505
 40
0.7560599185
 40
0.81492579
 40
0.8664210734
 40
0.9100806411
 40
0.9455185545
 40
0.9600542012
 40
0.9724271191
 40
0.982611078
 40
0.9905933016
 40
0.996375589
 40
0.9984514515
 40
1.0
 40
1.0
 40
1.0
 40
1.0
 10
167.0653761888
 20
127.1797392464
 30
0.0
 10
167.0472990737
 20
127.8423001189
 30
0.0
 10
167.0118003723
 20
129.1434397597
 30
0.0
 10
166.9664628313
 20
130.7476047006
 30
0.0
 10
166.9296453635
 20
131.9776953248
 30
0.0
 10
166.9025286653
 20
132.8405942484
 30
0.0
 10
166.8754333986
 20
133.6521964335
 30
0.0
 10
166.8483679078
 20
134.4051553841
 30
0.0
 10
166.8213440597
 20
135.0926544346
 30
0.0
 10
166.7943772993
 20
135.7084648903
 30
0.0
 10
166.7675152014
 20
136.2470124404
 30
0.0
 10
166.7407717874
 20
136.7034279797
 30
0.0
 10
166.7174568662
 20
137.0304165368
 30
0.0
 10
166.6981885342
 20
137.2478414389
 30
0.0
 10
166.6847563837
 20
137.3770042037
 30
0.0
 10
166.6714474504
 20
137.483111686
 30
0.0
 10
166.6582251726
 20
137.5658949718
 30
0.0
 10
166.6466509999
 20
137.6202353763
 30
0.0
 10
166.6366853716
 20
137.6516339501
 30
0.0
 10
166.6316182561
 20
137.6633362651
 30
0.0
 10
166.6289041564
 20
137.6680292771
 30
0.0
  0
SPLINE
  5
449
100
AcDbEntity
  8
DEF_LAYER_ASSEM_MEMBER
100
AcDbSpline
 62
7
  6
CONTINUOUS
 70
0
 71
3
 72
29
 73
25
 74
0
 42
0.0000001
 43
0.0000001
 44
0.0000000001
 40
0.0
 40
0.0
 40
0.0
 40
0.0
 40
0.0007326957
 40
0.001854458
 40
0.0034980047
 40
0.0057035594
 40
0.00848552
 40
0.0118494454
 40
0.0203293057
 40
0.0311444025
 40
0.0442782667
 40
0.0597010577
 40
0.0773802731
 40
0.1193399029
 40
0.1697612362
 40
0.2281631332
 40
0.2939896311
 40
0.3666064819
 40
0.4453153752
 40
0.5293623072
 40
0.6179393933
 40
0.7101892156
 40
0.8052236549
 40
1.0
 40
1.0
 40
1.0
 40
1.0
 10
171.8030894288
 20
137.6797249356
 30
0.0
 10
171.8056590303
 20
137.679724785
 30
0.0
 10
171.8118493146
 20
137.6761090263
 30
0.0
 10
171.8183323752
 20
137.6656312024
 30
0.0
 10
171.8252165921
 20
137.6495588292
 30
0.0
 10
171.8319931314
 20
137.6272869695
 30
0.0
 10
171.8389079262
 20
137.5988170742
 30
0.0
 10
171.8489293915
 20
137.5485009676
 30
0.0
 10
171.8609841756
 20
137.4699252384
 30
0.0
 10
171.8747429538
 20
137.3570238684
 30
0.0
 10
171.8885752338
 20
137.2196313066
 30
0.0
 10
171.9024787446
 20
137.0580733893
 30
0.0
 10
171.9222040054
 20
136.795564386
 30
0.0
 10
171.9462274602
 20
136.4103130457
 30
0.0
 10
171.9738747672
 20
135.8822287014
 30
0.0
 10
172.0016250374
 20
135.2703481024
 30
0.0
 10
172.0294566762
 20
134.580561069
 30
0.0
 10
172.0573381628
 20
133.8195062085
 30
0.0
 10
172.0852559977
 20
132.9945135937
 30
0.0
 10
172.1131981355
 20
132.1135186657
 30
0.0
 10
172.1411584061
 20
131.1850131006
 30
0.0
 10
172.1691311938
 20
130.2179575034
 30
0.0
 10
172.2067458413
 20
128.8785792963
 30
0.0
 10
172.2344591186
 20
127.8625757909
 30
0.0
 10
172.2530894291
 20
127.1797392464
 30
0.0
  0
SPLINE
  5
44A
100
AcDbEntity
  8
DEF_LAYER_ASSEM_MEMBER
100
AcDbSpline
 62
7
  6
CONTINUOUS
 70
0
 71
3
 72
25
 73
21
 74
0
 42
0.0000001
 43
0.0000001
 44
0.0000000001
 40
0.0
 40
0.0
 40
0.0
 40
0.0
 40
0.1893247934
 40
0.3717999947
 40
0.4584014219
 40
0.5408497098
 40
0.6184004246
 40
0.6903550725
 40
0.7560611579
 40
0.8149270087
 40
0.8664228541
 40
0.9100822948
 40
0.9455199634
 40
0.9600551776
 40
0.9724277799
 40
0.9826116579
 40
0.9905935058
 40
0.9963755153
 40
0.9984514079
 40
1.0
 40
1.0
 40
1.0
 40
1.0
 10
174.0530894291
 20
127.1797392464
 30
0.0
 10
174.0711665567
 20
126.5171779162
 30
0.0
 10
174.1066655839
 20
125.2160261163
 30
0.0
 10
174.152003597
 20
123.6118465644
 30
0.0
 10
174.1888214735
 20
122.3817421744
 30
0.0
 10
174.21593831
 20
121.5188433503
 30
0.0
 10
174.243033418
 20
120.7072474143
 30
0.0
 10
174.2700986286
 20
119.9542980892
 30
0.0
 10
174.2971222759
 20
119.2668065569
 30
0.0
 10
174.3240891019
 20
118.6509979411
 30
0.0
 10
174.3509512484
 20
118.1124488862
 30
0.0
 10
174.3776951522
 20
117.6560326658
 30
0.0
 10
174.4010097214
 20
117.3290468714
 30
0.0
 10
174.4202782436
 20
117.1116254521
 30
0.0
 10
174.433710461
 20
116.982465601
 30
0.0
 10
174.4470187329
 20
116.8763607569
 30
0.0
 10
174.4602409142
 20
116.7935800225
 30
0.0
 10
174.4718153909
 20
116.7392419367
 30
0.0
 10
174.4817804905
 20
116.7078439679
 30
0.0
 10
174.4868473694
 20
116.6961412644
 30
0.0
 10
174.4895614576
 20
116.6914480688
 30
0.0
  0
SPLINE
  5
44B
100
AcDbEntity
  8
DEF_LAYER_ASSEM_MEMBER
100
AcDbSpline
 62
7
  6
CONTINUOUS
 70
0
 71
3
 72
29
 73
25
 74
0
 42
0.0000001
 43
0.0000001
 44
0.0000000001
 40
0.0
 40
0.0
 40
0.0
 40
0.0
 40
0.0007326606
 40
0.0018543939
 40
0.0034979999
 40
0.0057036089
 40
0.008485479
 40
0.0118492289
 40
0.02032874
 40
0.031143781
 40
0.0442771976
 40
0.0596994915
 40
0.0773786688
 40
0.1193375444
 40
0.169758331
 40
0.2281592424
 40
0.2939841538
 40
0.3665997968
 40
0.4453076047
 40
0.5293540751
 40
0.6179323422
 40
0.7101840165
 40
0.8052215476
 40
1.0
 40
1.0
 40
1.0
 40
1.0
 10
170.0030894282
 20
137.6797248028
 30
0.0
 10
170.0056589067
 20
137.6797250047
 30
0.0
 10
170.0118494887
 20
137.6761099841
 30
0.0
 10
170.0183325186
 20
137.6656319991
 30
0.0
 10
170.0252164097
 20
137.6495592191
 30
0.0
 10
170.0319927261
 20
137.6272872
 30
0.0
 10
170.0389075906
 20
137.5988180962
 30
0.0
 10
170.048929005
 20
137.5485041718
 30
0.0
 10
170.0609837972
 20
137.4699304957
 30
0.0
 10
170.0747417236
 20
137.3570320289
 30
0.0
 10
170.0885741832
 20
137.2196430143
 30
0.0
 10
170.1024777341
 20
137.0580885501
 30
0.0
 10
170.1222023396
 20
136.7955840246
 30
0.0
 10
170.1462263325
 20
136.4103374137
 30
0.0
 10
170.1738730939
 20
135.882261049
 30
0.0
 10
170.2016231293
 20
135.2703913708
 30
0.0
 10
170.2294546063
 20
134.5806175743
 30
0.0
 10
170.2573356377
 20
133.8195762875
 30
0.0
 10
170.2852533713
 20
132.9945933088
 30
0.0
 10
170.3131956963
 20
132.113599642
 30
0.0
 10
170.3411562334
 20
131.1850850323
 30
0.0
 10
170.3691297909
 20
130.2180079368
 30
0.0
 10
170.4067451179
 20
128.878604966
 30
0.0
 10
170.4344589164
 20
127.8625832012
 30
0.0
 10
170.4530894291
 20
127.1797392464
 30
0.0
  0
SPLINE
  5
44C
100
AcDbEntity
  8
DEF_LAYER_ASSEM_MEMBER
100
AcDbSpline
 62
7
  6
CONTINUOUS
 70
0
 71
3
 72
29
 73
25
 74
0
 42
0.0000001
 43
0.0000001
 44
0.0000000001
 40
0.0
 40
0.0
 40
0.0
 40
0.0
 40
0.000732682
 40
0.0018544336
 40
0.003497995
 40
0.0057035663
 40
0.0084854983
 40
0.0118493684
 40
0.0203291189
 40
0.0311442107
 40
0.044277992
 40
0.0597007015
 40
0.0773799856
 40
0.1193396839
 40
0.1697610457
 40
0.2281627565
 40
0.2939888779
 40
0.3666055249
 40
0.4453143479
 40
0.5293613966
 40
0.6179390136
 40
0.710189355
 40
0.8052238732
 40
1.0
 40
1.0
 40
1.0
 40
1.0
 10
168.2030894279
 20
137.6797252453
 30
0.0
 10
168.2056589814
 20
137.6797251875
 30
0.0
 10
168.2118493126
 20
137.6761096192
 30
0.0
 10
168.2183323217
 20
137.6656317644
 30
0.0
 10
168.2252164289
 20
137.6495592792
 30
0.0
 10
168.2319928769
 20
137.6272873802
 30
0.0
 10
168.2389076993
 20
137.598817737
 30
0.0
 10
168.2489291655
 20
137.5485023194
 30
0.0
 10
168.2609840033
 20
137.4699271975
 30
0.0
 10
168.2747425826
 20
137.3570264967
 30
0.0
 10
168.2885749416
 20
137.2196345368
 30
0.0
 10
168.3024785148
 20
137.0580769547
 30
0.0
 10
168.3222037008
 20
136.7955677405
 30
0.0
 10
168.3462273474
 20
136.4103158174
 30
0.0
 10
168.373874606
 20
135.8822317642
 30
0.0
 10
168.4016248149
 20
135.2703530167
 30
0.0
 10
168.4294564062
 20
134.5805686468
 30
0.0
 10
168.4573378005
 20
133.819516039
 30
0.0
 10
168.4852556605
 20
132.9945239476
 30
0.0
 10
168.5131978887
 20
132.1135269654
 30
0.0
 10
168.5411582734
 20
131.1850172772
 30
0.0
 10
168.5691311928
 20
130.2179576889
 30
0.0
 10
168.6067458738
 20
128.8785781028
 30
0.0
 10
168.6344591388
 20
127.86257505
 30
0.0
 10
168.6530894291
 20
127.1797392464
 30
0.0
  0
SPLINE
  5
44D
100
AcDbEntity
  8
DEF_LAYER_ASSEM_MEMBER
100
AcDbSpline
 62
7
  6
CONTINUOUS
 70
0
 71
3
 72
25
 73
21
 74
0
 42
0.0000001
 43
0.0000001
 44
0.0000000001
 40
0.0
 40
0.0
 40
0.0
 40
0.0
 40
0.1893251841
 40
0.37179678
 40
0.4583957381
 40
0.5408430869
 40
0.618394099
 40
0.6903501388
 40
0.7560582151
 40
0.8149251501
 40
0.8664212427
 40
0.9100805789
 40
0.9455180845
 40
0.9600537492
 40
0.9724267338
 40
0.982610764
 40
0.9905931158
 40
0.9963755291
 40
0.998451434
 40
1.0
 40
1.0
 40
1.0
 40
1.0
 10
175.8530894291
 20
127.1797392464
 30
0.0
 10
175.8711665919
 20
126.5171766233
 30
0.0
 10
175.9066653328
 20
125.2160362203
 30
0.0
 10
175.9520026815
 20
123.6118767361
 30
0.0
 10
175.988819847
 20
122.3817970282
 30
0.0
 10
176.0159361379
 20
121.5189091802
 30
0.0
 10
176.0430312261
 20
120.7073107071
 30
0.0
 10
176.0700967839
 20
119.9543485873
 30
0.0
 10
176.0971207741
 20
119.2668414953
 30
0.0
 10
176.1240880191
 20
118.651021324
 30
0.0
 10
176.1509503115
 20
118.1124680387
 30
0.0
 10
176.1776936568
 20
117.6560519046
 30
0.0
 10
176.2010085339
 20
117.3290655301
 30
0.0
 10
176.2202766311
 20
117.1116417465
 30
0.0
 10
176.2337087309
 20
116.9824784284
 30
0.0
 10
176.2470177631
 20
116.8763700209
 30
0.0
 10
176.2602401021
 20
116.7935855948
 30
0.0
 10
176.271814352
 20
116.7392441435
 30
0.0
 10
176.2817800887
 20
116.7078449239
 30
0.0
 10
176.2868472958
 20
116.6961424123
 30
0.0
 10
176.2895614604
 20
116.6914493673
 30
0.0
  0
SPLINE
  5
44E
100
AcDbEntity
  8
DEF_LAYER_ASSEM_MEMBER
100
AcDbSpline
 62
7
  6
CONTINUOUS
 70
0
 71
3
 72
29
 73
25
 74
0
 42
0.0000001
 43
0.0000001
 44
0.0000000001
 40
0.0
 40
0.0
 40
0.0
 40
0.0
 40
0.0007326857
 40
0.0018544474
 40
0.0034980471
 40
0.0057036784
 40
0.0084856666
 40
0.0118495866
 40
0.0203294099
 40
0.0311445208
 40
0.04427824
 40
0.0597008611
 40
0.0773800862
 40
0.1193395283
 40
0.1697606292
 40
0.2281618949
 40
0.293987294
 40
0.3666034024
 40
0.4453113639
 40
0.5293570165
 40
0.6179341583
 40
0.7101851338
 40
0.8052219868
 40
1.0
 40
1.0
 40
1.0
 40
1.0
 10
166.4030894286
 20
137.6797246924
 30
0.0
 10
166.405658995
 20
137.6797247276
 30
0.0
 10
166.411849508
 20
137.6761092954
 30
0.0
 10
166.4183326096
 20
137.6656312404
 30
0.0
 10
166.4252167662
 20
137.6495583763
 30
0.0
 10
166.431993236
 20
137.6272859133
 30
0.0
 10
166.4389081175
 20
137.5988156895
 30
0.0
 10
166.4489296002
 20
137.5484996359
 30
0.0
 10
166.4609844311
 20
137.4699240143
 30
0.0
 10
166.4747429434
 20
137.3570232033
 30
0.0
 10
166.4885752399
 20
137.2196317055
 30
0.0
 10
166.5024787143
 20
137.0580748572
 30
0.0
 10
166.5222036845
 20
136.7955670549
 30
0.0
 10
166.5462273086
 20
136.410317168
 30
0.0
 10
166.5738743562
 20
135.8822364996
 30
0.0
 10
166.601624375
 20
135.2703627785
 30
0.0
 10
166.6294558361
 20
134.5805844141
 30
0.0
 10
166.6573369527
 20
133.8195392695
 30
0.0
 10
166.6852545671
 20
132.9945570093
 30
0.0
 10
166.7131966089
 20
132.113569639
 30
0.0
 10
166.7411568516
 20
131.1850643177
 30
0.0
 10
166.769130123
 20
130.2179960218
 30
0.0
 10
166.8067452729
 20
128.8785994581
 30
0.0
 10
166.834458959
 20
127.8625816408
 30
0.0
 10
166.8530894291
 20
127.1797392464
 30
0.0
  0
SPLINE
  5
44F
100
AcDbEntity
  8
DEF_LAYER_ASSEM_MEMBER
100
AcDbSpline
 62
7
  6
CONTINUOUS
 70
0
 71
3
 72
25
 73
21
 74
0
 42
0.0000001
 43
0.0000001
 44
0.0000000001
 40
0.0
 40
0.0
 40
0.0
 40
0.0
 40
0.1893258017
 40
0.3718016291
 40
0.4584030974
 40
0.5408511597
 40
0.6184014364
 40
0.6903557297
 40
0.7560619253
 40
0.8149280233
 40
0.8664237781
 40
0.9100830187
 40
0.9455205502
 40
0.960055555
 40
0.9724280044
 40
0.9826118881
 40
0.9905935915
 40
0.9963754808
 40
0.9984513892
 40
1.0
 40
1.0
 40
1.0
 40
1.0
 10
177.6530894291
 20
127.1797392464
 30
0.0
 10
177.6711666533
 20
126.5171743727
 30
0.0
 10
177.7066658328
 20
125.2160168241
 30
0.0
 10
177.7520040481
 20
123.6118313741
 30
0.0
 10
177.7888219705
 20
122.3817254114
 30
0.0
 10
177.8159388077
 20
121.5188287487
 30
0.0
 10
177.8430337853
 20
120.7072363574
 30
0.0
 10
177.8700989382
 20
119.9542894046
 30
0.0
 10
177.8971226811
 20
119.266797851
 30
0.0
 10
177.9240895195
 20
118.6509882874
 30
0.0
 10
177.950951747
 20
118.1124393762
 30
0.0
 10
177.977695751
 20
117.6560246532
 30
0.0
 10
178.0010100978
 20
117.3290407532
 30
0.0
 10
178.0202786823
 20
117.1116210877
 30
0.0
 10
178.0337109687
 20
116.9824624982
 30
0.0
 10
178.0470188682
 20
116.8763586368
 30
0.0
 10
178.060240981
 20
116.7935787982
 30
0.0
 10
178.0718156118
 20
116.7392416384
 30
0.0
 10
178.0817805383
 20
116.7078439462
 30
0.0
 10
178.0868473246
 20
116.6961410606
 30
0.0
 10
178.0895614569
 20
116.6914478148
 30
0.0
  0
SPLINE
  5
450
100
AcDbEntity
  8
DEF_LAYER_ASSEM_MEMBER
100
AcDbSpline
 62
7
  6
CONTINUOUS
 70
0
 71
3
 72
29
 73
25
 74
0
 42
0.0000001
 43
0.0000001
 44
0.0000000001
 40
0.0
 40
0.0
 40
0.0
 40
0.0
 40
0.0007326886
 40
0.0018544472
 40
0.0034979789
 40
0.0057034903
 40
0.0084853729
 40
0.0118491991
 40
0.0203288543
 40
0.0311438103
 40
0.0442774759
 40
0.0597000969
 40
0.077379307
 40
0.1193389892
 40
0.169760572
 40
0.2281622964
 40
0.2939878758
 40
0.3666040547
 40
0.4453127004
 40
0.5293598033
 40
0.617937831
 40
0.71018885
 40
0.8052240814
 40
1.0
 40
1.0
 40
1.0
 40
1.0
 10
164.6030894297
 20
137.6797260758
 30
0.0
 10
164.6056590063
 20
137.6797258846
 30
0.0
 10
164.6118491649
 20
137.6761099855
 30
0.0
 10
164.6183320625
 20
137.6656322057
 30
0.0
 10
164.6252161509
 20
137.6495600041
 30
0.0
 10
164.6319926026
 20
137.6272886239
 30
0.0
 10
164.6389073414
 20
137.5988195064
 30
0.0
 10
164.6489287474
 20
137.5485047511
 30
0.0
 10
164.6609835063
 20
137.4699305871
 30
0.0
 10
164.6747420988
 20
137.3570311086
 30
0.0
 10
164.688574415
 20
137.2196403352
 30
0.0
 10
164.7024779706
 20
137.0580837235
 30
0.0
 10
164.7222032099
 20
136.7955751282
 30
0.0
 10
164.7462269634
 20
136.4103227324
 30
0.0
 10
164.7738742894
 20
135.8822378896
 30
0.0
 10
164.8016245202
 20
135.2703601926
 30
0.0
 10
164.8294560104
 20
134.580579283
 30
0.0
 10
164.8573372685
 20
133.8195308001
 30
0.0
 10
164.885255113
 20
132.994540743
 30
0.0
 10
164.9131974102
 20
132.113542711
 30
0.0
 10
164.9411579239
 20
131.1850289728
 30
0.0
 10
164.9691310458
 20
130.2179630225
 30
0.0
 10
165.0067458395
 20
128.8785792254
 30
0.0
 10
165.0344591578
 20
127.8625743532
 30
0.0
 10
165.0530894291
 20
127.1797392464
 30
0.0
  0
SPLINE
  5
451
100
AcDbEntity
  8
DEF_LAYER_ASSEM_MEMBER
100
AcDbSpline
 62
7
  6
CONTINUOUS
 70
0
 71
3
 72
29
 73
25
 74
0
 42
0.0000001
 43
0.0000001
 44
0.0000000001
 40
0.0
 40
0.0
 40
0.0
 40
0.0
 40
0.0007326447
 40
0.001854372
 40
0.0034979779
 40
0.0057035554
 40
0.0084853454
 40
0.0118489877
 40
0.0203282909
 40
0.0311432339
 40
0.0442764882
 40
0.0596986503
 40
0.0773778424
 40
0.1193369749
 40
0.1697593932
 40
0.2281625209
 40
0.2939898467
 40
0.3666070472
 40
0.4453153223
 40
0.5293606302
 40
0.6179368842
 40
0.7101869868
 40
0.8052230092
 40
1.0
 40
1.0
 40
1.0
 40
1.0
 10
162.8030894273
 20
137.6797264624
 30
0.0
 10
162.8056588504
 20
137.6797266396
 30
0.0
 10
162.8118492826
 20
137.6761114945
 30
0.0
 10
162.8183320888
 20
137.6656334949
 30
0.0
 10
162.8252157703
 20
137.6495607612
 30
0.0
 10
162.8319919963
 20
137.6272891336
 30
0.0
 10
162.8389068353
 20
137.5988208089
 30
0.0
 10
162.8489282509
 20
137.5485082942
 30
0.0
 10
162.8609831079
 20
137.4699360809
 30
0.0
 10
162.874740864
 20
137.3570392325
 30
0.0
 10
162.8885734157
 20
137.2196515926
 30
0.0
 10
162.9024770177
 20
137.0580980942
 30
0.0
 10
162.9222016636
 20
136.7955930469
 30
0.0
 10
162.9462263235
 20
136.4103397409
 30
0.0
 10
162.9738735803
 20
135.8822489191
 30
0.0
 10
163.0016247167
 20
135.2703572298
 30
0.0
 10
163.0294566674
 20
134.5805616457
 30
0.0
 10
163.0573381956
 20
133.8195047038
 30
0.0
 10
163.0852558218
 20
132.9945185927
 30
0.0
 10
163.1131976853
 20
132.1135343045
 30
0.0
 10
163.1411576895
 20
131.1850362191
 30
0.0
 10
163.1691306605
 20
130.2179768563
 30
0.0
 10
163.2067455439
 20
128.878589641
 30
0.0
 10
163.2344590539
 20
127.8625781624
 30
0.0
 10
163.2530894291
 20
127.1797392464
 30
0.0
  0
SPLINE
  5
452
100
AcDbEntity
  8
DEF_LAYER_ASSEM_MEMBER
100
AcDbSpline
 62
7
  6
CONTINUOUS
 70
0
 71
3
 72
39
 73
35
 74
0
 42
0.0000001
 43
0.0000001
 44
0.0000000001
 40
0.0
 40
0.0
 40
0.0
 40
0.0
 40
0.001990225
 40
0.0050454219
 40
0.0091850915
 40
0.0144111755
 40
0.0207183493
 40
0.028093695
 40
0.0459876457
 40
0.0679424693
 40
0.0937655982
 40
0.1232264779
 40
0.1560645859
 40
0.1919843366
 40
0.2306656
 40
0.3149034816
 40
0.4057654468
 40
0.4999998965
 40
0.5942342819
 40
0.6850962421
 40
0.7693344808
 40
0.808015202
 40
0.8439356944
 40
0.8767730179
 40
0.9062343764
 40
0.9320576329
 40
0.954011833
 40
0.9719067836
 40
0.97928142
 40
0.9855881745
 40
0.9908153179
 40
0.9949547078
 40
0.9980091199
 40
1.0
 40
1.0
 40
1.0
 40
1.0
 10
171.893670124
 20
118.0682047127
 30
0.0
 10
171.8876055965
 20
118.0786873123
 30
0.0
 10
171.8774958244
 20
118.1080229949
 30
0.0
 10
171.8645221499
 20
118.1622859765
 30
0.0
 10
171.8514189429
 20
118.2368126134
 30
0.0
 10
171.8381109306
 20
118.3312352906
 30
0.0
 10
171.8247428836
 20
118.4455308458
 30
0.0
 10
171.8055819046
 20
118.6367172115
 30
0.0
 10
171.7823753327
 20
118.9231598427
 30
0.0
 10
171.7557418257
 20
119.3218878239
 30
0.0
 10
171.7289943534
 20
119.79112881
 30
0.0
 10
171.7021458949
 20
120.3266794908
 30
0.0
 10
171.6752454016
 20
120.9237342241
 30
0.0
 10
171.6482999468
 20
121.5769440237
 30
0.0
 10
171.61127956
 20
122.5427662597
 30
0.0
 10
171.5658344632
 20
123.8428275591
 30
0.0
 10
171.5125646689
 20
125.4808540506
 30
0.0
 10
171.4592328298
 20
127.1797377037
 30
0.0
 10
171.405901053
 20
128.8786213293
 30
0.0
 10
171.3526308199
 20
130.5166495566
 30
0.0
 10
171.3071868611
 20
131.8167097424
 30
0.0
 10
171.2701649691
 20
132.7825353077
 30
0.0
 10
171.2432211606
 20
133.435741613
 30
0.0
 10
171.2163190472
 20
134.0327989309
 30
0.0
 10
171.1894713144
 20
134.5683485534
 30
0.0
 10
171.1627248362
 20
135.0375895103
 30
0.0
 10
171.1360883002
 20
135.436320343
 30
0.0
 10
171.1128856009
 20
135.7227612474
 30
0.0
 10
171.0937229701
 20
135.9139467153
 30
0.0
 10
171.0803522273
 20
136.0282414562
 30
0.0
 10
171.0670485276
 20
136.1226670232
 30
0.0
 10
171.0539455587
 20
136.1971935013
 30
0.0
 10
171.0409667366
 20
136.2514535143
 30
0.0
 10
171.0308573261
 20
136.2807870004
 30
0.0
 10
171.0247955317
 20
136.2912757851
 30
0.0
  0
SPLINE
  5
453
100
AcDbEntity
  8
DEF_LAYER_ASSEM_MEMBER
100
AcDbSpline
 62
7
  6
CONTINUOUS
 70
0
 71
3
 72
25
 73
21
 74
0
 42
0.0000001
 43
0.0000001
 44
0.0000000001
 40
0.0
 40
0.0
 40
0.0
 40
0.0
 40
0.1893268287
 40
0.3718031649
 40
0.4584046492
 40
0.5408525974
 40
0.6184031077
 40
0.6903577614
 40
0.7560637205
 40
0.8149288697
 40
0.8664233606
 40
0.910082218
 40
0.9455196993
 40
0.9600549079
 40
0.9724275184
 40
0.9826114198
 40
0.9905933913
 40
0.9963755128
 40
0.9984514196
 40
1.0
 40
1.0
 40
1.0
 40
1.0
 10
168.8653761888
 20
127.1797392464
 30
0.0
 10
168.8472988678
 20
127.8423076662
 30
0.0
 10
168.8117995475
 20
129.143470495
 30
0.0
 10
168.7664611574
 20
130.7476612583
 30
0.0
 10
168.7296431769
 20
131.9777685681
 30
0.0
 10
168.702526305
 20
132.8406656414
 30
0.0
 10
168.6754312148
 20
133.6522596509
 30
0.0
 10
168.6483660014
 20
134.4052077994
 30
0.0
 10
168.6213422302
 20
135.0926964115
 30
0.0
 10
168.5943758316
 20
135.7084973672
 30
0.0
 10
168.5675139103
 20
136.2470371543
 30
0.0
 10
168.5407704561
 20
136.703445925
 30
0.0
 10
168.5174560739
 20
137.0304289911
 30
0.0
 10
168.4981877079
 20
137.2478497639
 30
0.0
 10
168.4847555567
 20
137.3770097067
 30
0.0
 10
168.47144721
 20
137.4831150847
 30
0.0
 10
168.4582250456
 20
137.5658967281
 30
0.0
 10
168.4466505974
 20
137.6202357211
 30
0.0
 10
168.436685336
 20
137.6516340599
 30
0.0
 10
168.4316183209
 20
137.6633367249
 30
0.0
 10
168.428904158
 20
137.6680298296
 30
0.0
  0
SPLINE
  5
454
100
AcDbEntity
  8
DEF_LAYER_ASSEM_MEMBER
100
AcDbSpline
 62
7
  6
CONTINUOUS
 70
0
 71
3
 72
25
 73
21
 74
0
 42
0.0000001
 43
0.0000001
 44
0.0000000001
 40
0.0
 40
0.0
 40
0.0
 40
0.0
 40
0.1893252378
 40
0.3717965198
 40
0.4583958772
 40
0.5408438085
 40
0.6183951052
 40
0.6903511075
 40
0.7560589852
 40
0.814925519
 40
0.8664212107
 40
0.9100805376
 40
0.9455180939
 40
0.9600538531
 40
0.972426867
 40
0.982610852
 40
0.990593236
 40
0.9963756297
 40
0.9984514681
 40
1.0
 40
1.0
 40
1.0
 40
1.0
 10
179.4530894291
 20
127.1797392464
 30
0.0
 10
179.4711665963
 20
126.5171764625
 30
0.0
 10
179.5066653118
 20
125.2160370239
 30
0.0
 10
179.5520026627
 20
123.6118771187
 30
0.0
 10
179.5888199098
 20
122.3817951245
 30
0.0
 10
179.6159363401
 20
121.5189028805
 30
0.0
 10
179.643031537
 20
120.7073015388
 30
0.0
 10
179.6700971343
 20
119.9543392818
 30
0.0
 10
179.6971210757
 20
119.2668344493
 30
0.0
 10
179.7240881587
 20
118.6510178025
 30
0.0
 10
179.7509503847
 20
118.1124673811
 30
0.0
 10
179.7776935559
 20
117.6560525152
 30
0.0
 10
179.8010085883
 20
117.3290656892
 30
0.0
 10
179.8202766643
 20
117.1116412995
 30
0.0
 10
179.8337087646
 20
116.9824777104
 30
0.0
 10
179.8470179324
 20
116.8763692627
 30
0.0
 10
179.8602402161
 20
116.79358496
 30
0.0
 10
179.8718142135
 20
116.7392436347
 30
0.0
 10
179.8817801405
 20
116.7078449053
 30
0.0
 10
179.8868473527
 20
116.6961427915
 30
0.0
 10
179.8895614608
 20
116.6914498519
 30
0.0
  0
SPLINE
  5
455
100
AcDbEntity
  8
DEF_LAYER_ASSEM_MEMBER
100
AcDbSpline
 62
7
  6
CONTINUOUS
 70
0
 71
3
 72
39
 73
35
 74
0
 42
0.0000001
 43
0.0000001
 44
0.0000000001
 40
0.0
 40
0.0
 40
0.0
 40
0.0
 40
0.0019904397
 40
0.0050444074
 40
0.0091845757
 40
0.0144116529
 40
0.0207177799
 40
0.0280927659
 40
0.0459876004
 40
0.0679423855
 40
0.093764887
 40
0.123226903
 40
0.1560638927
 40
0.1919844688
 40
0.2306655035
 40
0.3149037491
 40
0.4057656577
 40
0.5000001057
 40
0.5942346362
 40
0.6850964996
 40
0.7693344114
 40
0.8080160964
 40
0.8439357184
 40
0.8767735769
 40
0.9062350711
 40
0.932057513
 40
0.9540130727
 40
0.9719066399
 40
0.9792824978
 40
0.9855889945
 40
0.990815014
 40
0.9949553413
 40
0.9980103419
 40
1.0
 40
1.0
 40
1.0
 40
1.0
 10
170.0936700811
 20
118.0682113182
 30
0.0
 10
170.0876098418
 20
118.0786978948
 30
0.0
 10
170.0774972665
 20
118.108024058
 30
0.0
 10
170.0645177977
 20
118.1622837827
 30
0.0
 10
170.0514191329
 20
118.2368124371
 30
0.0
 10
170.0381137121
 20
118.3312381943
 30
0.0
 10
170.0247414237
 20
118.4455305613
 30
0.0
 10
170.0055812545
 20
118.6367137092
 30
0.0
 10
169.9823762081
 20
118.9231591474
 30
0.0
 10
169.9557420754
 20
119.3218880761
 30
0.0
 10
169.9289931161
 20
119.7911314478
 30
0.0
 10
169.9021473634
 20
120.3266780953
 30
0.0
 10
169.8752440959
 20
120.9237373281
 30
0.0
 10
169.8483006198
 20
121.5769434805
 30
0.0
 10
169.8112789437
 20
122.5427706906
 30
0.0
 10
169.7658347752
 20
123.842831399
 30
0.0
 10
169.712564534
 20
125.48085834
 30
0.0
 10
169.6592327793
 20
127.1797410788
 30
0.0
 10
169.6059009972
 20
128.8786235407
 30
0.0
 10
169.5526311848
 20
130.5166486944
 30
0.0
 10
169.5071857418
 20
131.8167110058
 30
0.0
 10
169.4701658697
 20
132.7825344049
 30
0.0
 10
169.4432204095
 20
133.4357439152
 30
0.0
 10
169.4163190045
 20
134.0327995298
 30
0.0
 10
169.3894724353
 20
134.5683479007
 30
0.0
 10
169.3627222761
 20
135.0375923539
 30
0.0
 10
169.336092007
 20
135.4363182125
 30
0.0
 10
169.312881787
 20
135.7227655269
 30
0.0
 10
169.2937243091
 20
135.913948758
 30
0.0
 10
169.2803540516
 20
136.0282425177
 30
0.0
 10
169.2670453581
 20
136.1226646123
 30
0.0
 10
169.2539441425
 20
136.1971935803
 30
0.0
 10
169.2409733028
 20
136.2514574305
 30
0.0
 10
169.2308576205
 20
136.2807853779
 30
0.0
 10
169.224795497
 20
136.2912653711
 30
0.0
  0
SPLINE
  5
456
100
AcDbEntity
  8
DEF_LAYER_ASSEM_MEMBER
100
AcDbSpline
 62
7
  6
CONTINUOUS
 70
0
 71
3
 72
25
 73
21
 74
0
 42
0.0000001
 43
0.0000001
 44
0.0000000001
 40
0.0
 40
0.0
 40
0.0
 40
0.0
 40
0.1893246449
 40
0.3717954159
 40
0.4583949197
 40
0.5408428559
 40
0.6183938277
 40
0.6903495328
 40
0.7560576939
 40
0.8149251435
 40
0.86642203
 40
0.9100820291
 40
0.9455199289
 40
0.9600551878
 40
0.9724277951
 40
0.982611657
 40
0.9905935525
 40
0.9963755809
 40
0.9984514419
 40
1.0
 40
1.0
 40
1.0
 40
1.0
 10
181.2530894291
 20
127.1797392464
 30
0.0
 10
181.2711665414
 20
126.517178476
 30
0.0
 10
181.3066651508
 20
125.2160427798
 30
0.0
 10
181.3520024125
 20
123.6118860768
 30
0.0
 10
181.3888195953
 20
122.3818052263
 30
0.0
 10
181.415936012
 20
121.5189135101
 30
0.0
 10
181.4430310877
 20
120.7073142509
 30
0.0
 10
181.4700966167
 20
119.9543531081
 30
0.0
 10
181.4971206288
 20
119.2668450539
 30
0.0
 10
181.5240881008
 20
118.6510199791
 30
0.0
 10
181.5509506315
 20
118.1124597652
 30
0.0
 10
181.5776948497
 20
117.6560371706
 30
0.0
 10
181.6010096111
 20
117.3290484817
 30
0.0
 10
181.6202781911
 20
117.1116260933
 30
0.0
 10
181.6337103878
 20
116.9824661302
 30
0.0
 10
181.6470186873
 20
116.8763611652
 30
0.0
 10
181.6602407779
 20
116.7935802514
 30
0.0
 10
181.6718151168
 20
116.7392420023
 30
0.0
 10
181.6817803598
 20
116.707844245
 30
0.0
 10
181.6868473407
 20
116.6961418321
 30
0.0
 10
181.6895614582
 20
116.6914487916
 30
0.0
  0
SPLINE
  5
457
100
AcDbEntity
  8
DEF_LAYER_ASSEM_MEMBER
100
AcDbSpline
 62
7
  6
CONTINUOUS
 70
0
 71
3
 72
25
 73
21
 74
0
 42
0.0000001
 43
0.0000001
 44
0.0000000001
 40
0.0
 40
0.0
 40
0.0
 40
0.0
 40
0.1893249376
 40
0.3717963338
 40
0.4583965228
 40
0.540844792
 40
0.6183961611
 40
0.690352051
 40
0.7560595866
 40
0.8149256734
 40
0.8664210087
 40
0.9100805059
 40
0.9455183022
 40
0.960054033
 40
0.9724270047
 40
0.982610965
 40
0.9905932882
 40
0.9963756347
 40
0.9984514696
 40
1.0
 40
1.0
 40
1.0
 40
1.0
 10
170.6653761888
 20
127.1797392464
 30
0.0
 10
170.64729905
 20
127.8423009883
 30
0.0
 10
170.6118003632
 20
129.1434397934
 30
0.0
 10
170.5664629236
 20
130.7476019781
 30
0.0
 10
170.5296455616
 20
131.977688481
 30
0.0
 10
170.5025289677
 20
132.8405850808
 30
0.0
 10
170.4754337146
 20
133.6521874748
 30
0.0
 10
170.4483681541
 20
134.4051484046
 30
0.0
 10
170.421344257
 20
135.0926500893
 30
0.0
 10
170.3943773968
 20
135.7084627394
 30
0.0
 10
170.3675152505
 20
136.2470109529
 30
0.0
 10
170.340771995
 20
136.7034260078
 30
0.0
 10
170.3174569725
 20
137.0304141799
 30
0.0
 10
170.2981887676
 20
137.2478391569
 30
0.0
 10
170.2847566454
 20
137.3770024098
 30
0.0
 10
170.2714475502
 20
137.4831104167
 30
0.0
 10
170.2582252832
 20
137.5658942568
 30
0.0
 10
170.2466512656
 20
137.6202351753
 30
0.0
 10
170.2366854268
 20
137.6516337394
 30
0.0
 10
170.2316182507
 20
137.6633358493
 30
0.0
 10
170.2289041559
 20
137.6680287905
 30
0.0
  0
SPLINE
  5
458
100
AcDbEntity
  8
DEF_LAYER_ASSEM_MEMBER
100
AcDbSpline
 62
7
  6
CONTINUOUS
 70
0
 71
3
 72
39
 73
35
 74
0
 42
0.0000001
 43
0.0000001
 44
0.0000000001
 40
0.0
 40
0.0
 40
0.0
 40
0.0
 40
0.0019899077
 40
0.0050451476
 40
0.0091850823
 40
0.0144110193
 40
0.0207180078
 40
0.028093605
 40
0.0459873094
 40
0.0679424856
 40
0.0937653444
 40
0.1232263945
 40
0.1560644916
 40
0.1919841137
 40
0.230665602
 40
0.3149034597
 40
0.4057653825
 40
0.499999875
 40
0.5942342805
 40
0.6850962229
 40
0.7693344967
 40
0.8080152861
 40
0.843935909
 40
0.8767730085
 40
0.906234653
 40
0.9320576359
 40
0.9540120016
 40
0.9719070476
 40
0.9792816999
 40
0.9855881903
 40
0.9908154154
 40
0.9949550593
 40
0.9980092345
 40
1.0
 40
1.0
 40
1.0
 40
1.0
 10
168.2936701272
 20
118.0682083079
 30
0.0
 10
168.2876064533
 20
118.0786891658
 30
0.0
 10
168.2774937607
 20
118.1080218615
 30
0.0
 10
168.2645223815
 20
118.1622856536
 30
0.0
 10
168.2514195473
 20
118.2368131338
 30
0.0
 10
168.2381108866
 20
118.3312353342
 30
0.0
 10
168.2247423679
 20
118.4455302851
 30
0.0
 10
168.2055827761
 20
118.6367156325
 30
0.0
 10
168.1823744908
 20
118.9231601888
 30
0.0
 10
168.1557425063
 20
119.321887152
 30
0.0
 10
168.1289939269
 20
119.791129443
 30
0.0
 10
168.1021460867
 20
120.3266793021
 30
0.0
 10
168.0752454319
 20
120.9237340064
 30
0.0
 10
168.0482997927
 20
121.5769440936
 30
0.0
 10
168.0112797713
 20
122.5427664503
 30
0.0
 10
167.965834418
 20
123.8428282566
 30
0.0
 10
167.9125646585
 20
125.4808540403
 30
0.0
 10
167.8592328393
 20
127.1797372314
 30
0.0
 10
167.8059010757
 20
128.8786205453
 30
0.0
 10
167.7526307969
 20
130.5166484327
 30
0.0
 10
167.7071868729
 20
131.8167086916
 30
0.0
 10
167.6701648978
 20
132.7825353427
 30
0.0
 10
167.6432214145
 20
133.4357412829
 30
0.0
 10
167.6163186775
 20
134.0327995371
 30
0.0
 10
167.5894717578
 20
134.5683477285
 30
0.0
 10
167.5627244703
 20
135.0375895589
 30
0.0
 10
167.5360884405
 20
135.4363202136
 30
0.0
 10
167.5128854662
 20
135.7227626772
 30
0.0
 10
167.4937233837
 20
135.9139472081
 30
0.0
 10
167.4803518712
 20
136.0282407938
 30
0.0
 10
167.4670479908
 20
136.122666753
 30
0.0
 10
167.4539465363
 20
136.1971939901
 30
0.0
 10
167.4409671512
 20
136.251453552
 30
0.0
 10
167.430856442
 20
136.2807839719
 30
0.0
 10
167.4247955382
 20
136.2912724609
 30
0.0
  0
SPLINE
  5
459
100
AcDbEntity
  8
DEF_LAYER_ASSEM_MEMBER
100
AcDbSpline
 62
7
  6
CONTINUOUS
 70
0
 71
3
 72
29
 73
25
 74
0
 42
0.0000001
 43
0.0000001
 44
0.0000000001
 40
0.0
 40
0.0
 40
0.0
 40
0.0
 40
0.0007327337
 40
0.0018545634
 40
0.0034981252
 40
0.0057036288
 40
0.0084855464
 40
0.0118494303
 40
0.0203291748
 40
0.0311440649
 40
0.044277772
 40
0.0597004809
 40
0.0773796672
 40
0.1193394787
 40
0.1697608932
 40
0.2281626707
 40
0.2939888284
 40
0.3666054878
 40
0.4453144076
 40
0.5293613627
 40
0.6179381915
 40
0.710187817
 40
0.8052227708
 40
1.0
 40
1.0
 40
1.0
 40
1.0
 10
183.715376168
 20
116.6797513817
 30
0.0
 10
183.7128064329
 20
116.6797518098
 30
0.0
 10
183.7066163059
 20
116.6833685773
 30
0.0
 10
183.7001334312
 20
116.6938468192
 30
0.0
 10
183.6932491847
 20
116.7099193573
 30
0.0
 10
183.6864725669
 20
116.7321908799
 30
0.0
 10
183.6795578924
 20
116.7606603322
 30
0.0
 10
183.6695365413
 20
116.8109757459
 30
0.0
 10
183.6574819283
 20
116.8895502238
 30
0.0
 10
183.6437231372
 20
117.0024499105
 30
0.0
 10
183.6298909394
 20
117.1398409292
 30
0.0
 10
183.6159874501
 20
117.3013979248
 30
0.0
 10
183.5962620626
 20
117.5639072023
 30
0.0
 10
183.572238538
 20
117.9491594114
 30
0.0
 10
183.5445910863
 20
118.4772443222
 30
0.0
 10
183.5168408723
 20
119.0891236769
 30
0.0
 10
183.4890092777
 20
119.7789085188
 30
0.0
 10
183.4611278308
 20
120.5399617101
 30
0.0
 10
183.4332099758
 20
121.3649539368
 30
0.0
 10
183.405267842
 20
122.2459482539
 30
0.0
 10
183.3773075892
 20
123.1744524312
 30
0.0
 10
183.3493347828
 20
124.1415083685
 30
0.0
 10
183.3117200045
 20
125.4808909674
 30
0.0
 10
183.2840065864
 20
126.4968995111
 30
0.0
 10
183.2653761888
 20
127.1797392464
 30
0.0
  0
SPLINE
  5
45A
100
AcDbEntity
  8
DEF_LAYER_ASSEM_MEMBER
100
AcDbSpline
 62
7
  6
CONTINUOUS
 70
0
 71
3
 72
25
 73
21
 74
0
 42
0.0000001
 43
0.0000001
 44
0.0000000001
 40
0.0
 40
0.0
 40
0.0
 40
0.0
 40
0.1893250329
 40
0.3717963521
 40
0.4583963157
 40
0.540844521
 40
0.6183958868
 40
0.6903518146
 40
0.756059457
 40
0.8149256422
 40
0.8664210439
 40
0.9100805048
 40
0.9455182373
 40
0.96005399
 40
0.972426975
 40
0.9826109333
 40
0.9905932863
 40
0.9963756493
 40
0.9984514745
 40
1.0
 40
1.0
 40
1.0
 40
1.0
 10
183.0530894291
 20
127.1797392464
 30
0.0
 10
183.0711665768
 20
126.5171771794
 30
0.0
 10
183.1066652685
 20
125.2160383271
 30
0.0
 10
183.1520026782
 20
123.6118768871
 30
0.0
 10
183.1888200092
 20
122.381791682
 30
0.0
 10
183.215936561
 20
121.5188961164
 30
0.0
 10
183.2430318038
 20
120.7072938351
 30
0.0
 10
183.2700973826
 20
119.9543324198
 30
0.0
 10
183.2971212889
 20
119.2668298927
 30
0.0
 10
183.3240882019
 20
118.6510163008
 30
0.0
 10
183.3509503705
 20
118.1124676453
 30
0.0
 10
183.3776935789
 20
117.6560527112
 30
0.0
 10
183.4010086328
 20
117.3290648204
 30
0.0
 10
183.4202767871
 20
117.1116399425
 30
0.0
 10
183.4337088993
 20
116.9824765734
 30
0.0
 10
183.4470180434
 20
116.8763684282
 30
0.0
 10
183.4602403055
 20
116.7935844352
 30
0.0
 10
183.4718142695
 20
116.7392433703
 30
0.0
 10
183.4817801785
 20
116.7078448188
 30
0.0
 10
183.4868473699
 20
116.6961427731
 30
0.0
 10
183.4895614611
 20
116.6914498497
 30
0.0
  0
SPLINE
  5
45B
100
AcDbEntity
  8
DEF_LAYER_ASSEM_MEMBER
100
AcDbSpline
 62
7
  6
CONTINUOUS
 70
0
 71
3
 72
29
 73
25
 74
0
 42
0.0000001
 43
0.0000001
 44
0.0000000001
 40
0.0
 40
0.0
 40
0.0
 40
0.0
 40
0.0007327006
 40
0.0018544675
 40
0.00349801
 40
0.005703558
 40
0.0084855262
 40
0.0118494678
 40
0.0203293605
 40
0.0311444555
 40
0.0442783417
 40
0.0597011525
 40
0.0773803344
 40
0.119339911
 40
0.1697612702
 40
0.2281632711
 40
0.2939898857
 40
0.3666067816
 40
0.4453156838
 40
0.5293625613
 40
0.6179394299
 40
0.7101890624
 40
0.8052235648
 40
1.0
 40
1.0
 40
1.0
 40
1.0
 10
181.9153761886
 20
116.679753609
 30
0.0
 10
181.9128065699
 20
116.6797537937
 30
0.0
 10
181.9066163039
 20
116.6833696314
 30
0.0
 10
181.900133232
 20
116.6938474542
 30
0.0
 10
181.8932489829
 20
116.7099197948
 30
0.0
 10
181.8864724114
 20
116.7321916316
 30
0.0
 10
181.8795576278
 20
116.7606615927
 30
0.0
 10
181.8695361637
 20
116.8109778994
 30
0.0
 10
181.8574813993
 20
116.8895537967
 30
0.0
 10
181.843722559
 20
117.0024553436
 30
0.0
 10
181.8298903064
 20
117.1398480488
 30
0.0
 10
181.8159868207
 20
117.3014059955
 30
0.0
 10
181.796261544
 20
117.5639147602
 30
0.0
 10
181.7722381402
 20
117.9491658869
 30
0.0
 10
181.7445908199
 20
118.4772504949
 30
0.0
 10
181.7168405059
 20
119.089131952
 30
0.0
 10
181.6890088529
 20
119.7789199113
 30
0.0
 10
181.661127342
 20
120.5399753637
 30
0.0
 10
181.6332095203
 20
121.3649679706
 30
0.0
 10
181.6052674195
 20
122.2459619693
 30
0.0
 10
181.5773071932
 20
123.1744659075
 30
0.0
 10
181.5493344451
 20
124.1415202899
 30
0.0
 10
181.5117198002
 20
125.4808983577
 30
0.0
 10
181.4840065078
 20
126.4969023916
 30
0.0
 10
181.4653761888
 20
127.1797392464
 30
0.0
  0
SPLINE
  5
45C
100
AcDbEntity
  8
DEF_LAYER_ASSEM_MEMBER
100
AcDbSpline
 62
7
  6
CONTINUOUS
 70
0
 71
3
 72
29
 73
25
 74
0
 42
0.0000001
 43
0.0000001
 44
0.0000000001
 40
0.0
 40
0.0
 40
0.0
 40
0.0
 40
0.0007326634
 40
0.0018543925
 40
0.0034979654
 40
0.0057035198
 40
0.0084853345
 40
0.0118490313
 40
0.0203284552
 40
0.0311434498
 40
0.0442768607
 40
0.0596992119
 40
0.0773785456
 40
0.1193383068
 40
0.169761112
 40
0.2281644869
 40
0.2939918775
 40
0.3666087073
 40
0.4453171969
 40
0.5293638216
 40
0.6179402869
 40
0.7101894211
 40
0.8052238692
 40
1.0
 40
1.0
 40
1.0
 40
1.0
 10
180.1153761882
 20
116.6797534886
 30
0.0
 10
180.1128066998
 20
116.6797533673
 30
0.0
 10
180.106616237
 20
116.6833685188
 30
0.0
 10
180.1001332519
 20
116.6938463525
 30
0.0
 10
180.0932493762
 20
116.7099187998
 30
0.0
 10
180.086473084
 20
116.7321902975
 30
0.0
 10
180.0795582839
 20
116.7606588315
 30
0.0
 10
180.0695369237
 20
116.8109720665
 30
0.0
 10
180.0574821931
 20
116.8895450922
 30
0.0
 10
180.0437242957
 20
117.0024430705
 30
0.0
 10
180.0298917749
 20
117.1398320985
 30
0.0
 10
180.0159881031
 20
117.3013872859
 30
0.0
 10
179.9962631543
 20
117.5638956542
 30
0.0
 10
179.9722385839
 20
117.9491529876
 30
0.0
 10
179.9445910892
 20
118.4772481677
 30
0.0
 10
179.9168399939
 20
119.0891422411
 30
0.0
 10
179.8890081959
 20
119.7789375437
 30
0.0
 10
179.8611266743
 20
120.5399940754
 30
0.0
 10
179.8332089999
 20
121.3649841605
 30
0.0
 10
179.8052670381
 20
122.2459744564
 30
0.0
 10
179.7773069424
 20
123.1744743934
 30
0.0
 10
179.7493342982
 20
124.141525472
 30
0.0
 10
179.7117197421
 20
125.4809006003
 30
0.0
 10
179.6840064796
 20
126.4969034258
 30
0.0
 10
179.6653761888
 20
127.1797392464
 30
0.0
  0
SPLINE
  5
45D
100
AcDbEntity
  8
DEF_LAYER_ASSEM_MEMBER
100
AcDbSpline
 62
7
  6
CONTINUOUS
 70
0
 71
3
 72
17
 73
13
 74
0
 42
0.0000001
 43
0.0000001
 44
0.0000000001
 40
0.0
 40
0.0
 40
0.0
 40
0.0
 40
0.0144379409
 40
0.035281712
 40
0.0626898757
 40
0.0967121609
 40
0.1845103693
 40
0.2983188072
 40
0.4375937385
 40
0.6016178486
 40
0.7895085383
 40
1.0
 40
1.0
 40
1.0
 40
1.0
 10
166.4936700919
 20
118.0682066166
 30
0.0
 10
166.4891254605
 20
118.0760706467
 30
0.0
 10
166.4810780265
 20
118.0969409617
 30
0.0
 10
166.4707273938
 20
118.1349709923
 30
0.0
 10
166.4602602737
 20
118.1857050207
 30
0.0
 10
166.4448337393
 20
118.2783091337
 30
0.0
 10
166.4264611308
 20
118.4254527192
 30
0.0
 10
166.4054696182
 20
118.6388707566
 30
0.0
 10
166.3843593535
 20
118.9004318048
 30
0.0
 10
166.3631185956
 20
119.2087068036
 30
0.0
 10
166.3418266823
 20
119.5618734512
 30
0.0
 10
166.3283411485
 20
119.8121299968
 30
0.0
 10
166.3215275113
 20
119.9443726845
 30
0.0
  0
SPLINE
  5
45E
100
AcDbEntity
  8
DEF_LAYER_ASSEM_MEMBER
100
AcDbSpline
 62
7
  6
CONTINUOUS
 70
0
 71
3
 72
29
 73
25
 74
0
 42
0.0000001
 43
0.0000001
 44
0.0000000001
 40
0.0
 40
0.0
 40
0.0
 40
0.0
 40
0.0007327027
 40
0.0018544745
 40
0.0034980291
 40
0.005703596
 40
0.0084855845
 40
0.0118495469
 40
0.0203294798
 40
0.0311446103
 40
0.0442785321
 40
0.0597013461
 40
0.0773804587
 40
0.119339812
 40
0.169761356
 40
0.2281637314
 40
0.2939906308
 40
0.3666076254
 40
0.4453164931
 40
0.5293631229
 40
0.6179393957
 40
0.7101885592
 40
0.805223359
 40
1.0
 40
1.0
 40
1.0
 40
1.0
 10
178.3153761879
 20
116.6797537145
 30
0.0
 10
178.312806562
 20
116.6797538798
 30
0.0
 10
178.306616247
 20
116.6833697048
 30
0.0
 10
178.3001331513
 20
116.6938475991
 30
0.0
 10
178.2932488807
 20
116.7099200652
 30
0.0
 10
178.2864722971
 20
116.7321920872
 30
0.0
 10
178.2795574916
 20
116.7606622581
 30
0.0
 10
178.2695360101
 20
116.810978852
 30
0.0
 10
178.2574812277
 20
116.8895550881
 30
0.0
 10
178.2437223689
 20
117.0024570256
 30
0.0
 10
178.2298901358
 20
117.1398499939
 30
0.0
 10
178.2159866872
 20
117.3014078355
 30
0.0
 10
178.1962614791
 20
117.5639155861
 30
0.0
 10
178.1722380781
 20
117.9491663319
 30
0.0
 10
178.144590786
 20
118.477252118
 30
0.0
 10
178.1168402833
 20
119.0891365259
 30
0.0
 10
178.0890085848
 20
119.77892714
 30
0.0
 10
178.061127041
 20
120.5399838109
 30
0.0
 10
178.0332092667
 20
121.3649757702
 30
0.0
 10
178.0052672785
 20
122.2459666859
 30
0.0
 10
177.9773071858
 20
123.1744660176
 30
0.0
 10
177.9493345196
 20
124.1415177039
 30
0.0
 10
177.9117198716
 20
125.4808958833
 30
0.0
 10
177.8840065274
 20
126.4969016745
 30
0.0
 10
177.8653761888
 20
127.1797392464
 30
0.0
  0
SPLINE
  5
45F
100
AcDbEntity
  8
DEF_LAYER_ASSEM_MEMBER
100
AcDbSpline
 62
7
  6
CONTINUOUS
 70
0
 71
3
 72
29
 73
25
 74
0
 42
0.0000001
 43
0.0000001
 44
0.0000000001
 40
0.0
 40
0.0
 40
0.0
 40
0.0
 40
0.0007326354
 40
0.0018543489
 40
0.0034979678
 40
0.0057035426
 40
0.008485287
 40
0.0118488647
 40
0.0203280796
 40
0.0311430759
 40
0.0442762628
 40
0.0596983505
 40
0.0773775859
 40
0.1193364886
 40
0.1697584261
 40
0.2281604597
 40
0.2939858268
 40
0.3666011994
 40
0.4453087177
 40
0.5293553155
 40
0.617933643
 40
0.7101852194
 40
0.8052224737
 40
1.0
 40
1.0
 40
1.0
 40
1.0
 10
176.5153761899
 20
116.6797527694
 30
0.0
 10
176.5128067996
 20
116.6797524544
 30
0.0
 10
176.5066162244
 20
116.6833672538
 30
0.0
 10
176.5001333575
 20
116.6938452501
 30
0.0
 10
176.4932497908
 20
116.7099179936
 30
0.0
 10
176.4864735865
 20
116.7321895018
 30
0.0
 10
176.4795587494
 20
116.7606574153
 30
0.0
 10
176.4695373573
 20
116.8109692249
 30
0.0
 10
176.457482555
 20
116.889541093
 30
0.0
 10
176.4437250953
 20
117.0024376104
 30
0.0
 10
176.4298924103
 20
117.1398249167
 30
0.0
 10
176.4159887427
 20
117.3013780576
 30
0.0
 10
176.3962642555
 20
117.5638821883
 30
0.0
 10
176.3722395495
 20
117.94913313
 30
0.0
 10
176.3445926456
 20
118.4772176124
 30
0.0
 10
176.3168419961
 20
119.0890968935
 30
0.0
 10
176.2890104841
 20
119.7788753372
 30
0.0
 10
176.2611294703
 20
120.5399163228
 30
0.0
 10
176.2332118385
 20
121.3648978568
 30
0.0
 10
176.205269546
 20
122.2458912421
 30
0.0
 10
176.1773090016
 20
123.174406246
 30
0.0
 10
176.1493354951
 20
124.1414823224
 30
0.0
 10
176.1117202997
 20
125.4808808468
 30
0.0
 10
176.0840066145
 20
126.4968984804
 30
0.0
 10
176.0653761888
 20
127.1797392464
 30
0.0
  0
SPLINE
  5
460
100
AcDbEntity
  8
DEF_LAYER_ASSEM_MEMBER
100
AcDbSpline
 62
7
  6
CONTINUOUS
 70
0
 71
3
 72
31
 73
27
 74
0
 42
0.0000001
 43
0.0000001
 44
0.0000000001
 40
0.0
 40
0.0
 40
0.0
 40
0.0
 40
0.0392027668
 40
0.0910336578
 40
0.1540229401
 40
0.2263758572
 40
0.3060274041
 40
0.3907026432
 40
0.4779823478
 40
0.5653725507
 40
0.6503761358
 40
0.7305644924
 40
0.8036472885
 40
0.8368630319
 40
0.8675386154
 40
0.8954572249
 40
0.9204176637
 40
0.9422455746
 40
0.9607841979
 40
0.9759080333
 40
0.9821554405
 40
0.9875142307
 40
0.9919777384
 40
0.9955414778
 40
0.9982086769
 40
1.0
 40
1.0
 40
1.0
 40
1.0
 10
184.4009296876
 20
118.6990998216
 30
0.0
 10
184.381419776
 20
118.9284638874
 30
0.0
 10
184.3460998199
 20
119.4618970812
 30
0.0
 10
184.2993135702
 20
120.3650824211
 30
0.0
 10
184.2521363681
 20
121.4631348482
 30
0.0
 10
184.2046063948
 20
122.7246495204
 30
0.0
 10
184.1569293152
 20
124.1135788477
 30
0.0
 10
184.1091550073
 20
125.5901992337
 30
0.0
 10
184.0613409375
 20
127.1122814591
 30
0.0
 10
184.0135240337
 20
128.6362923994
 30
0.0
 10
183.9657475246
 20
130.1186448765
 30
0.0
 10
183.9180490021
 20
131.5169434663
 30
0.0
 10
183.8772469915
 20
132.611207858
 30
0.0
 10
183.8440424557
 20
133.4148133347
 30
0.0
 10
183.8199605353
 20
133.9533696021
 30
0.0
 10
183.7959196798
 20
134.4434017038
 30
0.0
 10
183.7719225756
 20
134.8814147394
 30
0.0
 10
183.7480161521
 20
135.2642648426
 30
0.0
 10
183.7242025807
 20
135.5892291675
 30
0.0
 10
183.7034601555
 20
135.8226756223
 30
0.0
 10
183.6863492281
 20
135.9786980185
 30
0.0
 10
183.6743928815
 20
136.0723086854
 30
0.0
 10
183.6624972361
 20
136.1499989044
 30
0.0
 10
183.650749295
 20
136.211750297
 30
0.0
 10
183.6391237811
 20
136.2573437198
 30
0.0
 10
183.6300587768
 20
136.282158946
 30
0.0
 10
183.6247955352
 20
136.2912657679
 30
0.0
  0
SPLINE
  5
461
100
AcDbEntity
  8
DEF_LAYER_ASSEM_MEMBER
100
AcDbSpline
 62
7
  6
CONTINUOUS
 70
0
 71
3
 72
29
 73
25
 74
0
 42
0.0000001
 43
0.0000001
 44
0.0000000001
 40
0.0
 40
0.0
 40
0.0
 40
0.0
 40
0.0007326905
 40
0.0018544583
 40
0.0034980588
 40
0.0057036953
 40
0.0084857082
 40
0.0118496662
 40
0.0203295785
 40
0.0311447689
 40
0.0442786456
 40
0.0597013748
 40
0.0773804977
 40
0.1193397539
 40
0.1697616622
 40
0.2281644623
 40
0.2939916271
 40
0.3666087039
 40
0.4453173569
 40
0.5293634009
 40
0.6179392148
 40
0.7101882647
 40
0.8052234117
 40
1.0
 40
1.0
 40
1.0
 40
1.0
 10
174.7153761885
 20
116.6797538263
 30
0.0
 10
174.7128066052
 20
116.6797538221
 30
0.0
 10
174.7066161021
 20
116.683369334
 30
0.0
 10
174.7001329842
 20
116.6938474122
 30
0.0
 10
174.6932487782
 20
116.7099203066
 30
0.0
 10
174.6864722674
 20
116.7321928693
 30
0.0
 10
174.6795573739
 20
116.7606633361
 30
0.0
 10
174.6695358537
 20
116.8109799235
 30
0.0
 10
174.6574809804
 20
116.88955627
 30
0.0
 10
174.6437223115
 20
117.002458213
 30
0.0
 10
174.629890037
 20
117.1398509295
 30
0.0
 10
174.6159865914
 20
117.3014083533
 30
0.0
 10
174.5962615686
 20
117.5639155168
 30
0.0
 10
174.5722379391
 20
117.9491672271
 30
0.0
 10
174.5445906845
 20
118.4772554522
 30
0.0
 10
174.5168399594
 20
119.0891435582
 30
0.0
 10
174.4890082124
 20
119.7789368889
 30
0.0
 10
174.4611266865
 20
120.5399940354
 30
0.0
 10
174.4332090187
 20
121.3649834869
 30
0.0
 10
174.4052671692
 20
122.2459699985
 30
0.0
 10
174.3773072165
 20
123.1744652807
 30
0.0
 10
174.349334559
 20
124.1415161878
 30
0.0
 10
174.3117198998
 20
125.4808950165
 30
0.0
 10
174.2840065225
 20
126.4969018515
 30
0.0
 10
174.2653761888
 20
127.1797392464
 30
0.0
  0
SPLINE
  5
462
100
AcDbEntity
  8
DEF_LAYER_ASSEM_MEMBER
100
AcDbSpline
 62
7
  6
CONTINUOUS
 70
0
 71
3
 72
29
 73
25
 74
0
 42
0.0000001
 43
0.0000001
 44
0.0000000001
 40
0.0
 40
0.0
 40
0.0
 40
0.0
 40
0.0007326516
 40
0.0018543814
 40
0.0034979743
 40
0.0057035397
 40
0.0084853339
 40
0.0118489919
 40
0.0203283395
 40
0.0311433277
 40
0.0442766981
 40
0.0596989757
 40
0.0773782136
 40
0.1193374332
 40
0.1697593909
 40
0.2281613115
 40
0.2939864838
 40
0.3666020741
 40
0.4453100989
 40
0.5293569697
 40
0.6179352656
 40
0.7101867979
 40
0.8052235268
 40
1.0
 40
1.0
 40
1.0
 40
1.0
 10
172.9153761892
 20
116.6797523026
 30
0.0
 10
172.9128067421
 20
116.6797521636
 30
0.0
 10
172.9066163259
 20
116.6833673692
 30
0.0
 10
172.9001334842
 20
116.693845318
 30
0.0
 10
172.8932497408
 20
116.7099179443
 30
0.0
 10
172.886473496
 20
116.7321894901
 30
0.0
 10
172.8795586717
 20
116.7606578467
 30
0.0
 10
172.8695372647
 20
116.810970592
 30
0.0
 10
172.8574824222
 20
116.8895431787
 30
0.0
 10
172.8437245739
 20
117.0024407391
 30
0.0
 10
172.8298920131
 20
117.1398293504
 30
0.0
 10
172.8159883616
 20
117.3013838162
 30
0.0
 10
172.796263601
 20
117.5638897224
 30
0.0
 10
172.7722391788
 20
117.9491418824
 30
0.0
 10
172.7445921316
 20
118.4772271504
 30
0.0
 10
172.7168416276
 20
119.0891054383
 30
0.0
 10
172.6890101725
 20
119.778883578
 30
0.0
 10
172.6611291227
 20
120.5399264316
 30
0.0
 10
172.633211376
 20
121.3649114736
 30
0.0
 10
172.6052690581
 20
122.2459074962
 30
0.0
 10
172.5773084904
 20
123.1744232056
 30
0.0
 10
172.5493350783
 20
124.1414971904
 30
0.0
 10
172.511720044
 20
125.4808900465
 30
0.0
 10
172.4840065141
 20
126.496902162
 30
0.0
 10
172.4653761888
 20
127.1797392464
 30
0.0
  0
SPLINE
  5
463
100
AcDbEntity
  8
DEF_LAYER_ASSEM_MEMBER
100
AcDbSpline
 62
7
  6
CONTINUOUS
 70
0
 71
3
 72
29
 73
25
 74
0
 42
0.0000001
 43
0.0000001
 44
0.0000000001
 40
0.0
 40
0.0
 40
0.0
 40
0.0
 40
0.000732663
 40
0.0018544016
 40
0.003497967
 40
0.0057035066
 40
0.0084853188
 40
0.0118490168
 40
0.0203284192
 40
0.0311433302
 40
0.0442766998
 40
0.0596989643
 40
0.0773780513
 40
0.1193371123
 40
0.1697593184
 40
0.2281623381
 40
0.2939896411
 40
0.3666068746
 40
0.4453153377
 40
0.5293608701
 40
0.6179370134
 40
0.7101868969
 40
0.8052228
 40
1.0
 40
1.0
 40
1.0
 40
1.0
 10
171.1153761889
 20
116.6797520395
 30
0.0
 10
171.1128067018
 20
116.6797520345
 30
0.0
 10
171.1066164181
 20
116.6833675276
 30
0.0
 10
171.1001335969
 20
116.6938453927
 30
0.0
 10
171.0932497448
 20
116.7099178255
 30
0.0
 10
171.0864734611
 20
116.7321892277
 30
0.0
 10
171.0795586758
 20
116.7606577137
 30
0.0
 10
171.0695372891
 20
116.8109708644
 30
0.0
 10
171.0574824873
 20
116.8895435183
 30
0.0
 10
171.0437244384
 20
117.0024409726
 30
0.0
 10
171.0298920112
 20
117.1398292793
 30
0.0
 10
171.0159884558
 20
117.3013831728
 30
0.0
 10
170.9962636565
 20
117.5638879429
 30
0.0
 10
170.9722393172
 20
117.949139896
 30
0.0
 10
170.944592018
 20
118.4772293274
 30
0.0
 10
170.9168409616
 20
119.0891198047
 30
0.0
 10
170.8890090291
 20
119.7789150319
 30
0.0
 10
170.8611274541
 20
120.5399726522
 30
0.0
 10
170.8332097797
 20
121.364960308
 30
0.0
 10
170.8052678965
 20
122.2459456368
 30
0.0
 10
170.7773078869
 20
123.1744433337
 30
0.0
 10
170.7493349768
 20
124.1415011029
 30
0.0
 10
170.7117200998
 20
125.4808878376
 30
0.0
 10
170.6840065837
 20
126.4968996109
 30
0.0
 10
170.6653761888
 20
127.1797392464
 30
0.0
  0
SPLINE
  5
464
100
AcDbEntity
  8
DEF_LAYER_ASSEM_MEMBER
100
AcDbSpline
 62
7
  6
CONTINUOUS
 70
0
 71
3
 72
29
 73
25
 74
0
 42
0.0000001
 43
0.0000001
 44
0.0000000001
 40
0.0
 40
0.0
 40
0.0
 40
0.0
 40
0.0007326759
 40
0.0018544256
 40
0.0034979776
 40
0.0057035118
 40
0.008485369
 40
0.0118491416
 40
0.0203286941
 40
0.0311436613
 40
0.0442772438
 40
0.059699762
 40
0.0773789852
 40
0.1193385452
 40
0.1697603024
 40
0.2281620908
 40
0.2939874301
 40
0.3666033973
 40
0.4453119028
 40
0.5293589793
 40
0.617937123
 40
0.7101883609
 40
0.8052241177
 40
1.0
 40
1.0
 40
1.0
 40
1.0
 10
169.3153761885
 20
116.679752223
 30
0.0
 10
169.3128066563
 20
116.6797523099
 30
0.0
 10
169.3066164232
 20
116.6833680007
 30
0.0
 10
169.30013356
 20
116.6938458423
 30
0.0
 10
169.2932495787
 20
116.7099182048
 30
0.0
 10
169.2864732133
 20
116.7321896777
 30
0.0
 10
169.2795584388
 20
116.7606585806
 30
0.0
 10
169.2695370282
 20
116.8109726883
 30
0.0
 10
169.2574822185
 20
116.8895463335
 30
0.0
 10
169.2437238528
 20
117.002445227
 30
0.0
 10
169.2298914609
 20
117.1398353787
 30
0.0
 10
169.2159878666
 20
117.3013913849
 30
0.0
 10
169.1962627686
 20
117.5638992523
 30
0.0
 10
169.172238791
 20
117.9491518737
 30
0.0
 10
169.1445915492
 20
118.477237145
 30
0.0
 10
169.1168412365
 20
119.0891148486
 30
0.0
 10
169.0890097761
 20
119.7788944178
 30
0.0
 10
169.0611286043
 20
120.5399408469
 30
0.0
 10
169.033210772
 20
121.3649295998
 30
0.0
 10
169.0052684574
 20
122.2459274783
 30
0.0
 10
168.9773079124
 20
123.1744423237
 30
0.0
 10
168.9493346858
 20
124.1415113162
 30
0.0
 10
168.9117198279
 20
125.4808976327
 30
0.0
 10
168.8840064572
 20
126.4969042479
 30
0.0
 10
168.8653761888
 20
127.1797392464
 30
0.0
  0
SPLINE
  5
465
100
AcDbEntity
  8
DEF_LAYER_ASSEM_MEMBER
100
AcDbSpline
 62
7
  6
CONTINUOUS
 70
0
 71
3
 72
29
 73
25
 74
0
 42
0.0000001
 43
0.0000001
 44
0.0000000001
 40
0.0
 40
0.0
 40
0.0
 40
0.0
 40
0.0007326713
 40
0.0018544168
 40
0.0034979751
 40
0.0057035138
 40
0.0084853568
 40
0.011849105
 40
0.0203286144
 40
0.0311435894
 40
0.044277139
 40
0.0596996074
 40
0.0773788074
 40
0.119338084
 40
0.1697592058
 40
0.2281605438
 40
0.2939860742
 40
0.3666024691
 40
0.4453106891
 40
0.5293564274
 40
0.6179335142
 40
0.7101844024
 40
0.8052213538
 40
1.0
 40
1.0
 40
1.0
 40
1.0
 10
167.5153761888
 20
116.6797522231
 30
0.0
 10
167.5128066726
 20
116.679752269
 30
0.0
 10
167.5066164089
 20
116.6833678709
 30
0.0
 10
167.5001335531
 20
116.6938457256
 30
0.0
 10
167.4932496155
 20
116.7099181256
 30
0.0
 10
167.4864732798
 20
116.7321895956
 30
0.0
 10
167.4795584964
 20
116.7606583722
 30
0.0
 10
167.469537088
 20
116.8109721891
 30
0.0
 10
167.4574822681
 20
116.8895456217
 30
0.0
 10
167.4437240011
 20
117.0024442871
 30
0.0
 10
167.4298915766
 20
117.1398341712
 30
0.0
 10
167.415987973
 20
117.3013898054
 30
0.0
 10
167.396262999
 20
117.5638964299
 30
0.0
 10
167.3722391288
 20
117.9491457492
 30
0.0
 10
167.3445920563
 20
118.4772262238
 30
0.0
 10
167.316841871
 20
119.0891007955
 30
0.0
 10
167.2890102742
 20
119.7788809538
 30
0.0
 10
167.2611290468
 20
120.5399285548
 30
0.0
 10
167.2332113194
 20
121.3649131186
 30
0.0
 10
167.2052692319
 20
122.2459016027
 30
0.0
 10
167.1773089826
 20
123.1744068312
 30
0.0
 10
167.1493357048
 20
124.141475083
 30
0.0
 10
167.1117204809
 20
125.4808740575
 30
0.0
 10
167.0840067216
 20
126.4968945549
 30
0.0
 10
167.0653761888
 20
127.1797392464
 30
0.0
  0
SPLINE
  5
466
100
AcDbEntity
  8
DEF_LAYER_ASSEM_MEMBER
100
AcDbSpline
 62
7
  6
CONTINUOUS
 70
0
 71
3
 72
25
 73
21
 74
0
 42
0.0000001
 43
0.0000001
 44
0.0000000001
 40
0.0
 40
0.0
 40
0.0
 40
0.0
 40
0.189324626
 40
0.3717950449
 40
0.4583947087
 40
0.5408424896
 40
0.6183935178
 40
0.6903493141
 40
0.7560570734
 40
0.8149250018
 40
0.8664215781
 40
0.910081489
 40
0.9455199773
 40
0.9600547391
 40
0.9724270272
 40
0.9826117259
 40
0.9905931763
 40
0.9963746941
 40
0.9984508756
 40
1.0
 40
1.0
 40
1.0
 40
1.0
 10
172.4653761888
 20
127.1797392464
 30
0.0
 10
172.4472990718
 20
127.8423001898
 30
0.0
 10
172.4118005111
 20
129.1434350582
 30
0.0
 10
172.3664631614
 20
130.7475915993
 30
0.0
 10
172.3296461287
 20
131.9776716819
 30
0.0
 10
172.3025295804
 20
132.8405639198
 30
0.0
 10
172.2754345168
 20
133.6521634452
 30
0.0
 10
172.2483692189
 20
134.4051239786
 30
0.0
 10
172.2213447455
 20
135.0926328524
 30
0.0
 10
172.1943777681
 20
135.7084573537
 30
0.0
 10
172.167515006
 20
136.2470180361
 30
0.0
 10
172.1407703036
 20
136.7034414291
 30
0.0
 10
172.1174565582
 20
137.0304303172
 30
0.0
 10
172.0981875527
 20
137.2478519635
 30
0.0
 10
172.0847541349
 20
137.3770118988
 30
0.0
 10
172.071447951
 20
137.4831174255
 30
0.0
 10
172.0582253958
 20
137.5658979047
 30
0.0
 10
172.0466494283
 20
137.6202336048
 30
0.0
 10
172.0366841854
 20
137.6516325583
 30
0.0
 10
172.03161862
 20
137.663338984
 30
0.0
 10
172.0289041692
 20
137.6680341242
 30
0.0
  0
SPLINE
  5
467
100
AcDbEntity
  8
DEF_LAYER_ASSEM_MEMBER
100
AcDbSpline
 62
7
  6
CONTINUOUS
 70
0
 71
3
 72
19
 73
15
 74
0
 42
0.0000001
 43
0.0000001
 44
0.0000000001
 40
0.0
 40
0.0
 40
0.0
 40
0.0
 40
0.0066918317
 40
0.012380328
 40
0.0199001375
 40
0.0406621652
 40
0.0691989434
 40
0.1055510661
 40
0.1497087835
 40
0.2611759378
 40
0.4029375721
 40
0.5741163501
 40
0.7736460274
 40
1.0
 40
1.0
 40
1.0
 40
1.0
 10
165.71537619
 20
116.6797522391
 30
0.0
 10
165.7104890492
 20
116.6797505334
 30
0.0
 10
165.7032266218
 20
116.6880140934
 30
0.0
 10
165.6970908394
 20
116.7005380149
 30
0.0
 10
165.6883271765
 20
116.7240919
 30
0.0
 10
165.6784899892
 20
116.764285744
 30
0.0
 10
165.6670443452
 20
116.825875052
 30
0.0
 10
165.6556098701
 20
116.9046746721
 30
0.0
 10
165.6388681933
 20
117.0438962917
 30
0.0
 10
165.618826287
 20
117.2601787134
 30
0.0
 10
165.5958906841
 20
117.5692887458
 30
0.0
 10
165.5728334146
 20
117.9428493525
 30
0.0
 10
165.5496642784
 20
118.3782799079
 30
0.0
 10
165.5350654788
 20
118.6889678738
 30
0.0
 10
165.5276708911
 20
118.8541119697
 30
0.0
  0
SPLINE
  5
468
100
AcDbEntity
  8
DEF_LAYER_ASSEM_MEMBER
100
AcDbSpline
 62
7
  6
CONTINUOUS
 70
0
 71
3
 72
29
 73
25
 74
0
 42
0.0000001
 43
0.0000001
 44
0.0000000001
 40
0.0
 40
0.0
 40
0.0
 40
0.0
 40
0.0007326722
 40
0.0018544186
 40
0.0034980224
 40
0.0057036451
 40
0.0084855729
 40
0.0118494035
 40
0.0203290569
 40
0.0311441196
 40
0.04427766
 40
0.0597000879
 40
0.0773792817
 40
0.1193384185
 40
0.1697593592
 40
0.2281604378
 40
0.2939855864
 40
0.3666014681
 40
0.445309331
 40
0.5293553605
 40
0.6179330995
 40
0.710184483
 40
0.8052217227
 40
1.0
 40
1.0
 40
1.0
 40
1.0
 10
163.9153761897
 20
116.6797537391
 30
0.0
 10
163.9128066707
 20
116.6797536126
 30
0.0
 10
163.9066161181
 20
116.6833688205
 30
0.0
 10
163.9001330541
 20
116.6938468406
 30
0.0
 10
163.8932490343
 20
116.7099196727
 30
0.0
 10
163.8864726529
 20
116.7321919256
 30
0.0
 10
163.8795577771
 20
116.7606615771
 30
0.0
 10
163.8695363335
 20
116.8109764975
 30
0.0
 10
163.857481523
 20
116.8895510351
 30
0.0
 10
163.8437233321
 20
117.002450485
 30
0.0
 10
163.829890961
 20
117.139840494
 30
0.0
 10
163.8159874535
 20
117.3013959241
 30
0.0
 10
163.796262693
 20
117.5639018826
 30
0.0
 10
163.7722388554
 20
117.9491500159
 30
0.0
 10
163.7445919599
 20
118.4772284109
 30
0.0
 10
163.7168419247
 20
119.0891000422
 30
0.0
 10
163.6890104489
 20
119.778876086
 30
0.0
 10
163.6611293772
 20
120.5399192241
 30
0.0
 10
163.6332117023
 20
121.3649016772
 30
0.0
 10
163.605269517
 20
122.2458921297
 30
0.0
 10
163.5773091216
 20
123.174402311
 30
0.0
 10
163.5493356889
 20
124.1414755013
 30
0.0
 10
163.511720436
 20
125.4808757989
 30
0.0
 10
163.4840066845
 20
126.4968959146
 30
0.0
 10
163.4653761888
 20
127.1797392464
 30
0.0
  0
SPLINE
  5
469
100
AcDbEntity
  8
DEF_LAYER_ASSEM_MEMBER
100
AcDbSpline
 62
7
  6
CONTINUOUS
 70
0
 71
3
 72
39
 73
35
 74
0
 42
0.0000001
 43
0.0000001
 44
0.0000000001
 40
0.0
 40
0.0
 40
0.0
 40
0.0
 40
0.0019908921
 40
0.0050454302
 40
0.0091847582
 40
0.0144117999
 40
0.0207186721
 40
0.0280933503
 40
0.0459882039
 40
0.0679423745
 40
0.093765724
 40
0.1232269526
 40
0.1560644046
 40
0.1919848051
 40
0.2306655309
 40
0.3149037346
 40
0.4057657015
 40
0.5000000817
 40
0.5942345107
 40
0.6850964875
 40
0.769334403
 40
0.8080155507
 40
0.8439353887
 40
0.8767734471
 40
0.906234303
 40
0.9320575416
 40
0.9540121972
 40
0.9719062911
 40
0.9792815094
 40
0.9855887105
 40
0.9908149231
 40
0.9949544801
 40
0.9980096129
 40
1.0
 40
1.0
 40
1.0
 40
1.0
 10
182.6936700919
 20
118.0682014857
 30
0.0
 10
182.6876077355
 20
118.078690032
 30
0.0
 10
182.6774989672
 20
118.1080248709
 30
0.0
 10
182.6645204491
 20
118.1622852509
 30
0.0
 10
182.6514170768
 20
118.2368114962
 30
0.0
 10
182.6381130877
 20
118.3312367374
 30
0.0
 10
182.6247428107
 20
118.4455319132
 30
0.0
 10
182.6055800914
 20
118.6367177729
 30
0.0
 10
182.5823772511
 20
118.9231581937
 30
0.0
 10
182.555740707
 20
119.3218888763
 30
0.0
 10
182.5289944685
 20
119.7911295075
 30
0.0
 10
182.5021463982
 20
120.3266797452
 30
0.0
 10
182.4752446069
 20
120.9237365936
 30
0.0
 10
182.4483005833
 20
121.5769432315
 30
0.0
 10
182.4112788079
 20
122.5427681916
 30
0.0
 10
182.3658347709
 20
123.8428284104
 30
0.0
 10
182.3125645809
 20
125.4808566628
 30
0.0
 10
182.2592327946
 20
127.1797404065
 30
0.0
 10
182.2059009539
 20
128.8786242083
 30
0.0
 10
182.1526311156
 20
130.5166510768
 30
0.0
 10
182.1071861861
 20
131.8167121363
 30
0.0
 10
182.0701655744
 20
132.782534531
 30
0.0
 10
182.0432202878
 20
133.4357439521
 30
0.0
 10
182.0163197434
 20
134.0327988514
 30
0.0
 10
181.9894711181
 20
134.5683498167
 30
0.0
 10
181.9627241018
 20
135.0375903989
 30
0.0
 10
181.9360898776
 20
135.4363188986
 30
0.0
 10
181.9128841108
 20
135.7227607126
 30
0.0
 10
181.8937225964
 20
135.9139473151
 30
0.0
 10
181.8803544848
 20
136.0282430553
 30
0.0
 10
181.867047015
 20
136.1226660647
 30
0.0
 10
181.8539437104
 20
136.1971924689
 30
0.0
 10
181.8409687827
 20
136.2514549725
 30
0.0
 10
181.8308602314
 20
136.2807917166
 30
0.0
 10
181.8247954982
 20
136.2912753387
 30
0.0
  0
SPLINE
  5
46A
100
AcDbEntity
  8
DEF_LAYER_ASSEM_MEMBER
100
AcDbSpline
 62
7
  6
CONTINUOUS
 70
0
 71
3
 72
28
 73
24
 74
0
 42
0.0000001
 43
0.0000001
 44
0.0000000001
 40
0.0
 40
0.0
 40
0.0
 40
0.0
 40
0.1925587305
 40
0.3782445313
 40
0.466237965
 40
0.5498445893
 40
0.6282620085
 40
0.7007448804
 40
0.7666048504
 40
0.8252190047
 40
0.8760428549
 40
0.8983817131
 40
0.918604596
 40
0.9366635553
 40
0.9525179717
 40
0.9661360783
 40
0.9774873846
 40
0.9865492813
 40
0.9933111972
 40
0.9958290926
 40
0.9977739376
 40
0.9991545669
 40
1.0
 40
1.0
 40
1.0
 40
1.0
 10
160.2444197412
 20
127.1797392461
 30
0.0
 10
160.2564219729
 20
126.5292411063
 30
0.0
 10
160.2799129177
 20
125.2514612913
 30
0.0
 10
160.3097845229
 20
123.6764401482
 30
0.0
 10
160.3340028784
 20
122.4695014212
 30
0.0
 10
160.3517981143
 20
121.6249407853
 30
0.0
 10
160.3695463703
 20
120.8327977614
 30
0.0
 10
160.3872425866
 20
120.1006312111
 30
0.0
 10
160.4048755506
 20
119.4353944654
 30
0.0
 10
160.4224390312
 20
118.8433648843
 30
0.0
 10
160.4375639294
 20
118.39837755
 30
0.0
 10
160.4498536345
 20
118.0830892839
 30
0.0
 10
160.4586504637
 20
117.8784550041
 30
0.0
 10
160.4674250522
 20
117.6957516755
 30
0.0
 10
160.4761709474
 20
117.5353905553
 30
0.0
 10
160.4848804487
 20
117.3977318706
 30
0.0
 10
160.4935170863
 20
117.2830633744
 30
0.0
 10
160.5020942915
 20
117.1916546805
 30
0.0
 10
160.5095962787
 20
117.1300928492
 30
0.0
 10
160.5159675865
 20
117.0927277433
 30
0.0
 10
160.5201986879
 20
117.0733756044
 30
0.0
 10
160.5243465369
 20
117.0600063119
 30
0.0
 10
160.5276878334
 20
117.0530056481
 30
0.0
 10
160.5297083269
 20
117.0509864244
 30
0.0
  0
SPLINE
  5
46B
100
AcDbEntity
  8
DEF_LAYER_ASSEM_MEMBER
100
AcDbSpline
 62
7
  6
CONTINUOUS
 70
0
 71
3
 72
26
 73
22
 74
0
 42
0.0000001
 43
0.0000001
 44
0.0000000001
 40
0.0
 40
0.0
 40
0.0
 40
0.0
 40
0.191305898
 40
0.3752098241
 40
0.462338687
 40
0.5451953933
 40
0.6230328141
 40
0.6951465937
 40
0.7608783093
 40
0.8196223477
 40
0.870837033
 40
0.9140444162
 40
0.9325145015
 40
0.9488370063
 40
0.9629743217
 40
0.9748910498
 40
0.9845625186
 40
0.9919700758
 40
0.9971039814
 40
0.9988258153
 40
1.0
 40
1.0
 40
1.0
 40
1.0
 10
160.2444197412
 20
127.1797392461
 30
0.0
 10
160.2331716033
 20
127.789366932
 30
0.0
 10
160.2110371369
 20
128.9850333388
 30
0.0
 10
160.1826179127
 20
130.4583286686
 30
0.0
 10
160.159479977
 20
131.5860104661
 30
0.0
 10
160.1424198443
 20
132.3756895077
 30
0.0
 10
160.1253442306
 20
133.1175002429
 30
0.0
 10
160.1082586343
 20
133.8047144418
 30
0.0
 10
160.091170415
 20
134.4310536069
 30
0.0
 10
160.0740954198
 20
134.9907564059
 30
0.0
 10
160.057045493
 20
135.4786323416
 30
0.0
 10
160.0422380716
 20
135.8381425376
 30
0.0
 10
160.0301021476
 20
136.086449753
 30
0.0
 10
160.0214909941
 20
136.2421621954
 30
0.0
 10
160.0129074903
 20
136.3769562274
 30
0.0
 10
160.0043436294
 20
136.4904957735
 30
0.0
 10
159.9958870064
 20
136.5825458021
 30
0.0
 10
159.9874617095
 20
136.6528145
 30
0.0
 10
159.9801647903
 20
136.697782608
 30
0.0
 10
159.9736871968
 20
136.7225246656
 30
0.0
 10
159.9704134229
 20
136.7312378631
 30
0.0
 10
159.9685419563
 20
136.7344786874
 30
0.0
  0
SPLINE
  5
46C
100
AcDbEntity
  8
DEF_LAYER_ASSEM_MEMBER
100
AcDbSpline
 62
7
  6
CONTINUOUS
 70
0
 71
3
 72
39
 73
35
 74
0
 42
0.0000001
 43
0.0000001
 44
0.0000000001
 40
0.0
 40
0.0
 40
0.0
 40
0.0
 40
0.0019899344
 40
0.0050441169
 40
0.0091847124
 40
0.0144113001
 40
0.0207172223
 40
0.0280928592
 40
0.0459869819
 40
0.0679423228
 40
0.0937643998
 40
0.1232264712
 40
0.1560636824
 40
0.2717603259
 40
0.4057645518
 40
0.4763076668
 40
0.5473282713
 40
0.6173947865
 40
0.6850949596
 40
0.7490644272
 40
0.8080143598
 40
0.8607576885
 40
0.8844641831
 40
0.9062336261
 40
0.9259543645
 40
0.9435301179
 40
0.9588718565
 40
0.9719053202
 40
0.9825683514
 40
0.9908130441
 40
0.9940206082
 40
0.9966164117
 40
0.9986042935
 40
1.0
 40
1.0
 40
1.0
 40
1.0
 10
177.2936700972
 20
118.0682154861
 30
0.0
 10
177.287609641
 20
118.078698404
 30
0.0
 10
177.2774946988
 20
118.1080222521
 30
0.0
 10
177.2645181709
 20
118.1622836166
 30
0.0
 10
177.251420612
 20
118.2368134368
 30
0.0
 10
177.2381130303
 20
118.3312373797
 30
0.0
 10
177.2247405638
 20
118.4455296412
 30
0.0
 10
177.2055833332
 20
118.6367117097
 30
0.0
 10
177.1823744188
 20
118.9231602135
 30
0.0
 10
177.1557430283
 20
119.3218863645
 30
0.0
 10
177.1289937395
 20
119.7911314546
 30
0.0
 10
177.1021420886
 20
120.3266776568
 30
0.0
 10
177.0534393773
 20
121.4086869256
 30
0.0
 10
176.9893775323
 20
123.1267529975
 30
0.0
 10
176.9255236594
 20
125.0743817808
 30
0.0
 10
176.8726727538
 20
126.7503735943
 30
0.0
 10
176.8323531532
 20
128.0375071053
 30
0.0
 10
176.7920442913
 20
129.3073333612
 30
0.0
 10
176.7517637495
 20
130.5342324068
 30
0.0
 10
176.7115378212
 20
131.6934514248
 30
0.0
 10
176.6713889045
 20
132.7616023774
 30
0.0
 10
176.6369440937
 20
133.5847910683
 30
0.0
 10
176.6089364741
 20
134.1817976595
 30
0.0
 10
176.5887080009
 20
134.5780033028
 30
0.0
 10
176.5685053375
 20
134.936851767
 30
0.0
 10
176.548348575
 20
135.2565229501
 30
0.0
 10
176.5282450337
 20
135.5354132284
 30
0.0
 10
176.5082553959
 20
135.7721301034
 30
0.0
 10
176.4883838275
 20
135.9654767121
 30
0.0
 10
176.4709805224
 20
136.0989688096
 30
0.0
 10
176.4563929095
 20
136.1832009521
 30
0.0
 10
176.4464752268
 20
136.2296008652
 30
0.0
 10
176.4366608488
 20
136.2646212254
 30
0.0
 10
176.4290465802
 20
136.2839104541
 30
0.0
 10
176.4247955164
 20
136.2912627873
 30
0.0
  0
SPLINE
  5
46D
100
AcDbEntity
  8
DEF_LAYER_ASSEM_MEMBER
100
AcDbSpline
 62
7
  6
CONTINUOUS
 70
0
 71
3
 72
39
 73
35
 74
0
 42
0.0000001
 43
0.0000001
 44
0.0000000001
 40
0.0
 40
0.0
 40
0.0
 40
0.0
 40
0.0019905558
 40
0.0050455933
 40
0.0091850445
 40
0.0144114254
 40
0.0207186165
 40
0.0280936969
 40
0.0459879573
 40
0.0679424427
 40
0.0937657779
 40
0.1232266487
 40
0.1560646179
 40
0.1919845645
 40
0.2306655886
 40
0.3149035564
 40
0.4057655378
 40
0.4999999463
 40
0.5942343253
 40
0.6850962983
 40
0.7693344494
 40
0.8080152128
 40
0.8439354995
 40
0.8767730981
 40
0.9062341981
 40
0.93205761
 40
0.9540117942
 40
0.9719065143
 40
0.9792812677
 40
0.9855882559
 40
0.9908151484
 40
0.9949544546
 40
0.9980091331
 40
1.0
 40
1.0
 40
1.0
 40
1.0
 10
175.4936701157
 20
118.0682017232
 30
0.0
 10
175.4876053845
 20
118.0786865338
 30
0.0
 10
175.4774978167
 20
118.1080240069
 30
0.0
 10
175.4645215998
 20
118.1622859805
 30
0.0
 10
175.4514182163
 20
118.2368122233
 30
0.0
 10
175.4381114594
 20
118.3312356535
 30
0.0
 10
175.4247430996
 20
118.4455315004
 30
0.0
 10
175.405581105
 20
118.6367181937
 30
0.0
 10
175.3823761682
 20
118.923159247
 30
0.0
 10
175.3557412132
 20
119.3218883039
 30
0.0
 10
175.3289946113
 20
119.7911286107
 30
0.0
 10
175.3021459053
 20
120.3266797669
 30
0.0
 10
175.2752452185
 20
120.9237349388
 30
0.0
 10
175.2483001615
 20
121.5769438105
 30
0.0
 10
175.2112792833
 20
122.5427665343
 30
0.0
 10
175.1658345584
 20
123.8428273454
 30
0.0
 10
175.1125646535
 20
125.4808546218
 30
0.0
 10
175.0592328181
 20
127.1797385154
 30
0.0
 10
175.0059010187
 20
128.8786223598
 30
0.0
 10
174.9526308922
 20
130.5166505138
 30
0.0
 10
174.9071867216
 20
131.8167108234
 30
0.0
 10
174.8701651287
 20
132.782535118
 30
0.0
 10
174.8432208411
 20
133.4357422478
 30
0.0
 10
174.8163193946
 20
134.0327985975
 30
0.0
 10
174.7894710215
 20
134.5683493718
 30
0.0
 10
174.7627249084
 20
135.0375897433
 30
0.0
 10
174.7360885341
 20
135.4363201327
 30
0.0
 10
174.7128853629
 20
135.7227602926
 30
0.0
 10
174.6937226619
 20
135.9139465173
 30
0.0
 10
174.6803529401
 20
136.0282420453
 30
0.0
 10
174.6670483849
 20
136.1226668515
 30
0.0
 10
174.6539448234
 20
136.1971929639
 30
0.0
 10
174.6409666468
 20
136.2514537776
 30
0.0
 10
174.6308585998
 20
136.2807899316
 30
0.0
 10
174.6247955209
 20
136.2912778845
 30
0.0
  0
SPLINE
  5
46E
100
AcDbEntity
  8
DEF_LAYER_ASSEM_MEMBER
100
AcDbSpline
 62
7
  6
CONTINUOUS
 70
0
 71
3
 72
25
 73
21
 74
0
 42
0.0000001
 43
0.0000001
 44
0.0000000001
 40
0.0
 40
0.0
 40
0.0
 40
0.0
 40
0.1893252387
 40
0.3717965179
 40
0.4583958717
 40
0.5408438007
 40
0.6183950979
 40
0.6903511026
 40
0.7560589818
 40
0.8149255165
 40
0.8664212076
 40
0.9100805333
 40
0.9455180898
 40
0.9600538496
 40
0.9724268647
 40
0.9826108508
 40
0.9905932349
 40
0.9963756288
 40
0.9984514678
 40
1.0
 40
1.0
 40
1.0
 40
1.0
 10
174.2653761888
 20
127.1797392464
 30
0.0
 10
174.2472990215
 20
127.8423020338
 30
0.0
 10
174.2118003061
 20
129.1434414666
 30
0.0
 10
174.1664629557
 20
130.7476013536
 30
0.0
 10
174.1296457097
 20
131.9776833181
 30
0.0
 10
174.1025292801
 20
132.8405755435
 30
0.0
 10
174.0754340831
 20
133.6521768877
 30
0.0
 10
174.0483684856
 20
134.4051391609
 30
0.0
 10
174.0213445434
 20
135.0926440107
 30
0.0
 10
173.9943774604
 20
135.7084606644
 30
0.0
 10
173.9675152347
 20
136.2470110827
 30
0.0
 10
173.9407720642
 20
136.703425943
 30
0.0
 10
173.9174570325
 20
137.0304127679
 30
0.0
 10
173.898188956
 20
137.247837165
 30
0.0
 10
173.8847568552
 20
137.3770007646
 30
0.0
 10
173.8714476873
 20
137.4831092205
 30
0.0
 10
173.8582254024
 20
137.5658935282
 30
0.0
 10
173.8466514023
 20
137.6202348562
 30
0.0
 10
173.836685477
 20
137.6516335903
 30
0.0
 10
173.8316182648
 20
137.6633357075
 30
0.0
 10
173.8289041561
 20
137.6680286478
 30
0.0
  0
SPLINE
  5
46F
100
AcDbEntity
  8
DEF_LAYER_ASSEM_MEMBER
100
AcDbSpline
 62
7
  6
CONTINUOUS
 70
0
 71
3
 72
29
 73
25
 74
0
 42
0.0000001
 43
0.0000001
 44
0.0000000001
 40
0.0
 40
0.0
 40
0.0
 40
0.0
 40
0.05659603
 40
0.122075744
 40
0.2734834696
 40
0.3559269634
 40
0.4403614398
 40
0.524841596
 40
0.6074212854
 40
0.6861982642
 40
0.7593583289
 40
0.8252174126
 40
0.8549288976
 40
0.8822610769
 40
0.907059864
 40
0.9291804342
 40
0.9484996306
 40
0.964905827
 40
0.9783110674
 40
0.9886438565
 40
0.9926445444
 40
0.9958660802
 40
0.998312081
 40
1.0
 40
1.0
 40
1.0
 40
1.0
 10
166.3215275113
 20
119.9443726845
 30
0.0
 10
166.3056389772
 20
120.2527457875
 30
0.0
 10
166.2748812291
 20
120.9180767089
 30
0.0
 10
166.2149688429
 20
122.4089751886
 30
0.0
 10
166.1591217101
 20
124.0411498691
 30
0.0
 10
166.1032759443
 20
125.7767845461
 30
0.0
 10
166.0602438569
 20
127.1474938331
 30
0.0
 10
166.0171963231
 20
128.5189456191
 30
0.0
 10
165.9741747415
 20
129.8595162668
 30
0.0
 10
165.9312044422
 20
131.1382947313
 30
0.0
 10
165.8883143701
 20
132.325795276
 30
0.0
 10
165.8515517102
 20
133.2456424179
 30
0.0
 10
165.8216550775
 20
133.9155216733
 30
0.0
 10
165.8000281388
 20
134.361523103
 30
0.0
 10
165.7784371599
 20
134.7660579699
 30
0.0
 10
165.7568881226
 20
135.1268094404
 30
0.0
 10
165.7354043043
 20
135.4416822659
 30
0.0
 10
165.7140415091
 20
135.7088948804
 30
0.0
 10
165.6928084239
 20
135.9268883916
 30
0.0
 10
165.6742189863
 20
136.0771377194
 30
0.0
 10
165.6586028248
 20
136.1716358557
 30
0.0
 10
165.6480177529
 20
136.2233587188
 30
0.0
 10
165.6375534773
 20
136.2620735479
 30
0.0
 10
165.6294070857
 20
136.2832971375
 30
0.0
 10
165.6247954921
 20
136.2912683969
 30
0.0
  0
SPLINE
  5
470
100
AcDbEntity
  8
DEF_LAYER_ASSEM_MEMBER
100
AcDbSpline
 62
7
  6
CONTINUOUS
 70
0
 71
3
 72
39
 73
35
 74
0
 42
0.0000001
 43
0.0000001
 44
0.0000000001
 40
0.0
 40
0.0
 40
0.0
 40
0.0
 40
0.0019901817
 40
0.0050441735
 40
0.0091846359
 40
0.0144114959
 40
0.0207174667
 40
0.0280927936
 40
0.0459873115
 40
0.0679424105
 40
0.0937646536
 40
0.1232267998
 40
0.1560638822
 40
0.1919842732
 40
0.2306655173
 40
0.3149037044
 40
0.4057655894
 40
0.5000000665
 40
0.5942345945
 40
0.6850964462
 40
0.7693344305
 40
0.8080160917
 40
0.8439358705
 40
0.8767734925
 40
0.9062352981
 40
0.9320575277
 40
0.9540131356
 40
0.9719068344
 40
0.9792827262
 40
0.9855889004
 40
0.9908151137
 40
0.9949556335
 40
0.9980103099
 40
1.0
 40
1.0
 40
1.0
 40
1.0
 10
173.6936700875
 20
118.0682139982
 30
0.0
 10
173.6876098837
 20
118.0786987781
 30
0.0
 10
173.6774961078
 20
118.1080231095
 30
0.0
 10
173.664517563
 20
118.1622834681
 30
0.0
 10
173.6514200832
 20
118.236812901
 30
0.0
 10
173.6381134311
 20
118.3312379664
 30
0.0
 10
173.6247409021
 20
118.4455300957
 30
0.0
 10
173.6055823305
 20
118.6367125469
 30
0.0
 10
173.5823752734
 20
118.9231598038
 30
0.0
 10
173.5557427464
 20
119.321887171
 30
0.0
 10
173.5289927295
 20
119.7911314933
 30
0.0
 10
173.5021474695
 20
120.32667783
 30
0.0
 10
173.4752442245
 20
120.9237371511
 30
0.0
 10
173.4483004332
 20
121.5769438507
 30
0.0
 10
173.411279176
 20
122.5427706426
 30
0.0
 10
173.3658347042
 20
123.8428318102
 30
0.0
 10
173.3125645432
 20
125.4808580484
 30
0.0
 10
173.2592327906
 20
127.1797404078
 30
0.0
 10
173.2059010222
 20
128.8786225626
 30
0.0
 10
173.1526311265
 20
130.516647684
 30
0.0
 10
173.1071858494
 20
131.8167099227
 30
0.0
 10
173.0701657433
 20
132.7825343375
 30
0.0
 10
173.0432206899
 20
133.4357430825
 30
0.0
 10
173.0163186261
 20
134.0327999373
 30
0.0
 10
172.9894728307
 20
134.5683473857
 30
0.0
 10
172.9627220565
 20
135.0375925895
 30
0.0
 10
172.9360920515
 20
135.4363181788
 30
0.0
 10
172.912881573
 20
135.7227666966
 30
0.0
 10
172.8937248768
 20
135.9139490113
 30
0.0
 10
172.880353414
 20
136.0282420201
 30
0.0
 10
172.8670450165
 20
136.1226645152
 30
0.0
 10
172.8539454899
 20
136.1971941077
 30
0.0
 10
172.8409728034
 20
136.2514571513
 30
0.0
 10
172.8308567961
 20
136.2807827
 30
0.0
 10
172.8247955055
 20
136.2912633963
 30
0.0
  0
SPLINE
  5
471
100
AcDbEntity
  8
DEF_LAYER_ASSEM_MEMBER
100
AcDbSpline
 62
7
  6
CONTINUOUS
 70
0
 71
3
 72
22
 73
18
 74
0
 42
0.0000001
 43
0.0000001
 44
0.0000000001
 40
0.0
 40
0.0
 40
0.0
 40
0.0
 40
0.2035866808
 40
0.3909482458
 40
0.5583697504
 40
0.6335791921
 40
0.7026104988
 40
0.7651356248
 40
0.8208437479
 40
0.8694743166
 40
0.9107886741
 40
0.9445996108
 40
0.9707629658
 40
0.9809476998
 40
0.9892010368
 40
0.995536828
 40
1.0
 40
1.0
 40
1.0
 40
1.0
 10
178.5461169159
 20
130.6898417683
 30
0.0
 10
178.533162925
 20
131.0707069313
 30
0.0
 10
178.5076010728
 20
131.8020609271
 30
0.0
 10
178.4680026667
 20
132.8465012234
 30
0.0
 10
178.4340187353
 20
133.6506732275
 30
0.0
 10
178.4063948856
 20
134.2334076982
 30
0.0
 10
178.3864415185
 20
134.6199308752
 30
0.0
 10
178.3665214059
 20
134.9698990019
 30
0.0
 10
178.3466385483
 20
135.2816145805
 30
0.0
 10
178.3268143462
 20
135.5535381936
 30
0.0
 10
178.3070988333
 20
135.7843637718
 30
0.0
 10
178.2874959165
 20
135.9729494438
 30
0.0
 10
178.2703378913
 20
136.1032020159
 30
0.0
 10
178.2559499656
 20
136.1854447707
 30
0.0
 10
178.2461636079
 20
136.2308114966
 30
0.0
 10
178.2364827953
 20
136.2651215867
 30
0.0
 10
178.2289781082
 20
136.2840456649
 30
0.0
 10
178.2247955083
 20
136.2912776962
 30
0.0
  0
SPLINE
  5
472
100
AcDbEntity
  8
DEF_LAYER_ASSEM_MEMBER
100
AcDbSpline
 62
7
  6
CONTINUOUS
 70
0
 71
3
 72
39
 73
35
 74
0
 42
0.0000001
 43
0.0000001
 44
0.0000000001
 40
0.0
 40
0.0
 40
0.0
 40
0.0
 40
0.0019897489
 40
0.0050442571
 40
0.0091848349
 40
0.0144111643
 40
0.0207172199
 40
0.0280930746
 40
0.0459868957
 40
0.067942462
 40
0.0937646243
 40
0.1232265586
 40
0.1560640614
 40
0.1919839476
 40
0.2306655583
 40
0.3149035821
 40
0.4057654347
 40
0.4999999565
 40
0.5942344462
 40
0.685096321
 40
0.7693344727
 40
0.8080158174
 40
0.8439360944
 40
0.8767732558
 40
0.9062354124
 40
0.932057576
 40
0.9540128159
 40
0.9719071609
 40
0.97928265
 40
0.9855885854
 40
0.9908153229
 40
0.9949558751
 40
0.998009939
 40
1.0
 40
1.0
 40
1.0
 40
1.0
 10
180.8936701081
 20
118.0682155619
 30
0.0
 10
180.8876091423
 20
118.0786968586
 30
0.0
 10
180.8774933275
 20
118.1080215867
 30
0.0
 10
180.8645194351
 20
118.1622841144
 30
0.0
 10
180.8514206859
 20
118.2368138766
 30
0.0
 10
180.838112503
 20
118.3312367249
 30
0.0
 10
180.8247405795
 20
118.4455294296
 30
0.0
 10
180.8055839565
 20
118.6367115385
 30
0.0
 10
180.7823737237
 20
118.9231603207
 30
0.0
 10
180.7557435474
 20
119.3218859525
 30
0.0
 10
180.72899266
 20
119.7911312396
 30
0.0
 10
180.7021471522
 20
120.3266783136
 30
0.0
 10
180.675244778
 20
120.9237358254
 30
0.0
 10
180.6482999691
 20
121.5769441572
 30
0.0
 10
180.611279678
 20
122.542769086
 30
0.0
 10
180.5658345297
 20
123.8428311805
 30
0.0
 10
180.5125645848
 20
125.4808563972
 30
0.0
 10
180.4592328212
 20
127.1797384824
 30
0.0
 10
180.4059010678
 20
128.8786207029
 30
0.0
 10
180.3526309549
 20
130.5166466318
 30
0.0
 10
180.3071863188
 20
131.81670804
 30
0.0
 10
180.2701652938
 20
132.7825344788
 30
0.0
 10
180.2432212895
 20
133.4357415245
 30
0.0
 10
180.2163181598
 20
134.0328006594
 30
0.0
 10
180.1894730035
 20
134.5683470273
 30
0.0
 10
180.1627225913
 20
135.0375917277
 30
0.0
 10
180.1360907954
 20
135.4363184441
 30
0.0
 10
180.1128827801
 20
135.7227663924
 30
0.0
 10
180.0937249109
 20
135.9139486167
 30
0.0
 10
180.0803523663
 20
136.0282407685
 30
0.0
 10
180.0670452181
 20
136.122665341
 30
0.0
 10
180.0539478767
 20
136.1971950182
 30
0.0
 10
180.0409701606
 20
136.2514558187
 30
0.0
 10
180.0308558171
 20
136.2807797347
 30
0.0
 10
180.0247955269
 20
136.2912636161
 30
0.0
  0
SPLINE
  5
473
100
AcDbEntity
  8
DEF_LAYER_ASSEM_MEMBER
100
AcDbSpline
 62
7
  6
CONTINUOUS
 70
0
 71
3
 72
22
 73
18
 74
0
 42
0.0000001
 43
0.0000001
 44
0.0000000001
 40
0.0
 40
0.0
 40
0.0
 40
0.0
 40
0.2047899238
 40
0.393110129
 40
0.5612045732
 40
0.6366154158
 40
0.7057557236
 40
0.7682856093
 40
0.8238948507
 40
0.8723149345
 40
0.9133050092
 40
0.9466780642
 40
0.9722785102
 40
0.9821384972
 40
0.9900329906
 40
0.9959710487
 40
1.0
 40
1.0
 40
1.0
 40
1.0
 10
177.7522602958
 20
131.2187613263
 30
0.0
 10
177.7392272552
 20
131.6596915185
 30
0.0
 10
177.7135152743
 20
132.5060711929
 30
0.0
 10
177.6736738576
 20
133.7142650575
 30
0.0
 10
177.6394748888
 20
134.6438036512
 30
0.0
 10
177.6116645492
 20
135.3166770059
 30
0.0
 10
177.5915891945
 20
135.7622842364
 30
0.0
 10
177.5715456005
 20
136.1651923859
 30
0.0
 10
177.5515440347
 20
136.5234106914
 30
0.0
 10
177.5316033121
 20
136.8351518548
 30
0.0
 10
177.5117785743
 20
137.0988987371
 30
0.0
 10
177.4920780452
 20
137.3133205299
 30
0.0
 10
177.4748247693
 20
137.4606356412
 30
0.0
 10
177.4603104533
 20
137.5528866437
 30
0.0
 10
177.450505469
 20
137.6030194788
 30
0.0
 10
177.4408088002
 20
137.6402145377
 30
0.0
 10
177.4332480482
 20
137.6605070041
 30
0.0
 10
177.4289041631
 20
137.6680200868
 30
0.0
  0
SPLINE
  5
474
100
AcDbEntity
  8
DEF_LAYER_ASSEM_MEMBER
100
AcDbSpline
 62
7
  6
CONTINUOUS
 70
0
 71
3
 72
47
 73
43
 74
0
 42
0.0000001
 43
0.0000001
 44
0.0000000001
 40
0.0
 40
0.0
 40
0.0
 40
0.0
 40
0.000787734
 40
0.0018467489
 40
0.0048053171
 40
0.008898925
 40
0.0141258252
 40
0.0204789102
 40
0.0279466882
 40
0.0365115797
 40
0.0461548469
 40
0.0685888223
 40
0.0950408544
 40
0.1252664348
 40
0.1589853946
 40
0.1958821877
 40
0.2356140096
 40
0.2778099262
 40
0.3220756743
 40
0.4151504306
 40
0.511370543
 40
0.6071512248
 40
0.6537570665
 40
0.6989238098
 40
0.7422293219
 40
0.7832694475
 40
0.82166209
 40
0.8570478402
 40
0.8890980213
 40
0.9175144065
 40
0.9420318117
 40
0.9624256602
 40
0.9710156737
 40
0.9785091637
 40
0.984888776
 40
0.9901418325
 40
0.9942617535
 40
0.9958962
 40
0.9972477833
 40
0.9983196944
 40
0.9991196632
 40
1.0
 40
1.0
 40
1.0
 40
1.0
 10
161.2289041764
 20
137.6680195937
 30
0.0
 10
161.2316665294
 20
137.6632402036
 30
0.0
 10
161.236814238
 20
137.6512945886
 30
0.0
 10
161.2469435606
 20
137.6191694712
 30
0.0
 10
161.2586917102
 20
137.5634461467
 30
0.0
 10
161.2721107344
 20
137.4784600541
 30
0.0
 10
161.2856243837
 20
137.3694325095
 30
0.0
 10
161.2992640835
 20
137.2366472907
 30
0.0
 10
161.3129478246
 20
137.0803653425
 30
0.0
 10
161.3266772623
 20
136.9009569768
 30
0.0
 10
161.3460025983
 20
136.61680026
 30
0.0
 10
161.369645096
 20
136.2073139492
 30
0.0
 10
161.3969402298
 20
135.6535877322
 30
0.0
 10
161.4243168986
 20
135.02069909
 30
0.0
 10
161.4517581997
 20
134.3145587166
 30
0.0
 10
161.4792418908
 20
133.541756925
 30
0.0
 10
161.5067543821
 20
132.7095171706
 30
0.0
 10
161.5342887542
 20
131.8256119103
 30
0.0
 10
161.5716468242
 20
130.5680182743
 30
0.0
 10
161.6176361631
 20
128.9319271149
 30
0.0
 10
161.6720176794
 20
126.9349266395
 30
0.0
 10
161.7177260184
 20
125.2634533903
 30
0.0
 10
161.7548145367
 20
123.9496484682
 30
0.0
 10
161.7823696511
 20
123.0034546153
 30
0.0
 10
161.8099118233
 20
122.0962806837
 30
0.0
 10
161.8374367331
 20
121.2366003395
 30
0.0
 10
161.8649358014
 20
120.4324490175
 30
0.0
 10
161.8924004289
 20
119.6913351656
 30
0.0
 10
161.9198163205
 20
119.0201830155
 30
0.0
 10
161.9471489306
 20
118.4252592263
 30
0.0
 10
161.9743846281
 20
117.9121149111
 30
0.0
 10
161.9980485921
 20
117.5379248557
 30
0.0
 10
162.0174814679
 20
117.2830369482
 30
0.0
 10
162.0311751653
 20
117.1262118578
 30
0.0
 10
162.0447967047
 20
116.9928724406
 30
0.0
 10
162.058363659
 20
116.8832932306
 30
0.0
 10
162.0702071403
 20
116.8070848737
 30
0.0
 10
162.0801206705
 20
116.758203694
 30
0.0
 10
162.0868390525
 20
116.7307158311
 30
0.0
 10
162.0937659923
 20
116.7087639304
 30
0.0
 10
162.1007972139
 20
116.6919833281
 30
0.0
 10
162.1092069843
 20
116.6797548463
 30
0.0
 10
162.1153761697
 20
116.6797487496
 30
0.0
  0
SPLINE
  5
475
100
AcDbEntity
  8
DEF_LAYER_ASSEM_MEMBER
100
AcDbSpline
 62
7
  6
CONTINUOUS
 70
0
 71
3
 72
9
 73
5
 74
0
 42
0.0000001
 43
0.0000001
 44
0.0000000001
 40
0.0
 40
0.0
 40
0.0
 40
0.0
 40
0.2561762382
 40
1.0
 40
1.0
 40
1.0
 40
1.0
 10
177.8653761888
 20
127.1797392464
 30
0.0
 10
177.8559658372
 20
127.5246466472
 30
0.0
 10
177.8192214729
 20
128.8710138032
 30
0.0
 10
177.7818596051
 20
130.2173657524
 30
0.0
 10
177.7522602958
 20
131.2187613263
 30
0.0
  0
SPLINE
  5
476
100
AcDbEntity
  8
DEF_LAYER_ASSEM_MEMBER
100
AcDbSpline
 62
7
  6
CONTINUOUS
 70
0
 71
3
 72
26
 73
22
 74
0
 42
0.0000001
 43
0.0000001
 44
0.0000000001
 40
0.0
 40
0.0
 40
0.0
 40
0.0
 40
0.0016387162
 40
0.0038776253
 40
0.0102072864
 40
0.0190308319
 40
0.0303376169
 40
0.0440928578
 40
0.0602554483
 40
0.0787694713
 40
0.0995694519
 40
0.1477342125
 40
0.2040692819
 40
0.2677756968
 40
0.3379493618
 40
0.4135929459
 40
0.4936292243
 40
0.5769184013
 40
0.6622760942
 40
0.834316231
 40
1.0
 40
1.0
 40
1.0
 40
1.0
 10
179.0936701039
 20
118.0682003645
 30
0.0
 10
179.0902141345
 20
118.074177274
 30
0.0
 10
179.0838402998
 20
118.0893201033
 30
0.0
 10
179.0713028194
 20
118.1304635144
 30
0.0
 10
179.0568265088
 20
118.2024374454
 30
0.0
 10
179.0402641368
 20
118.312662235
 30
0.0
 10
179.0235966124
 20
118.4544832589
 30
0.0
 10
179.0067538764
 20
118.6273507327
 30
0.0
 10
178.9898574677
 20
118.830707429
 30
0.0
 10
178.9729045997
 20
119.0638247908
 30
0.0
 10
178.949078873
 20
119.4316174134
 30
0.0
 10
178.9199427333
 20
119.9587284899
 30
0.0
 10
178.8862633345
 20
120.6666079501
 30
0.0
 10
178.8524824148
 20
121.4673018166
 30
0.0
 10
178.8186220216
 20
122.3494061912
 30
0.0
 10
178.7847142541
 20
123.3003553677
 30
0.0
 10
178.7507730624
 20
124.3065936537
 30
0.0
 10
178.7168105877
 20
125.3537802857
 30
0.0
 10
178.6713953892
 20
126.7884239756
 30
0.0
 10
178.6158133221
 20
128.5700591012
 30
0.0
 10
178.569845247
 20
129.9921961712
 30
0.0
 10
178.5461169159
 20
130.6898417683
 30
0.0
  0
SPLINE
  5
477
100
AcDbEntity
  8
DEF_LAYER_ASSEM_MEMBER
100
AcDbSpline
 62
7
  6
CONTINUOUS
 70
0
 71
3
 72
25
 73
21
 74
0
 42
0.0000001
 43
0.0000001
 44
0.0000000001
 40
0.0
 40
0.0
 40
0.0
 40
0.0
 40
0.1893243883
 40
0.3717975606
 40
0.4583987184
 40
0.5408472024
 40
0.6183984125
 40
0.6903537213
 40
0.7560603296
 40
0.814926025
 40
0.8664215752
 40
0.9100812179
 40
0.9455190366
 40
0.9600546092
 40
0.9724274263
 40
0.9826112765
 40
0.9905934315
 40
0.9963756487
 40
0.9984514644
 40
1.0
 40
1.0
 40
1.0
 40
1.0
 10
163.4653761888
 20
127.1797392464
 30
0.0
 10
163.4472991016
 20
127.8422990964
 30
0.0
 10
163.4118003056
 20
129.1434422553
 30
0.0
 10
163.3664626111
 20
130.7476121965
 30
0.0
 10
163.3296449491
 20
131.9777091136
 30
0.0
 10
163.302528175
 20
132.8406093364
 30
0.0
 10
163.2754329292
 20
133.652209928
 30
0.0
 10
163.2483675371
 20
134.4051650576
 30
0.0
 10
163.2213438579
 20
135.0926601267
 30
0.0
 10
163.1943770752
 20
135.7084689405
 30
0.0
 10
163.1675149656
 20
136.247017073
 30
0.0
 10
163.1407714414
 20
136.7034334747
 30
0.0
 10
163.1174564581
 20
137.0304216997
 30
0.0
 10
163.0981881472
 20
137.2478456573
 30
0.0
 10
163.0847560301
 20
137.3770074283
 30
0.0
 10
163.071447109
 20
137.4831139326
 30
0.0
 10
163.0582248993
 20
137.5658963479
 30
0.0
 10
163.0466509009
 20
137.6202361294
 30
0.0
 10
163.0366852427
 20
137.6516342246
 30
0.0
 10
163.0316181864
 20
137.6633363243
 30
0.0
 10
163.0289041572
 20
137.6680293248
 30
0.0
  0
SPLINE
  5
478
100
AcDbEntity
  8
DEF_LAYER_ASSEM_MEMBER
100
AcDbSpline
 62
7
  6
CONTINUOUS
 70
0
 71
3
 72
39
 73
35
 74
0
 42
0.0000001
 43
0.0000001
 44
0.0000000001
 40
0.0
 40
0.0
 40
0.0
 40
0.0
 40
0.0019896992
 40
0.0050448241
 40
0.0091850274
 40
0.0144109853
 40
0.0207176595
 40
0.0280934525
 40
0.0459870259
 40
0.0679424894
 40
0.0937650647
 40
0.1232263967
 40
0.1560643572
 40
0.1919839483
 40
0.2306655946
 40
0.3149034787
 40
0.4057653573
 40
0.4999998807
 40
0.5942343136
 40
0.6850962343
 40
0.7693344988
 40
0.8080154372
 40
0.8439360657
 40
0.8767730555
 40
0.9062349633
 40
0.932057624
 40
0.9540122539
 40
0.9719072053
 40
0.9792820426
 40
0.9855882803
 40
0.9908154368
 40
0.9949554265
 40
0.9980094368
 40
1.0
 40
1.0
 40
1.0
 40
1.0
 10
164.6936701249
 20
118.0682116894
 30
0.0
 10
164.6876075075
 20
118.0786916882
 30
0.0
 10
164.6774924728
 20
118.1080211288
 30
0.0
 10
164.6645219804
 20
118.1622851584
 30
0.0
 10
164.6514200346
 20
118.2368136813
 30
0.0
 10
164.6381112777
 20
118.3312357259
 30
0.0
 10
164.6247416653
 20
118.4455298954
 30
0.0
 10
164.6055835491
 20
118.6367138122
 30
0.0
 10
164.5823738212
 20
118.9231602764
 30
0.0
 10
164.5557431119
 20
119.3218864262
 30
0.0
 10
164.528993428
 20
119.7911302214
 30
0.0
 10
164.5021464198
 20
120.3266790977
 30
0.0
 10
164.4752453159
 20
120.923734266
 30
0.0
 10
164.4482997335
 20
121.5769440704
 30
0.0
 10
164.4112798758
 20
122.5427670296
 30
0.0
 10
164.3658344184
 20
123.8428292323
 30
0.0
 10
164.3125646346
 20
125.4808545237
 30
0.0
 10
164.2592328419
 20
127.1797372087
 30
0.0
 10
164.2059010851
 20
128.8786201517
 30
0.0
 10
164.1526308181
 20
130.5166474452
 30
0.0
 10
164.1071867673
 20
131.8167079636
 30
0.0
 10
164.070164936
 20
132.7825351676
 30
0.0
 10
164.0432215307
 20
133.4357411578
 30
0.0
 10
164.0163183671
 20
134.0328001508
 30
0.0
 10
163.9894722592
 20
134.5683471724
 30
0.0
 10
163.9627238864
 20
135.0375900216
 30
0.0
 10
163.9360889973
 20
135.4363196925
 30
0.0
 10
163.9128848416
 20
135.7227641137
 30
0.0
 10
163.8937239074
 20
135.9139476993
 30
0.0
 10
163.8803518325
 20
136.0282403541
 30
0.0
 10
163.8670470273
 20
136.1226662904
 30
0.0
 10
163.8539474706
 20
136.1971944713
 30
0.0
 10
163.8409678728
 20
136.2514540325
 30
0.0
 10
163.8308559163
 20
136.2807814941
 30
0.0
 10
163.8247955393
 20
136.2912688607
 30
0.0
  0
SPLINE
  5
479
100
AcDbEntity
  8
DEF_LAYER_ASSEM_MEMBER
100
AcDbSpline
 62
7
  6
CONTINUOUS
 70
0
 71
3
 72
25
 73
21
 74
0
 42
0.0000001
 43
0.0000001
 44
0.0000000001
 40
0.0
 40
0.0
 40
0.0
 40
0.0
 40
0.1893247771
 40
0.3717964197
 40
0.4583969655
 40
0.5408453311
 40
0.6183966893
 40
0.6903524807
 40
0.7560598005
 40
0.8149257434
 40
0.8664210224
 40
0.9100805691
 40
0.9455184491
 40
0.9600541308
 40
0.9724270712
 40
0.9826110313
 40
0.9905932954
 40
0.9963756074
 40
0.9984514592
 40
1.0
 40
1.0
 40
1.0
 40
1.0
 10
163.2530894291
 20
127.1797392464
 30
0.0
 10
163.271166553
 20
126.5171780501
 30
0.0
 10
163.3066652434
 20
125.2160389125
 30
0.0
 10
163.3520027427
 20
123.61187514
 30
0.0
 10
163.3888201673
 20
122.3817861587
 30
0.0
 10
163.4159368291
 20
121.5188879906
 30
0.0
 10
163.4430320936
 20
120.7072856228
 30
0.0
 10
163.4700976141
 20
119.9543258121
 30
0.0
 10
163.4971214851
 20
119.2668257152
 30
0.0
 10
163.5240882749
 20
118.6510145047
 30
0.0
 10
163.5509503888
 20
118.1124668042
 30
0.0
 10
163.5776937388
 20
117.656051475
 30
0.0
 10
163.6010087002
 20
117.3290629946
 30
0.0
 10
163.6202769865
 20
117.1116380077
 30
0.0
 10
163.6337091258
 20
116.982475037
 30
0.0
 10
163.6470181241
 20
116.876367337
 30
0.0
 10
163.6602403976
 20
116.7935838215
 30
0.0
 10
163.6718145096
 20
116.7392432049
 30
0.0
 10
163.6817802203
 20
116.7078446314
 30
0.0
 10
163.6868473621
 20
116.6961423994
 30
0.0
 10
163.6895614608
 20
116.6914494182
 30
0.0
  0
SPLINE
  5
47A
100
AcDbEntity
  8
DEF_LAYER_ASSEM_MEMBER
100
AcDbSpline
 62
7
  6
CONTINUOUS
 70
0
 71
3
 72
39
 73
35
 74
0
 42
0.0000001
 43
0.0000001
 44
0.0000000001
 40
0.0
 40
0.0
 40
0.0
 40
0.0
 40
0.001989635
 40
0.0050444438
 40
0.0091848154
 40
0.0144108402
 40
0.0207170705
 40
0.028092845
 40
0.0459861651
 40
0.0679414197
 40
0.093763334
 40
0.1232245221
 40
0.1560617621
 40
0.1919809092
 40
0.230662039
 40
0.3148988486
 40
0.4057596259
 40
0.4999932367
 40
0.5942270308
 40
0.685088598
 40
0.7693268988
 40
0.8080082471
 40
0.8439290758
 40
0.8767665539
 40
0.9062292313
 40
0.932052298
 40
0.9540080686
 40
0.9719037029
 40
0.9792793621
 40
0.9855859325
 40
0.9908134762
 40
0.9949544179
 40
0.9980090462
 40
1.0
 40
1.0
 40
1.0
 40
1.0
 10
161.0936701179
 20
118.0682142453
 30
0.0
 10
161.0876085
 20
118.078694356
 30
0.0
 10
161.0774926076
 20
118.1080206126
 30
0.0
 10
161.0645211301
 20
118.1622833422
 30
0.0
 10
161.0514208479
 20
118.2368114981
 30
0.0
 10
161.0381123959
 20
118.3312322085
 30
0.0
 10
161.0247416418
 20
118.445523695
 30
0.0
 10
161.0055848216
 20
118.6367031775
 30
0.0
 10
160.982374559
 20
118.9231463467
 30
0.0
 10
160.955744774
 20
119.3218653035
 30
0.0
 10
160.9289944976
 20
119.7911023925
 30
0.0
 10
160.9021485807
 20
120.3266414762
 30
0.0
 10
160.8752471046
 20
120.9236880355
 30
0.0
 10
160.8483020707
 20
121.576886948
 30
0.0
 10
160.811282444
 20
122.5426965197
 30
0.0
 10
160.7658374624
 20
123.842740996
 30
0.0
 10
160.7125680956
 20
125.4807457962
 30
0.0
 10
160.6592368018
 20
127.1796105832
 30
0.0
 10
160.6059055217
 20
128.8784801801
 30
0.0
 10
160.5526357894
 20
130.5164999707
 30
0.0
 10
160.507191912
 20
131.8165597085
 30
0.0
 10
160.4701708326
 20
132.7823898734
 30
0.0
 10
160.4432274827
 20
133.4356018772
 30
0.0
 10
160.416324351
 20
134.0326691292
 30
0.0
 10
160.3894791163
 20
134.5682257816
 30
0.0
 10
160.36273016
 20
135.0374822122
 30
0.0
 10
160.3360965471
 20
135.4362251782
 30
0.0
 10
160.3128899147
 20
135.722685208
 30
0.0
 10
160.2937323416
 20
135.9138801641
 30
0.0
 10
160.280361492
 20
136.0281822788
 30
0.0
 10
160.2670559068
 20
136.1226183432
 30
0.0
 10
160.2539556843
 20
136.1971582528
 30
0.0
 10
160.2409710506
 20
136.2514294007
 30
0.0
 10
160.2308549202
 20
136.2807611017
 30
0.0
 10
160.2247954956
 20
136.2912517492
 30
0.0
  0
SPLINE
  5
47B
100
AcDbEntity
  8
DEF_LAYER_ASSEM_MEMBER
100
AcDbSpline
 62
7
  6
CONTINUOUS
 70
0
 71
3
 72
46
 73
42
 74
0
 42
0.0000001
 43
0.0000001
 44
0.0000000001
 40
0.0
 40
0.0
 40
0.0
 40
0.0
 40
0.0007875584
 40
0.0018466171
 40
0.0048057603
 40
0.0088990106
 40
0.0141256266
 40
0.0204793255
 40
0.0279468593
 40
0.0365113649
 40
0.0461551867
 40
0.0685886318
 40
0.0950411604
 40
0.1252665314
 40
0.1589853329
 40
0.1958825149
 40
0.2356139411
 40
0.2778100073
 40
0.3220758893
 40
0.4151505624
 40
0.5113706238
 40
0.6071512256
 40
0.6989236296
 40
0.7422294448
 40
0.783269483
 40
0.8216617413
 40
0.8570481162
 40
0.8890978213
 40
0.9175141152
 40
0.9420321056
 40
0.9624251781
 40
0.9710159075
 40
0.9785091621
 40
0.9848881737
 40
0.9901419499
 40
0.9942619248
 40
0.9958958339
 40
0.9972471949
 40
0.9983193454
 40
0.9991197097
 40
1.0
 40
1.0
 40
1.0
 40
1.0
 10
161.8895614568
 20
116.6914562732
 30
0.0
 10
161.8867987847
 20
116.6962340594
 30
0.0
 10
161.8816504664
 20
116.7081785488
 30
0.0
 10
161.8715213531
 20
116.740307014
 30
0.0
 10
161.8597765716
 20
116.7960329182
 30
0.0
 10
161.8463540222
 20
116.8810178995
 30
0.0
 10
161.83284017
 20
116.9900453444
 30
0.0
 10
161.8192027743
 20
117.1228314105
 30
0.0
 10
161.8055177361
 20
117.2791131673
 30
0.0
 10
161.7917875025
 20
117.4585209995
 30
0.0
 10
161.7724644463
 20
117.7426754093
 30
0.0
 10
161.7488192897
 20
118.1521653225
 30
0.0
 10
161.7215261032
 20
118.7058900948
 30
0.0
 10
161.6941485366
 20
119.3387797667
 30
0.0
 10
161.6667071561
 20
120.0449204848
 30
0.0
 10
161.6392241069
 20
120.8177213523
 30
0.0
 10
161.6117109243
 20
121.6499623134
 30
0.0
 10
161.584176879
 20
122.5338670391
 30
0.0
 10
161.5468188982
 20
123.7914624283
 30
0.0
 10
161.5008288386
 20
125.4275540009
 30
0.0
 10
161.4464500046
 20
127.424553659
 30
0.0
 10
161.3920796636
 20
129.412424201
 30
0.0
 10
161.3460031602
 20
131.0295725219
 30
0.0
 10
161.3085545158
 20
132.263199408
 30
0.0
 10
161.2810288957
 20
133.1228787851
 30
0.0
 10
161.2535292551
 20
133.9270313805
 30
0.0
 10
161.2260657377
 20
134.6681438236
 30
0.0
 10
161.1986491642
 20
135.3392965393
 30
0.0
 10
161.1713157776
 20
135.9342205664
 30
0.0
 10
161.14408302
 20
136.4473632236
 30
0.0
 10
161.120414633
 20
136.8215567756
 30
0.0
 10
161.1009843452
 20
137.0764428603
 30
0.0
 10
161.0872913123
 20
137.2332672283
 30
0.0
 10
161.0736685351
 20
137.3666057071
 30
0.0
 10
161.0601044996
 20
137.4761865445
 30
0.0
 10
161.0482617322
 20
137.552396671
 30
0.0
 10
161.0383418397
 20
137.6012719144
 30
0.0
 10
161.0316200885
 20
137.6287544348
 30
0.0
 10
161.0246917975
 20
137.6507109987
 30
0.0
 10
161.0176619868
 20
137.6674903699
 30
0.0
 10
161.0092582935
 20
137.6797392464
 30
0.0
 10
161.0030894291
 20
137.6797392464
 30
0.0
  0
SPLINE
  5
47C
100
AcDbEntity
  8
DEF_LAYER_ASSEM_MEMBER
100
AcDbSpline
 62
7
  6
CONTINUOUS
 70
0
 71
3
 72
39
 73
35
 74
0
 42
0.0000001
 43
0.0000001
 44
0.0000000001
 40
0.0
 40
0.0
 40
0.0
 40
0.0
 40
0.0019908353
 40
0.0050451207
 40
0.0091846218
 40
0.0144118279
 40
0.0207184495
 40
0.0280930746
 40
0.0459880942
 40
0.0679423627
 40
0.0937654907
 40
0.1232269939
 40
0.1560641933
 40
0.1919847643
 40
0.2306655081
 40
0.3149037705
 40
0.4057657222
 40
0.5000001165
 40
0.5942345887
 40
0.6850965343
 40
0.7693343965
 40
0.8080157794
 40
0.8439354545
 40
0.8767735759
 40
0.9062345236
 40
0.9320575203
 40
0.9540125263
 40
0.9719063409
 40
0.9792818187
 40
0.9855889202
 40
0.9908149066
 40
0.9949547078
 40
0.9980099437
 40
1.0
 40
1.0
 40
1.0
 40
1.0
 10
162.8936700832
 20
118.068204305
 30
0.0
 10
162.8876087881
 20
118.0786930612
 30
0.0
 10
162.8774987109
 20
118.108025008
 30
0.0
 10
162.8645195792
 20
118.162284733
 30
0.0
 10
162.8514172889
 20
118.2368115574
 30
0.0
 10
162.8381136177
 20
118.3312373727
 30
0.0
 10
162.8247424518
 20
118.4455315401
 30
0.0
 10
162.8055800317
 20
118.6367165424
 30
0.0
 10
162.7823772972
 20
118.9231581602
 30
0.0
 10
162.7557409362
 20
119.3218889916
 30
0.0
 10
162.7289940924
 20
119.7911303623
 30
0.0
 10
162.7021467615
 20
120.3266792572
 30
0.0
 10
162.6752443166
 20
120.9237370625
 30
0.0
 10
162.6483006983
 20
121.5769431255
 30
0.0
 10
162.6112787363
 20
122.5427692843
 30
0.0
 10
162.5658348164
 20
123.8428294807
 30
0.0
 10
162.5125645527
 20
125.4808575753
 30
0.0
 10
162.4592327836
 20
127.1797410514
 30
0.0
 10
162.4059009526
 20
128.8786244875
 30
0.0
 10
162.3526311848
 20
130.5166506016
 30
0.0
 10
162.3071859404
 20
131.8167121651
 30
0.0
 10
162.2701657602
 20
132.7825343942
 30
0.0
 10
162.2432201819
 20
133.4357444262
 30
0.0
 10
162.2163196499
 20
134.0327990899
 30
0.0
 10
162.1894714656
 20
134.5683493867
 30
0.0
 10
162.1627234476
 20
135.0375909767
 30
0.0
 10
162.1360907224
 20
135.4363184265
 30
0.0
 10
162.1128832734
 20
135.722762017
 30
0.0
 10
162.0937229601
 20
135.9139479547
 30
0.0
 10
162.080354779
 20
136.0282432372
 30
0.0
 10
162.0670463481
 20
136.1226656339
 30
0.0
 10
162.0539432921
 20
136.1971926408
 30
0.0
 10
162.0409708863
 20
136.2514560834
 30
0.0
 10
162.0308596397
 20
136.2807903418
 30
0.0
 10
162.0247954925
 20
136.291271973
 30
0.0
  0
SPLINE
  5
47D
100
AcDbEntity
  8
DEF_LAYER_ASSEM_MEMBER
100
AcDbSpline
 62
7
  6
CONTINUOUS
 70
0
 71
3
 72
25
 73
21
 74
0
 42
0.0000001
 43
0.0000001
 44
0.0000000001
 40
0.0
 40
0.0
 40
0.0
 40
0.0
 40
0.1893251204
 40
0.3717962911
 40
0.4583959871
 40
0.5408440606
 40
0.6183950702
 40
0.6903505257
 40
0.7560581122
 40
0.8149251168
 40
0.8664218613
 40
0.9100818601
 40
0.9455197841
 40
0.960055127
 40
0.9724277953
 40
0.9826116521
 40
0.9905935732
 40
0.9963756096
 40
0.9984514507
 40
1.0
 40
1.0
 40
1.0
 40
1.0
 10
176.0653761888
 20
127.1797392464
 30
0.0
 10
176.0472990312
 20
127.8423016775
 30
0.0
 10
176.0118003401
 20
129.1434404302
 30
0.0
 10
175.9664629595
 20
130.74760086
 30
0.0
 10
175.9296456904
 20
131.9776842556
 30
0.0
 10
175.9025292091
 20
132.840577252
 30
0.0
 10
175.875434109
 20
133.6521762454
 30
0.0
 10
175.8483686554
 20
134.4051346323
 30
0.0
 10
175.8213448009
 20
135.0926382426
 30
0.0
 10
175.7943774733
 20
135.7084592501
 30
0.0
 10
175.7675150393
 20
136.2470174072
 30
0.0
 10
175.7407709257
 20
136.7034395918
 30
0.0
 10
175.7174560702
 20
137.0304286509
 30
0.0
 10
175.6981874961
 20
137.2478516329
 30
0.0
 10
175.6847553035
 20
137.3770120887
 30
0.0
 10
175.6714468872
 20
137.4831173271
 30
0.0
 10
175.6582247832
 20
137.5658983353
 30
0.0
 10
175.6466505286
 20
137.6202366538
 30
0.0
 10
175.6366852245
 20
137.6516343224
 30
0.0
 10
175.6316182421
 20
137.6633366183
 30
0.0
 10
175.6289041588
 20
137.6680296431
 30
0.0
  0
ENDSEC
  0
SECTION
  2
OBJECTS
  0
DICTIONARY
  5
C
100
AcDbDictionary
280
0
281
1
  3
ACAD_GROUP
350
D
  3
ACAD_MLINESTYLE
350
17
  3
ACAD_LAYOUT
350
1A
  3
ACAD_PLOTSETTINGS
350
19
  3
ACAD_PLOTSTYLENAME
350
E
  0
DICTIONARY
  5
D
102
{ACAD_REACTORS
330
C
102
}
100
AcDbDictionary
280
0
281
1
  0
ACDBDICTIONARYWDFLT
  5
E
102
{ACAD_REACTORS
330
C
102
}
100
AcDbDictionary
281
1
  3
Normal
350
F
100
AcDbDictionaryWithDefault
340
F
  0
DICTIONARY
  5
17
102
{ACAD_REACTORS
330
C
102
}
100
AcDbDictionary
280
0
281
1
  3
Standard
350
18
  0
DICTIONARY
  5
19
102
{ACAD_REACTORS
330
C
102
}
100
AcDbDictionary
281
1
  0
DICTIONARY
  5
1A
102
{ACAD_REACTORS
330
C
102
}
100
AcDbDictionary
281
1
  3
Model
350
47E
  3
Layout1
350
47F
  0
ACDBPLACEHOLDER
  5
F
102
{ACAD_REACTORS
330
E
102
}
  0
MLINESTYLE
  5
18
102
{ACAD_REACTORS
330
17
102
}
100
AcDbMlineStyle
  2
STANDARD
 70
0
  3

 62
256
 51
90.0
 52
90.0
 71
2
 49
0.5
 62
256
  6
BYLAYER
 49
-0.5
 62
256
  6
BYLAYER
  0
LAYOUT
  5
47E
102
{ACAD_REACTORS
330
1A
102
}
100
AcDbPlotSettings
  1

  2
none_device
  4
ISO_A4_(297.00_x_210.00_MM)
  6

 40
0.0
 41
0.0
 42
0.0
 43
0.0
 44
297.0
 45
210.0
 46
0.0
 47
0.0
 48
0.0
 49
0.0
140
0.0
141
0.0
142
1.0
143
1.0
 70
1024
 72
1
 73
0
 74
0
  7

 75
0
147
1.0
148
0.0
149
0.0
100
AcDbLayout
  1
Model
 70
0
 71
0
 10
0.0
 20
0.0
 11
297.0
 21
210.0
 12
0.0
 22
0.0
 32
0.0
 14
0.0
 24
0.0
 34
0.0
 15
0.0
 25
0.0
 35
0.0
146
0.0
 13
0.0
 23
0.0
 33
0.0
 16
1.0
 26
0.0
 36
0.0
 17
0.0
 27
1.0
 37
0.0
 76
0
330
239
345
0
346
0
  0
LAYOUT
  5
47F
102
{ACAD_REACTORS
330
1A
102
}
100
AcDbPlotSettings
  1

  2
none_device
  4
ISO_A4_(297.00_x_210.00_MM)
  6

 40
0.0
 41
0.0
 42
0.0
 43
0.0
 44
297.0
 45
210.0
 46
0.0
 47
0.0
 48
0.0
 49
0.0
140
0.0
141
0.0
142
1.0
143
1.0
 70
0
 72
1
 73
0
 74
0
  7

 75
0
147
1.0
148
0.0
149
0.0
100
AcDbLayout
  1
Layout1
 70
0
 71
1
 10
0.0
 20
0.0
 11
297.0
 21
210.0
 12
0.0
 22
0.0
 32
0.0
 14
0.0
 24
0.0
 34
0.0
 15
0.0
 25
0.0
 35
0.0
146
0.0
 13
0.0
 23
0.0
 33
0.0
 16
1.0
 26
0.0
 36
0.0
 17
0.0
 27
1.0
 37
0.0
 76
0
330
23A
345
0
346
0
  0
ENDSEC
  0
EOF
